osu file format v13

[General]
AudioFilename: Lucid Dream.mp3
AudioLeadIn: 0
PreviewTime: -1
Countdown: 0
SampleSet: Normal
StackLeniency: 0.7
Mode: 3
LetterboxInBreaks: 1
SpecialStyle: 0
WidescreenStoryboard: 1

[Editor]
DistanceSpacing: 1.2
BeatDivisor: 4
GridSize: 4
TimelineZoom: 2.1

[Metadata]
Title:Lucid Dream
TitleUnicode:Lucid Dream
Artist:EastNewSound
ArtistUnicode:EastNewSound
Creator:Entozer
Version:Hard
Source:
Tags:
BeatmapID:454530
BeatmapSetID:190916

[Difficulty]
HPDrainRate:9
CircleSize:7
OverallDifficulty:8
ApproachRate:5
SliderMultiplier:1.4
SliderTickRate:1

[Events]
//Background and Video events
//Break Periods
//Storyboard Layer 0 (Background)
//Storyboard Layer 1 (Fail)
//Storyboard Layer 2 (Pass)
//Storyboard Layer 3 (Foreground)
//Storyboard Sound Samples
//Background Colour Transformations
3,100,163,162,255

[TimingPoints]
155,352.941176470588,4,1,0,5,1,0
182272,-400,4,1,0,5,0,0
202037,-200,4,1,0,5,0,0
202743,-133.333333333333,4,1,0,5,0,0
203449,-100,4,1,0,5,0,0

[HitObjects]
329,192,1213,5,0,0:0:0:0:
402,192,1390,1,0,0:0:0:0:
475,192,1566,1,0,0:0:0:0:
402,192,1743,1,0,0:0:0:0:
329,192,1919,1,0,0:0:0:0:
256,192,2096,1,0,0:0:0:0:
182,192,2272,1,0,0:0:0:0:
109,192,2449,1,0,0:0:0:0:
329,192,2625,1,0,0:0:0:0:
475,192,2802,1,0,0:0:0:0:
402,192,3154,1,0,0:0:0:0:
329,192,3331,1,0,0:0:0:0:
256,192,3507,1,0,0:0:0:0:
182,192,3684,1,0,0:0:0:0:
109,192,3860,1,0,0:0:0:0:
329,192,4037,1,0,0:0:0:0:
402,192,4213,1,0,0:0:0:0:
475,192,4390,1,0,0:0:0:0:
402,192,4566,1,0,0:0:0:0:
329,192,4743,1,0,0:0:0:0:
256,192,4919,1,0,0:0:0:0:
182,192,5096,1,0,0:0:0:0:
109,192,5272,1,0,0:0:0:0:
329,192,5449,1,0,0:0:0:0:
475,192,5625,1,0,0:0:0:0:
402,192,5978,1,0,0:0:0:0:
329,192,6154,1,0,0:0:0:0:
256,192,6331,1,0,0:0:0:0:
182,192,6507,1,0,0:0:0:0:
109,192,6684,1,0,0:0:0:0:
329,192,6860,1,0,0:0:0:0:
402,192,7037,1,0,0:0:0:0:
475,192,7213,1,0,0:0:0:0:
402,192,7390,1,0,0:0:0:0:
329,192,7566,1,0,0:0:0:0:
256,192,7743,1,0,0:0:0:0:
182,192,7919,1,0,0:0:0:0:
109,192,8096,1,0,0:0:0:0:
329,192,8272,1,0,0:0:0:0:
475,192,8449,1,0,0:0:0:0:
402,192,8802,1,0,0:0:0:0:
329,192,8978,1,0,0:0:0:0:
256,192,9154,1,0,0:0:0:0:
182,192,9331,1,0,0:0:0:0:
109,192,9507,1,0,0:0:0:0:
329,192,9684,1,0,0:0:0:0:
402,192,9860,1,0,0:0:0:0:
475,192,10037,1,0,0:0:0:0:
402,192,10213,1,0,0:0:0:0:
329,192,10390,1,0,0:0:0:0:
256,192,10566,1,0,0:0:0:0:
182,192,10743,1,0,0:0:0:0:
109,192,10919,1,0,0:0:0:0:
329,192,11096,1,0,0:0:0:0:
475,192,11272,1,0,0:0:0:0:
402,192,11625,1,0,0:0:0:0:
329,192,11802,1,0,0:0:0:0:
256,192,11978,1,0,0:0:0:0:
182,192,12154,1,0,0:0:0:0:
109,192,12331,1,0,0:0:0:0:
329,192,12507,1,0,0:0:0:0:
402,192,12684,1,0,0:0:0:0:
256,192,12860,1,0,0:0:0:0:
329,192,13037,1,0,0:0:0:0:
182,192,13125,1,0,0:0:0:0:
329,192,13213,1,0,0:0:0:0:
475,192,13213,1,0,0:0:0:0:
256,192,13390,1,0,0:0:0:0:
182,192,13390,1,0,0:0:0:0:
329,192,13478,1,0,0:0:0:0:
182,192,13566,1,0,0:0:0:0:
329,192,13654,1,0,0:0:0:0:
182,192,13743,1,0,0:0:0:0:
329,192,13831,1,0,0:0:0:0:
182,192,13919,1,0,0:0:0:0:
36,192,13919,1,0,0:0:0:0:
182,192,14272,1,0,0:0:0:0:
36,192,14449,1,0,0:0:0:0:
256,192,14625,1,0,0:0:0:0:
36,192,14625,1,0,0:0:0:0:
36,192,14802,1,0,0:0:0:0:
329,192,14978,1,0,0:0:0:0:
329,192,15154,1,0,0:0:0:0:
475,192,15331,1,0,0:0:0:0:
256,192,15684,1,0,0:0:0:0:
329,192,15684,1,0,0:0:0:0:
182,192,15772,1,0,0:0:0:0:
329,192,15860,1,0,0:0:0:0:
182,192,15949,1,0,0:0:0:0:
329,192,16037,128,0,16213:0:0:0:0:
256,192,16213,1,0,0:0:0:0:
109,192,16390,1,0,0:0:0:0:
182,192,16566,128,0,16743:0:0:0:0:
36,192,16743,1,0,0:0:0:0:
109,192,16919,1,0,0:0:0:0:
402,192,17096,1,0,0:0:0:0:
329,192,17272,1,0,0:0:0:0:
182,192,17360,1,0,0:0:0:0:
329,192,17449,1,0,0:0:0:0:
256,192,17449,1,0,0:0:0:0:
475,192,17449,1,0,0:0:0:0:
182,192,17625,1,0,0:0:0:0:
329,192,17713,1,0,0:0:0:0:
182,192,17802,1,0,0:0:0:0:
329,192,17890,1,0,0:0:0:0:
182,192,17978,1,0,0:0:0:0:
329,192,18066,1,0,0:0:0:0:
182,192,18154,1,0,0:0:0:0:
36,192,18154,1,0,0:0:0:0:
256,192,18507,1,0,0:0:0:0:
329,192,18684,1,0,0:0:0:0:
182,192,18772,1,0,0:0:0:0:
329,192,18860,1,0,0:0:0:0:
475,192,18860,1,0,0:0:0:0:
256,192,19037,1,0,0:0:0:0:
182,192,19037,1,0,0:0:0:0:
329,192,19125,1,0,0:0:0:0:
182,192,19213,1,0,0:0:0:0:
329,192,19302,1,0,0:0:0:0:
182,192,19390,1,0,0:0:0:0:
329,192,19478,1,0,0:0:0:0:
182,192,19566,1,0,0:0:0:0:
36,192,19566,1,0,0:0:0:0:
182,192,19919,1,0,0:0:0:0:
36,192,20096,1,0,0:0:0:0:
36,192,20272,1,0,0:0:0:0:
256,192,20272,1,0,0:0:0:0:
36,192,20449,1,0,0:0:0:0:
329,192,20625,1,0,0:0:0:0:
329,192,20802,1,0,0:0:0:0:
475,192,20978,1,0,0:0:0:0:
256,192,21331,1,0,0:0:0:0:
329,192,21331,1,0,0:0:0:0:
182,192,21419,1,0,0:0:0:0:
329,192,21507,1,0,0:0:0:0:
182,192,21596,1,0,0:0:0:0:
329,192,21684,128,0,21860:0:0:0:0:
256,192,21860,1,0,0:0:0:0:
109,192,22037,1,0,0:0:0:0:
182,192,22213,128,0,22390:0:0:0:0:
36,192,22390,1,0,0:0:0:0:
109,192,22566,1,0,0:0:0:0:
402,192,22743,5,0,0:0:0:0:
329,192,22919,1,0,0:0:0:0:
182,192,23007,1,0,0:0:0:0:
329,192,23096,1,0,0:0:0:0:
256,192,23096,1,0,0:0:0:0:
475,192,23096,1,0,0:0:0:0:
182,192,23272,1,0,0:0:0:0:
329,192,23360,1,0,0:0:0:0:
182,192,23449,1,0,0:0:0:0:
329,192,23537,1,0,0:0:0:0:
182,192,23625,1,0,0:0:0:0:
329,192,23713,1,0,0:0:0:0:
182,192,23802,1,0,0:0:0:0:
36,192,23802,128,0,23978:0:0:0:0:
109,192,23978,128,0,24154:0:0:0:0:
256,192,24154,1,0,0:0:0:0:
329,192,24154,1,0,0:0:0:0:
182,192,24154,128,0,24331:0:0:0:0:
329,192,24331,1,0,0:0:0:0:
109,192,24331,128,0,24507:0:0:0:0:
402,192,24507,1,0,0:0:0:0:
475,192,24507,1,0,0:0:0:0:
36,192,24507,128,0,24684:0:0:0:0:
182,192,24684,128,0,24860:0:0:0:0:
109,192,24860,128,0,25037:0:0:0:0:
329,192,25037,1,0,0:0:0:0:
36,192,25037,128,0,25213:0:0:0:0:
402,192,25213,1,0,0:0:0:0:
475,192,25213,1,0,0:0:0:0:
109,192,25213,128,0,25390:0:0:0:0:
182,192,25390,128,0,25743:0:0:0:0:
329,192,25566,1,0,0:0:0:0:
109,192,25743,128,0,25919:0:0:0:0:
402,192,25919,1,0,0:0:0:0:
475,192,25919,1,0,0:0:0:0:
36,192,25919,128,0,26096:0:0:0:0:
329,192,26096,1,0,0:0:0:0:
182,192,26096,128,0,26272:0:0:0:0:
109,192,26272,128,0,26449:0:0:0:0:
36,192,26449,128,0,26625:0:0:0:0:
402,192,26625,1,0,0:0:0:0:
475,192,26625,1,0,0:0:0:0:
109,192,26625,128,0,26802:0:0:0:0:
182,192,26802,128,0,26978:0:0:0:0:
256,192,26978,128,0,27154:0:0:0:0:
329,192,26978,1,0,0:0:0:0:
182,192,27154,128,0,27331:0:0:0:0:
329,192,27154,1,0,0:0:0:0:
109,192,27331,128,0,27507:0:0:0:0:
402,192,27331,1,0,0:0:0:0:
475,192,27331,1,0,0:0:0:0:
256,192,27507,128,0,27684:0:0:0:0:
182,192,27684,128,0,27860:0:0:0:0:
109,192,27860,128,0,28037:0:0:0:0:
329,192,27860,1,0,0:0:0:0:
182,192,28037,128,0,28213:0:0:0:0:
402,192,28037,1,0,0:0:0:0:
475,192,28037,1,0,0:0:0:0:
256,192,28213,128,0,28566:0:0:0:0:
329,192,28390,1,0,0:0:0:0:
182,192,28566,128,0,28743:0:0:0:0:
109,192,28743,128,0,28919:0:0:0:0:
402,192,28743,1,0,0:0:0:0:
475,192,28743,1,0,0:0:0:0:
256,192,28919,128,0,29096:0:0:0:0:
329,192,28919,1,0,0:0:0:0:
182,192,29096,128,0,29272:0:0:0:0:
109,192,29272,128,0,29449:0:0:0:0:
182,192,29449,128,0,29625:0:0:0:0:
402,192,29449,1,0,0:0:0:0:
475,192,29449,1,0,0:0:0:0:
256,192,29625,128,0,29802:0:0:0:0:
329,192,29802,128,0,29978:0:0:0:0:
36,192,29802,1,0,0:0:0:0:
256,192,29978,128,0,30154:0:0:0:0:
36,192,29978,1,0,0:0:0:0:
182,192,30154,128,0,30331:0:0:0:0:
402,192,30154,1,0,0:0:0:0:
475,192,30154,1,0,0:0:0:0:
329,192,30331,128,0,30507:0:0:0:0:
256,192,30507,128,0,30684:0:0:0:0:
182,192,30684,128,0,30860:0:0:0:0:
36,192,30684,1,0,0:0:0:0:
256,192,30860,128,0,31037:0:0:0:0:
402,192,30860,1,0,0:0:0:0:
475,192,30860,1,0,0:0:0:0:
329,192,31037,128,0,31390:0:0:0:0:
36,192,31213,1,0,0:0:0:0:
256,192,31390,128,0,31566:0:0:0:0:
182,192,31566,128,0,31743:0:0:0:0:
402,192,31566,1,0,0:0:0:0:
475,192,31566,1,0,0:0:0:0:
329,192,31743,128,0,31919:0:0:0:0:
36,192,31743,1,0,0:0:0:0:
256,192,31919,128,0,32096:0:0:0:0:
182,192,32096,128,0,32272:0:0:0:0:
256,192,32272,128,0,32449:0:0:0:0:
402,192,32272,1,0,0:0:0:0:
475,192,32272,1,0,0:0:0:0:
329,192,32449,128,0,32625:0:0:0:0:
402,192,32625,128,0,32802:0:0:0:0:
36,192,32625,1,0,0:0:0:0:
329,192,32802,128,0,32978:0:0:0:0:
36,192,32802,1,0,0:0:0:0:
256,192,32978,128,0,33154:0:0:0:0:
109,192,32978,1,0,0:0:0:0:
182,192,32978,1,0,0:0:0:0:
402,192,33154,128,0,33331:0:0:0:0:
329,192,33331,128,0,33507:0:0:0:0:
256,192,33507,128,0,33684:0:0:0:0:
36,192,33507,1,0,0:0:0:0:
329,192,33684,128,0,33860:0:0:0:0:
109,192,33684,1,0,0:0:0:0:
182,192,33684,1,0,0:0:0:0:
402,192,33860,128,0,34213:0:0:0:0:
36,192,34037,1,0,0:0:0:0:
329,192,34213,128,0,34390:0:0:0:0:
256,192,34390,128,0,34566:0:0:0:0:
109,192,34390,1,0,0:0:0:0:
182,192,34390,1,0,0:0:0:0:
402,192,34566,128,0,34743:0:0:0:0:
36,192,34566,1,0,0:0:0:0:
329,192,34743,128,0,34919:0:0:0:0:
256,192,34919,128,0,35096:0:0:0:0:
329,192,35096,128,0,35272:0:0:0:0:
109,192,35096,1,0,0:0:0:0:
182,192,35096,1,0,0:0:0:0:
402,192,35272,128,0,35449:0:0:0:0:
182,192,35272,1,0,0:0:0:0:
109,192,35360,1,0,0:0:0:0:
475,192,35449,128,0,35625:0:0:0:0:
256,192,35449,1,0,0:0:0:0:
36,192,35449,1,0,0:0:0:0:
402,192,35625,128,0,35802:0:0:0:0:
36,192,35625,1,0,0:0:0:0:
329,192,35802,128,0,35978:0:0:0:0:
109,192,35802,1,0,0:0:0:0:
182,192,35802,1,0,0:0:0:0:
475,192,35978,128,0,36154:0:0:0:0:
402,192,36154,128,0,36331:0:0:0:0:
329,192,36331,128,0,36507:0:0:0:0:
36,192,36331,1,0,0:0:0:0:
402,192,36507,128,0,36684:0:0:0:0:
109,192,36507,1,0,0:0:0:0:
182,192,36507,1,0,0:0:0:0:
475,192,36684,128,0,37037:0:0:0:0:
36,192,36860,1,0,0:0:0:0:
402,192,37037,128,0,37213:0:0:0:0:
329,192,37213,128,0,37390:0:0:0:0:
109,192,37213,1,0,0:0:0:0:
182,192,37213,1,0,0:0:0:0:
475,192,37390,128,0,37566:0:0:0:0:
36,192,37390,1,0,0:0:0:0:
402,192,37566,128,0,37743:0:0:0:0:
329,192,37743,128,0,37919:0:0:0:0:
256,192,37919,128,0,38096:0:0:0:0:
109,192,37919,1,0,0:0:0:0:
182,192,37919,1,0,0:0:0:0:
329,192,38096,128,0,38272:0:0:0:0:
402,192,38272,128,0,38449:0:0:0:0:
36,192,38272,1,0,0:0:0:0:
329,192,38449,128,0,38625:0:0:0:0:
36,192,38449,1,0,0:0:0:0:
256,192,38625,128,0,38802:0:0:0:0:
109,192,38625,1,0,0:0:0:0:
182,192,38625,1,0,0:0:0:0:
402,192,38802,128,0,38978:0:0:0:0:
329,192,38978,128,0,39154:0:0:0:0:
256,192,39154,128,0,39331:0:0:0:0:
36,192,39154,1,0,0:0:0:0:
329,192,39331,128,0,39507:0:0:0:0:
109,192,39331,1,0,0:0:0:0:
182,192,39331,1,0,0:0:0:0:
402,192,39507,128,0,39860:0:0:0:0:
36,192,39684,1,0,0:0:0:0:
329,192,39860,128,0,40037:0:0:0:0:
256,192,40037,128,0,40213:0:0:0:0:
109,192,40037,1,0,0:0:0:0:
182,192,40037,1,0,0:0:0:0:
402,192,40213,128,0,40390:0:0:0:0:
36,192,40213,1,0,0:0:0:0:
329,192,40390,128,0,40566:0:0:0:0:
256,192,40566,128,0,40743:0:0:0:0:
182,192,40743,128,0,40919:0:0:0:0:
36,192,40743,1,0,0:0:0:0:
109,192,40743,1,0,0:0:0:0:
256,192,40919,128,0,41096:0:0:0:0:
329,192,41096,128,0,41272:0:0:0:0:
36,192,41096,1,0,0:0:0:0:
256,192,41272,128,0,41449:0:0:0:0:
36,192,41272,1,0,0:0:0:0:
182,192,41449,128,0,41625:0:0:0:0:
402,192,41449,1,0,0:0:0:0:
475,192,41449,1,0,0:0:0:0:
329,192,41625,128,0,41802:0:0:0:0:
256,192,41802,128,0,41978:0:0:0:0:
182,192,41978,128,0,42154:0:0:0:0:
36,192,41978,1,0,0:0:0:0:
256,192,42154,128,0,42331:0:0:0:0:
402,192,42154,1,0,0:0:0:0:
475,192,42154,1,0,0:0:0:0:
329,192,42331,128,0,42684:0:0:0:0:
36,192,42507,1,0,0:0:0:0:
256,192,42684,128,0,42860:0:0:0:0:
182,192,42860,128,0,43037:0:0:0:0:
402,192,42860,1,0,0:0:0:0:
475,192,42860,1,0,0:0:0:0:
329,192,43037,128,0,43213:0:0:0:0:
36,192,43037,1,0,0:0:0:0:
256,192,43213,128,0,43390:0:0:0:0:
182,192,43390,128,0,43566:0:0:0:0:
109,192,43566,128,0,43743:0:0:0:0:
402,192,43566,1,0,0:0:0:0:
475,192,43566,1,0,0:0:0:0:
182,192,43743,128,0,43919:0:0:0:0:
256,192,43919,128,0,44096:0:0:0:0:
36,192,43919,1,0,0:0:0:0:
182,192,44096,128,0,44272:0:0:0:0:
36,192,44096,1,0,0:0:0:0:
109,192,44272,128,0,44449:0:0:0:0:
402,192,44272,1,0,0:0:0:0:
475,192,44272,1,0,0:0:0:0:
256,192,44449,128,0,44625:0:0:0:0:
182,192,44625,128,0,44802:0:0:0:0:
109,192,44802,128,0,44978:0:0:0:0:
402,192,44802,1,0,0:0:0:0:
475,192,44802,1,0,0:0:0:0:
182,192,44978,128,0,45154:0:0:0:0:
256,192,44978,1,0,0:0:0:0:
36,192,44978,1,0,0:0:0:0:
256,192,45154,128,0,46037:0:0:0:0:
36,192,45154,1,0,0:0:0:0:
402,192,45154,1,0,0:0:0:0:
329,192,45331,1,0,0:0:0:0:
182,192,45507,1,0,0:0:0:0:
402,192,45684,1,0,0:0:0:0:
182,192,45860,1,0,0:0:0:0:
329,192,45949,1,0,0:0:0:0:
475,192,46037,128,0,46743:0:0:0:0:
36,192,46037,128,0,46743:0:0:0:0:
109,192,46037,1,0,0:0:0:0:
402,192,46125,1,0,0:0:0:0:
182,192,46213,1,0,0:0:0:0:
402,192,46390,1,0,0:0:0:0:
109,192,46478,1,0,0:0:0:0:
402,192,46566,1,0,0:0:0:0:
109,192,46654,1,0,0:0:0:0:
256,192,46743,1,0,0:0:0:0:
329,192,46743,1,0,0:0:0:0:
182,192,46743,1,0,0:0:0:0:
256,192,46919,1,0,0:0:0:0:
36,192,47096,1,0,0:0:0:0:
475,192,47096,1,0,0:0:0:0:
402,192,47272,1,0,0:0:0:0:
109,192,47360,1,0,0:0:0:0:
402,192,47449,1,0,0:0:0:0:
109,192,47537,1,0,0:0:0:0:
256,192,47625,1,0,0:0:0:0:
36,192,47802,1,0,0:0:0:0:
475,192,47802,1,0,0:0:0:0:
256,192,48154,1,0,0:0:0:0:
329,192,48331,1,0,0:0:0:0:
182,192,48507,1,0,0:0:0:0:
36,192,48507,1,0,0:0:0:0:
475,192,48507,1,0,0:0:0:0:
256,192,48684,1,0,0:0:0:0:
402,192,48684,1,0,0:0:0:0:
109,192,48772,1,0,0:0:0:0:
402,192,48860,1,0,0:0:0:0:
109,192,48949,1,0,0:0:0:0:
402,192,49037,1,0,0:0:0:0:
36,192,49213,1,0,0:0:0:0:
475,192,49213,1,0,0:0:0:0:
256,192,49566,1,0,0:0:0:0:
402,192,49566,1,0,0:0:0:0:
109,192,49654,1,0,0:0:0:0:
256,192,49743,1,0,0:0:0:0:
402,192,49743,1,0,0:0:0:0:
109,192,49831,1,0,0:0:0:0:
36,192,49919,1,0,0:0:0:0:
475,192,49919,1,0,0:0:0:0:
109,192,50184,1,0,0:0:0:0:
109,192,50360,1,0,0:0:0:0:
256,192,50449,1,0,0:0:0:0:
402,192,50449,1,0,0:0:0:0:
36,192,50625,1,0,0:0:0:0:
475,192,50625,1,0,0:0:0:0:
256,192,50978,1,0,0:0:0:0:
402,192,51154,1,0,0:0:0:0:
109,192,51243,1,0,0:0:0:0:
475,192,51331,1,0,0:0:0:0:
36,192,51331,1,0,0:0:0:0:
256,192,51507,1,0,0:0:0:0:
402,192,51507,1,0,0:0:0:0:
109,192,51596,1,0,0:0:0:0:
402,192,51684,1,0,0:0:0:0:
109,192,51772,1,0,0:0:0:0:
402,192,51860,1,0,0:0:0:0:
475,192,52037,1,0,0:0:0:0:
36,192,52037,1,0,0:0:0:0:
256,192,52390,1,0,0:0:0:0:
256,192,52566,1,0,0:0:0:0:
402,192,52566,1,0,0:0:0:0:
109,192,52654,1,0,0:0:0:0:
36,192,52743,1,0,0:0:0:0:
475,192,52743,1,0,0:0:0:0:
109,192,53007,1,0,0:0:0:0:
402,192,53096,1,0,0:0:0:0:
109,192,53184,1,0,0:0:0:0:
402,192,53272,1,0,0:0:0:0:
256,192,53272,1,0,0:0:0:0:
36,192,53449,1,0,0:0:0:0:
475,192,53449,1,0,0:0:0:0:
256,192,53802,1,0,0:0:0:0:
329,192,53978,1,0,0:0:0:0:
182,192,54154,1,0,0:0:0:0:
256,192,54331,1,0,0:0:0:0:
402,192,54331,1,0,0:0:0:0:
109,192,54419,1,0,0:0:0:0:
402,192,54507,1,0,0:0:0:0:
109,192,54596,1,0,0:0:0:0:
402,192,54684,1,0,0:0:0:0:
36,192,54860,1,0,0:0:0:0:
475,192,54860,1,0,0:0:0:0:
256,192,55213,1,0,0:0:0:0:
402,192,55213,1,0,0:0:0:0:
109,192,55302,1,0,0:0:0:0:
256,192,55390,1,0,0:0:0:0:
402,192,55390,1,0,0:0:0:0:
109,192,55478,1,0,0:0:0:0:
36,192,55566,1,0,0:0:0:0:
475,192,55566,1,0,0:0:0:0:
109,192,55831,1,0,0:0:0:0:
109,192,56007,1,0,0:0:0:0:
402,192,56096,1,0,0:0:0:0:
256,192,56096,1,0,0:0:0:0:
36,192,56272,1,0,0:0:0:0:
475,192,56272,1,0,0:0:0:0:
256,192,56625,1,0,0:0:0:0:
402,192,56802,1,0,0:0:0:0:
109,192,56890,1,0,0:0:0:0:
36,192,56978,1,0,0:0:0:0:
475,192,56978,1,0,0:0:0:0:
256,192,57154,1,0,0:0:0:0:
402,192,57154,1,0,0:0:0:0:
109,192,57243,1,0,0:0:0:0:
402,192,57331,1,0,0:0:0:0:
109,192,57419,1,0,0:0:0:0:
402,192,57507,1,0,0:0:0:0:
36,192,57684,1,0,0:0:0:0:
475,192,57684,1,0,0:0:0:0:
475,192,57860,1,0,0:0:0:0:
36,192,57949,1,0,0:0:0:0:
256,192,58037,1,0,0:0:0:0:
475,192,58037,1,0,0:0:0:0:
109,192,58037,1,0,0:0:0:0:
402,192,58213,1,0,0:0:0:0:
109,192,58213,1,0,0:0:0:0:
329,192,58390,1,0,0:0:0:0:
36,192,58390,1,0,0:0:0:0:
182,192,58390,1,0,0:0:0:0:
475,192,58566,1,0,0:0:0:0:
402,192,58743,1,0,0:0:0:0:
329,192,58919,1,0,0:0:0:0:
109,192,58919,1,0,0:0:0:0:
402,192,59096,1,0,0:0:0:0:
36,192,59096,1,0,0:0:0:0:
182,192,59096,1,0,0:0:0:0:
475,192,59272,1,0,0:0:0:0:
109,192,59449,1,0,0:0:0:0:
402,192,59625,1,0,0:0:0:0:
329,192,59802,1,0,0:0:0:0:
36,192,59802,1,0,0:0:0:0:
182,192,59802,1,0,0:0:0:0:
475,192,59978,1,0,0:0:0:0:
109,192,59978,1,0,0:0:0:0:
402,192,60154,1,0,0:0:0:0:
329,192,60331,1,0,0:0:0:0:
109,192,60331,1,0,0:0:0:0:
329,192,60507,1,0,0:0:0:0:
36,192,60507,1,0,0:0:0:0:
182,192,60507,1,0,0:0:0:0:
402,192,60684,1,0,0:0:0:0:
475,192,60860,1,0,0:0:0:0:
109,192,60860,1,0,0:0:0:0:
402,192,61037,1,0,0:0:0:0:
109,192,61037,1,0,0:0:0:0:
329,192,61213,1,0,0:0:0:0:
36,192,61213,1,0,0:0:0:0:
182,192,61213,1,0,0:0:0:0:
475,192,61390,1,0,0:0:0:0:
182,192,61478,1,0,0:0:0:0:
402,192,61566,1,0,0:0:0:0:
182,192,61654,1,0,0:0:0:0:
329,192,61743,1,0,0:0:0:0:
109,192,61743,1,0,0:0:0:0:
402,192,61919,1,0,0:0:0:0:
182,192,61919,1,0,0:0:0:0:
36,192,61919,1,0,0:0:0:0:
475,192,62096,1,0,0:0:0:0:
109,192,62272,1,0,0:0:0:0:
402,192,62449,1,0,0:0:0:0:
329,192,62625,1,0,0:0:0:0:
182,192,62625,1,0,0:0:0:0:
36,192,62625,1,0,0:0:0:0:
475,192,62802,1,0,0:0:0:0:
109,192,62802,1,0,0:0:0:0:
402,192,62978,1,0,0:0:0:0:
329,192,63154,1,0,0:0:0:0:
329,192,63331,1,0,0:0:0:0:
182,192,63331,1,0,0:0:0:0:
36,192,63331,1,0,0:0:0:0:
402,192,63507,1,0,0:0:0:0:
475,192,63684,1,0,0:0:0:0:
36,192,63684,1,0,0:0:0:0:
402,192,63860,1,0,0:0:0:0:
36,192,63860,1,0,0:0:0:0:
329,192,64037,1,0,0:0:0:0:
109,192,64037,1,0,0:0:0:0:
182,192,64037,1,0,0:0:0:0:
475,192,64213,1,0,0:0:0:0:
402,192,64390,1,0,0:0:0:0:
329,192,64566,1,0,0:0:0:0:
36,192,64566,1,0,0:0:0:0:
402,192,64743,1,0,0:0:0:0:
109,192,64743,1,0,0:0:0:0:
182,192,64743,1,0,0:0:0:0:
475,192,64919,1,0,0:0:0:0:
36,192,65096,1,0,0:0:0:0:
402,192,65272,1,0,0:0:0:0:
329,192,65449,1,0,0:0:0:0:
109,192,65449,1,0,0:0:0:0:
182,192,65449,1,0,0:0:0:0:
475,192,65625,1,0,0:0:0:0:
36,192,65625,1,0,0:0:0:0:
402,192,65802,1,0,0:0:0:0:
329,192,65978,1,0,0:0:0:0:
329,192,66154,1,0,0:0:0:0:
109,192,66154,1,0,0:0:0:0:
182,192,66154,1,0,0:0:0:0:
402,192,66331,1,0,0:0:0:0:
475,192,66507,1,0,0:0:0:0:
36,192,66507,1,0,0:0:0:0:
402,192,66684,1,0,0:0:0:0:
36,192,66684,1,0,0:0:0:0:
329,192,66860,1,0,0:0:0:0:
109,192,66860,1,0,0:0:0:0:
182,192,66860,1,0,0:0:0:0:
475,192,67037,1,0,0:0:0:0:
182,192,67125,1,0,0:0:0:0:
402,192,67213,1,0,0:0:0:0:
182,192,67302,1,0,0:0:0:0:
329,192,67390,1,0,0:0:0:0:
36,192,67390,1,0,0:0:0:0:
402,192,67566,1,0,0:0:0:0:
109,192,67566,1,0,0:0:0:0:
182,192,67566,1,0,0:0:0:0:
475,192,67743,1,0,0:0:0:0:
182,192,67919,1,0,0:0:0:0:
402,192,68096,1,0,0:0:0:0:
182,192,68096,1,0,0:0:0:0:
329,192,68272,1,0,0:0:0:0:
36,192,68272,1,0,0:0:0:0:
475,192,68449,1,0,0:0:0:0:
182,192,68449,1,0,0:0:0:0:
109,192,68537,1,0,0:0:0:0:
402,192,68625,1,0,0:0:0:0:
182,192,68625,1,0,0:0:0:0:
109,192,68713,1,0,0:0:0:0:
329,192,68802,1,0,0:0:0:0:
182,192,68802,1,0,0:0:0:0:
182,192,68978,1,0,0:0:0:0:
182,192,69154,1,0,0:0:0:0:
36,192,69331,1,0,0:0:0:0:
329,192,69331,1,0,0:0:0:0:
475,192,69331,1,0,0:0:0:0:
109,192,69507,1,0,0:0:0:0:
329,192,69507,1,0,0:0:0:0:
182,192,69684,1,0,0:0:0:0:
402,192,69684,1,0,0:0:0:0:
475,192,69684,1,0,0:0:0:0:
109,192,69860,1,0,0:0:0:0:
182,192,70037,1,0,0:0:0:0:
256,192,70213,1,0,0:0:0:0:
329,192,70213,1,0,0:0:0:0:
182,192,70390,1,0,0:0:0:0:
402,192,70390,1,0,0:0:0:0:
475,192,70390,1,0,0:0:0:0:
109,192,70566,1,0,0:0:0:0:
182,192,70743,1,0,0:0:0:0:
329,192,70743,1,0,0:0:0:0:
36,192,70919,1,0,0:0:0:0:
109,192,71096,1,0,0:0:0:0:
402,192,71096,1,0,0:0:0:0:
475,192,71096,1,0,0:0:0:0:
182,192,71272,1,0,0:0:0:0:
329,192,71272,1,0,0:0:0:0:
109,192,71449,1,0,0:0:0:0:
182,192,71625,1,0,0:0:0:0:
36,192,71802,1,0,0:0:0:0:
402,192,71802,1,0,0:0:0:0:
475,192,71802,1,0,0:0:0:0:
256,192,71978,1,0,0:0:0:0:
182,192,72154,1,0,0:0:0:0:
329,192,72154,1,0,0:0:0:0:
36,192,72331,1,0,0:0:0:0:
329,192,72331,1,0,0:0:0:0:
109,192,72507,1,0,0:0:0:0:
402,192,72507,1,0,0:0:0:0:
475,192,72507,1,0,0:0:0:0:
182,192,72684,1,0,0:0:0:0:
475,192,72772,1,0,0:0:0:0:
109,192,72860,1,0,0:0:0:0:
475,192,72949,1,0,0:0:0:0:
182,192,73037,1,0,0:0:0:0:
329,192,73037,1,0,0:0:0:0:
256,192,73213,1,0,0:0:0:0:
402,192,73213,1,0,0:0:0:0:
475,192,73213,1,0,0:0:0:0:
182,192,73390,1,0,0:0:0:0:
109,192,73566,1,0,0:0:0:0:
329,192,73566,1,0,0:0:0:0:
182,192,73743,1,0,0:0:0:0:
109,192,73919,1,0,0:0:0:0:
402,192,73919,1,0,0:0:0:0:
475,192,73919,1,0,0:0:0:0:
36,192,74096,1,0,0:0:0:0:
329,192,74096,1,0,0:0:0:0:
109,192,74272,1,0,0:0:0:0:
182,192,74449,1,0,0:0:0:0:
256,192,74625,1,0,0:0:0:0:
402,192,74625,1,0,0:0:0:0:
475,192,74625,1,0,0:0:0:0:
182,192,74802,1,0,0:0:0:0:
36,192,74978,1,0,0:0:0:0:
475,192,74978,1,0,0:0:0:0:
109,192,75154,1,0,0:0:0:0:
475,192,75154,1,0,0:0:0:0:
182,192,75331,1,0,0:0:0:0:
402,192,75331,1,0,0:0:0:0:
329,192,75331,1,0,0:0:0:0:
109,192,75507,1,0,0:0:0:0:
329,192,75596,1,0,0:0:0:0:
182,192,75684,1,0,0:0:0:0:
329,192,75772,1,0,0:0:0:0:
256,192,75860,1,0,0:0:0:0:
475,192,75860,1,0,0:0:0:0:
182,192,76037,1,0,0:0:0:0:
402,192,76037,1,0,0:0:0:0:
329,192,76037,1,0,0:0:0:0:
109,192,76213,1,0,0:0:0:0:
182,192,76390,1,0,0:0:0:0:
475,192,76390,1,0,0:0:0:0:
36,192,76566,1,0,0:0:0:0:
109,192,76743,1,0,0:0:0:0:
402,192,76743,1,0,0:0:0:0:
329,192,76743,1,0,0:0:0:0:
182,192,76919,1,0,0:0:0:0:
475,192,76919,1,0,0:0:0:0:
109,192,77096,1,0,0:0:0:0:
182,192,77272,1,0,0:0:0:0:
36,192,77449,1,0,0:0:0:0:
402,192,77449,1,0,0:0:0:0:
329,192,77449,1,0,0:0:0:0:
256,192,77625,1,0,0:0:0:0:
182,192,77802,1,0,0:0:0:0:
475,192,77802,1,0,0:0:0:0:
475,192,77978,1,0,0:0:0:0:
36,192,77979,1,0,0:0:0:0:
402,192,78154,1,0,0:0:0:0:
329,192,78154,1,0,0:0:0:0:
109,192,78155,1,0,0:0:0:0:
182,192,78332,1,0,0:0:0:0:
329,192,78419,1,0,0:0:0:0:
109,192,78508,1,0,0:0:0:0:
329,192,78596,1,0,0:0:0:0:
475,192,78684,1,0,0:0:0:0:
182,192,78685,1,0,0:0:0:0:
402,192,78860,1,0,0:0:0:0:
329,192,78860,1,0,0:0:0:0:
256,192,78861,1,0,0:0:0:0:
182,192,79038,1,0,0:0:0:0:
475,192,79213,1,0,0:0:0:0:
109,192,79214,1,0,0:0:0:0:
182,192,79391,1,0,0:0:0:0:
402,192,79566,1,0,0:0:0:0:
329,192,79566,1,0,0:0:0:0:
109,192,79567,1,0,0:0:0:0:
36,192,79744,1,0,0:0:0:0:
329,192,79831,1,0,0:0:0:0:
109,192,79920,1,0,0:0:0:0:
329,192,80007,1,0,0:0:0:0:
475,192,80096,1,0,0:0:0:0:
182,192,80097,1,0,0:0:0:0:
402,192,80272,1,0,0:0:0:0:
329,192,80272,1,0,0:0:0:0:
256,192,80273,1,0,0:0:0:0:
182,192,80449,1,0,0:0:0:0:
329,192,80449,1,0,0:0:0:0:
475,192,80537,1,0,0:0:0:0:
36,192,80625,1,0,0:0:0:0:
256,192,80625,1,0,0:0:0:0:
402,192,80625,1,0,0:0:0:0:
109,192,80801,1,0,0:0:0:0:
402,192,80802,1,0,0:0:0:0:
182,192,80978,1,0,0:0:0:0:
329,192,80978,1,0,0:0:0:0:
475,192,80978,1,0,0:0:0:0:
109,192,81154,1,0,0:0:0:0:
475,192,81243,1,0,0:0:0:0:
182,192,81331,1,0,0:0:0:0:
475,192,81419,1,0,0:0:0:0:
256,192,81507,1,0,0:0:0:0:
402,192,81507,1,0,0:0:0:0:
182,192,81684,1,0,0:0:0:0:
329,192,81684,1,0,0:0:0:0:
475,192,81684,1,0,0:0:0:0:
109,192,81860,1,0,0:0:0:0:
182,192,82037,1,0,0:0:0:0:
402,192,82037,1,0,0:0:0:0:
36,192,82213,1,0,0:0:0:0:
109,192,82390,1,0,0:0:0:0:
329,192,82390,1,0,0:0:0:0:
475,192,82390,1,0,0:0:0:0:
182,192,82566,1,0,0:0:0:0:
402,192,82566,1,0,0:0:0:0:
109,192,82743,1,0,0:0:0:0:
182,192,82919,1,0,0:0:0:0:
36,192,83096,1,0,0:0:0:0:
329,192,83096,1,0,0:0:0:0:
475,192,83096,1,0,0:0:0:0:
256,192,83272,1,0,0:0:0:0:
182,192,83449,1,0,0:0:0:0:
402,192,83449,1,0,0:0:0:0:
402,192,83625,1,0,0:0:0:0:
36,192,83626,1,0,0:0:0:0:
109,192,83802,1,0,0:0:0:0:
329,192,83802,1,0,0:0:0:0:
475,192,83802,1,0,0:0:0:0:
182,192,83979,1,0,0:0:0:0:
475,192,84066,1,0,0:0:0:0:
109,192,84155,1,0,0:0:0:0:
475,192,84243,1,0,0:0:0:0:
402,192,84331,1,0,0:0:0:0:
182,192,84332,1,0,0:0:0:0:
329,192,84507,1,0,0:0:0:0:
475,192,84507,1,0,0:0:0:0:
256,192,84508,1,0,0:0:0:0:
182,192,84685,1,0,0:0:0:0:
402,192,84860,1,0,0:0:0:0:
109,192,84861,1,0,0:0:0:0:
182,192,85038,1,0,0:0:0:0:
329,192,85213,1,0,0:0:0:0:
475,192,85213,1,0,0:0:0:0:
109,192,85214,1,0,0:0:0:0:
402,192,85390,1,0,0:0:0:0:
36,192,85391,1,0,0:0:0:0:
109,192,85567,1,0,0:0:0:0:
182,192,85744,1,0,0:0:0:0:
475,192,85919,1,0,0:0:0:0:
329,192,85919,1,0,0:0:0:0:
256,192,85920,1,0,0:0:0:0:
182,192,86096,1,0,0:0:0:0:
36,192,86272,1,0,0:0:0:0:
402,192,86272,128,0,90507:0:0:0:0:
329,192,86272,1,0,0:0:0:0:
109,192,86448,1,0,0:0:0:0:
329,192,86449,1,0,0:0:0:0:
182,192,86625,1,0,0:0:0:0:
475,192,86625,1,0,0:0:0:0:
109,192,86801,1,0,0:0:0:0:
475,192,86890,1,0,0:0:0:0:
182,192,86978,1,0,0:0:0:0:
475,192,87066,1,0,0:0:0:0:
256,192,87154,1,0,0:0:0:0:
329,192,87154,1,0,0:0:0:0:
182,192,87331,1,0,0:0:0:0:
475,192,87331,1,0,0:0:0:0:
109,192,87507,1,0,0:0:0:0:
182,192,87684,1,0,0:0:0:0:
329,192,87684,1,0,0:0:0:0:
36,192,87860,1,0,0:0:0:0:
109,192,88037,1,0,0:0:0:0:
475,192,88037,1,0,0:0:0:0:
182,192,88213,1,0,0:0:0:0:
329,192,88213,1,0,0:0:0:0:
109,192,88390,1,0,0:0:0:0:
182,192,88566,1,0,0:0:0:0:
36,192,88743,1,0,0:0:0:0:
475,192,88743,1,0,0:0:0:0:
256,192,88919,1,0,0:0:0:0:
182,192,89096,1,0,0:0:0:0:
329,192,89096,1,0,0:0:0:0:
329,192,89272,1,0,0:0:0:0:
36,192,89273,1,0,0:0:0:0:
109,192,89449,1,0,0:0:0:0:
475,192,89449,1,0,0:0:0:0:
182,192,89626,1,0,0:0:0:0:
475,192,89713,1,0,0:0:0:0:
109,192,89802,1,0,0:0:0:0:
475,192,89890,1,0,0:0:0:0:
329,192,89978,1,0,0:0:0:0:
182,192,89979,1,0,0:0:0:0:
475,192,90154,1,0,0:0:0:0:
256,192,90155,1,0,0:0:0:0:
182,192,90332,1,0,0:0:0:0:
329,192,90507,1,0,0:0:0:0:
475,192,90507,1,0,0:0:0:0:
109,192,90508,1,0,0:0:0:0:
182,192,90685,1,0,0:0:0:0:
109,192,90861,1,0,0:0:0:0:
36,192,91038,1,0,0:0:0:0:
329,192,91213,1,0,0:0:0:0:
475,192,91213,1,0,0:0:0:0:
109,192,91214,1,0,0:0:0:0:
182,192,91391,1,0,0:0:0:0:
329,192,91566,128,0,91743:0:0:0:0:
475,192,91566,1,0,0:0:0:0:
256,192,91567,1,0,0:0:0:0:
402,192,91743,128,0,91919:0:0:0:0:
109,192,91743,1,0,0:0:0:0:
36,192,91831,1,0,0:0:0:0:
182,192,91919,1,0,0:0:0:0:
256,192,91919,1,0,0:0:0:0:
475,192,91919,128,0,92096:0:0:0:0:
402,192,92096,128,0,92272:0:0:0:0:
329,192,92272,128,0,92449:0:0:0:0:
36,192,92272,1,0,0:0:0:0:
182,192,92449,128,0,92625:0:0:0:0:
475,192,92449,1,0,0:0:0:0:
109,192,92625,128,0,92802:0:0:0:0:
36,192,92802,128,0,92978:0:0:0:0:
475,192,92802,1,0,0:0:0:0:
256,192,92978,128,0,93154:0:0:0:0:
475,192,93154,128,0,93507:0:0:0:0:
182,192,93331,1,0,0:0:0:0:
402,192,93507,128,0,93684:0:0:0:0:
329,192,93684,128,0,93860:0:0:0:0:
36,192,93684,1,0,0:0:0:0:
182,192,93860,128,0,94037:0:0:0:0:
475,192,93860,1,0,0:0:0:0:
109,192,94037,128,0,94213:0:0:0:0:
36,192,94213,128,0,94390:0:0:0:0:
475,192,94213,1,0,0:0:0:0:
182,192,94390,128,0,94566:0:0:0:0:
402,192,94390,1,0,0:0:0:0:
329,192,94566,128,0,94743:0:0:0:0:
109,192,94566,1,0,0:0:0:0:
475,192,94743,128,0,94919:0:0:0:0:
36,192,94743,1,0,0:0:0:0:
402,192,94919,128,0,95096:0:0:0:0:
329,192,95096,128,0,95272:0:0:0:0:
182,192,95096,1,0,0:0:0:0:
182,192,95272,128,0,95449:0:0:0:0:
36,192,95272,1,0,0:0:0:0:
109,192,95449,128,0,95625:0:0:0:0:
36,192,95625,128,0,95802:0:0:0:0:
475,192,95625,1,0,0:0:0:0:
329,192,95802,128,0,95978:0:0:0:0:
182,192,95978,128,0,96154:0:0:0:0:
402,192,96154,128,0,96331:0:0:0:0:
109,192,96154,1,0,0:0:0:0:
329,192,96331,128,0,96507:0:0:0:0:
182,192,96507,128,0,96684:0:0:0:0:
402,192,96507,1,0,0:0:0:0:
109,192,96684,128,0,96860:0:0:0:0:
329,192,96684,1,0,0:0:0:0:
402,192,96860,128,0,97037:0:0:0:0:
182,192,97037,128,0,97213:0:0:0:0:
109,192,97037,1,0,0:0:0:0:
329,192,97213,128,0,97390:0:0:0:0:
36,192,97213,1,0,0:0:0:0:
109,192,97390,128,0,97566:0:0:0:0:
182,192,97390,1,0,0:0:0:0:
475,192,97566,128,0,97743:0:0:0:0:
329,192,97566,1,0,0:0:0:0:
402,192,97743,128,0,97919:0:0:0:0:
329,192,97919,128,0,98096:0:0:0:0:
109,192,97919,1,0,0:0:0:0:
182,192,98096,128,0,98272:0:0:0:0:
36,192,98096,1,0,0:0:0:0:
109,192,98272,128,0,98449:0:0:0:0:
36,192,98449,128,0,98625:0:0:0:0:
475,192,98449,1,0,0:0:0:0:
256,192,98625,128,0,98802:0:0:0:0:
475,192,98802,128,0,99154:0:0:0:0:
329,192,98978,1,0,0:0:0:0:
402,192,99154,128,0,99331:0:0:0:0:
329,192,99331,128,0,99507:0:0:0:0:
182,192,99331,1,0,0:0:0:0:
182,192,99507,128,0,99684:0:0:0:0:
36,192,99507,1,0,0:0:0:0:
109,192,99684,128,0,99860:0:0:0:0:
36,192,99860,128,0,100037:0:0:0:0:
329,192,99860,1,0,0:0:0:0:
182,192,100037,128,0,100213:0:0:0:0:
329,192,100213,128,0,100390:0:0:0:0:
402,192,100213,1,0,0:0:0:0:
109,192,100390,128,0,100566:0:0:0:0:
475,192,100390,1,0,0:0:0:0:
36,192,100566,128,0,100743:0:0:0:0:
256,192,100743,128,0,100919:0:0:0:0:
329,192,100743,1,0,0:0:0:0:
475,192,100919,1,0,0:0:0:0:
182,192,100919,128,0,101096:0:0:0:0:
402,192,101096,128,0,101449:0:0:0:0:
475,192,101272,1,0,0:0:0:0:
329,192,101449,128,0,101802:0:0:0:0:
182,192,101625,1,0,0:0:0:0:
109,192,101802,128,0,101978:0:0:0:0:
36,192,101802,1,0,0:0:0:0:
182,192,101978,128,0,102154:0:0:0:0:
329,192,102154,128,0,102331:0:0:0:0:
109,192,102154,1,0,0:0:0:0:
402,192,102331,128,0,102507:0:0:0:0:
36,192,102331,1,0,0:0:0:0:
475,192,102507,128,0,102684:0:0:0:0:
329,192,102684,128,0,102860:0:0:0:0:
109,192,102684,1,0,0:0:0:0:
182,192,102860,128,0,103037:0:0:0:0:
475,192,102860,1,0,0:0:0:0:
36,192,103037,128,0,103213:0:0:0:0:
329,192,103037,1,0,0:0:0:0:
475,192,103213,128,0,103390:0:0:0:0:
182,192,103213,1,0,0:0:0:0:
402,192,103390,128,0,103566:0:0:0:0:
329,192,103566,128,0,103743:0:0:0:0:
36,192,103566,1,0,0:0:0:0:
182,192,103743,128,0,103919:0:0:0:0:
475,192,103743,1,0,0:0:0:0:
109,192,103919,128,0,104096:0:0:0:0:
36,192,104096,128,0,104272:0:0:0:0:
475,192,104096,1,0,0:0:0:0:
256,192,104272,128,0,104449:0:0:0:0:
475,192,104449,128,0,104802:0:0:0:0:
109,192,104449,1,0,0:0:0:0:
402,192,104802,128,0,104978:0:0:0:0:
329,192,104978,128,0,105154:0:0:0:0:
182,192,105154,128,0,105331:0:0:0:0:
109,192,105331,128,0,105507:0:0:0:0:
36,192,105507,128,0,105684:0:0:0:0:
182,192,105684,128,0,105860:0:0:0:0:
329,192,105860,128,0,106037:0:0:0:0:
36,192,105860,1,0,0:0:0:0:
475,192,106037,128,0,106213:0:0:0:0:
182,192,106037,1,0,0:0:0:0:
402,192,106213,128,0,106390:0:0:0:0:
329,192,106390,128,0,106566:0:0:0:0:
182,192,106390,1,0,0:0:0:0:
182,192,106566,128,0,106743:0:0:0:0:
36,192,106566,1,0,0:0:0:0:
109,192,106743,128,0,106919:0:0:0:0:
36,192,106919,128,0,107096:0:0:0:0:
475,192,106919,1,0,0:0:0:0:
256,192,107096,128,0,107449:0:0:0:0:
475,192,107272,1,0,0:0:0:0:
402,192,107449,128,0,107625:0:0:0:0:
182,192,107449,1,0,0:0:0:0:
329,192,107625,128,0,107802:0:0:0:0:
182,192,107802,128,0,107978:0:0:0:0:
36,192,107802,1,0,0:0:0:0:
109,192,107978,128,0,108154:0:0:0:0:
329,192,107978,1,0,0:0:0:0:
402,192,108154,128,0,108331:0:0:0:0:
182,192,108331,128,0,108507:0:0:0:0:
475,192,108331,1,0,0:0:0:0:
329,192,108507,128,0,108684:0:0:0:0:
36,192,108507,1,0,0:0:0:0:
109,192,108684,128,0,108860:0:0:0:0:
402,192,108684,1,0,0:0:0:0:
475,192,108860,128,0,109037:0:0:0:0:
182,192,108860,1,0,0:0:0:0:
402,192,109037,128,0,109213:0:0:0:0:
329,192,109213,128,0,109390:0:0:0:0:
36,192,109213,1,0,0:0:0:0:
182,192,109390,128,0,109566:0:0:0:0:
475,192,109390,1,0,0:0:0:0:
109,192,109566,128,0,109743:0:0:0:0:
36,192,109743,128,0,109919:0:0:0:0:
475,192,109743,1,0,0:0:0:0:
256,192,109919,128,0,110096:0:0:0:0:
475,192,110096,128,0,110449:0:0:0:0:
109,192,110096,1,0,0:0:0:0:
402,192,110449,128,0,110625:0:0:0:0:
329,192,110625,128,0,110802:0:0:0:0:
36,192,110625,1,0,0:0:0:0:
182,192,110802,128,0,110978:0:0:0:0:
475,192,110802,1,0,0:0:0:0:
109,192,110978,128,0,111154:0:0:0:0:
36,192,111154,128,0,111331:0:0:0:0:
475,192,111154,1,0,0:0:0:0:
329,192,111331,128,0,111507:0:0:0:0:
182,192,111507,128,0,111684:0:0:0:0:
109,192,111507,1,0,0:0:0:0:
329,192,111684,128,0,111860:0:0:0:0:
402,192,111684,1,0,0:0:0:0:
109,192,111860,128,0,112037:0:0:0:0:
256,192,112037,128,0,112213:0:0:0:0:
402,192,112213,128,0,112566:0:0:0:0:
182,192,112213,1,0,0:0:0:0:
329,192,112566,128,0,112743:0:0:0:0:
109,192,112566,1,0,0:0:0:0:
182,192,112743,128,0,112919:0:0:0:0:
329,192,112919,128,0,113096:0:0:0:0:
475,192,112919,1,0,0:0:0:0:
36,192,113096,128,0,113272:0:0:0:0:
402,192,113096,1,0,0:0:0:0:
256,192,113096,1,0,0:0:0:0:
109,192,113096,1,0,0:0:0:0:
182,192,113272,128,0,113449:0:0:0:0:
329,192,113449,128,0,113625:0:0:0:0:
402,192,113449,1,0,0:0:0:0:
475,192,113625,128,0,114507:0:0:0:0:
109,192,113625,1,0,0:0:0:0:
329,192,113802,1,0,0:0:0:0:
182,192,113802,1,0,0:0:0:0:
256,192,113978,1,0,0:0:0:0:
36,192,114154,128,0,114507:0:0:0:0:
182,192,114154,1,0,0:0:0:0:
329,192,114154,1,0,0:0:0:0:
402,192,114331,1,0,0:0:0:0:
109,192,114419,1,0,0:0:0:0:
329,192,114507,128,0,114684:0:0:0:0:
256,192,114507,1,0,0:0:0:0:
182,192,114507,1,0,0:0:0:0:
402,192,114684,128,0,114860:0:0:0:0:
182,192,114684,1,0,0:0:0:0:
36,192,114860,1,0,0:0:0:0:
475,192,114860,128,0,115037:0:0:0:0:
109,192,114860,1,0,0:0:0:0:
329,192,115037,128,0,115213:0:0:0:0:
402,192,115213,128,0,115390:0:0:0:0:
182,192,115390,1,0,0:0:0:0:
475,192,115390,128,0,115566:0:0:0:0:
36,192,115566,1,0,0:0:0:0:
109,192,115566,1,0,0:0:0:0:
402,192,115566,128,0,115743:0:0:0:0:
329,192,115743,128,0,116096:0:0:0:0:
182,192,115919,1,0,0:0:0:0:
402,192,116096,128,0,116272:0:0:0:0:
475,192,116272,128,0,116449:0:0:0:0:
36,192,116272,1,0,0:0:0:0:
109,192,116272,1,0,0:0:0:0:
182,192,116449,1,0,0:0:0:0:
329,192,116449,128,0,116625:0:0:0:0:
402,192,116625,128,0,116802:0:0:0:0:
475,192,116802,128,0,116978:0:0:0:0:
36,192,116978,1,0,0:0:0:0:
109,192,116978,1,0,0:0:0:0:
402,192,116978,128,0,117154:0:0:0:0:
329,192,117154,128,0,117331:0:0:0:0:
256,192,117331,128,0,117507:0:0:0:0:
182,192,117331,1,0,0:0:0:0:
182,192,117507,1,0,0:0:0:0:
329,192,117507,128,0,117684:0:0:0:0:
36,192,117684,1,0,0:0:0:0:
402,192,117684,128,0,117860:0:0:0:0:
109,192,117684,1,0,0:0:0:0:
256,192,117860,128,0,118037:0:0:0:0:
329,192,118037,128,0,118213:0:0:0:0:
182,192,118213,1,0,0:0:0:0:
402,192,118213,128,0,118390:0:0:0:0:
329,192,118390,128,0,118566:0:0:0:0:
109,192,118390,1,0,0:0:0:0:
36,192,118390,1,0,0:0:0:0:
256,192,118566,128,0,118919:0:0:0:0:
182,192,118743,1,0,0:0:0:0:
329,192,118919,128,0,119096:0:0:0:0:
36,192,119096,1,0,0:0:0:0:
109,192,119096,1,0,0:0:0:0:
402,192,119096,128,0,119272:0:0:0:0:
182,192,119272,1,0,0:0:0:0:
256,192,119272,128,0,119449:0:0:0:0:
329,192,119449,128,0,119625:0:0:0:0:
402,192,119625,128,0,119802:0:0:0:0:
109,192,119802,1,0,0:0:0:0:
36,192,119802,1,0,0:0:0:0:
329,192,119802,128,0,119978:0:0:0:0:
256,192,119978,128,0,120154:0:0:0:0:
182,192,120154,128,0,120331:0:0:0:0:
475,192,120154,1,0,0:0:0:0:
475,192,120331,1,0,0:0:0:0:
256,192,120331,128,0,120507:0:0:0:0:
36,192,120507,1,0,0:0:0:0:
109,192,120507,1,0,0:0:0:0:
329,192,120507,128,0,120684:0:0:0:0:
182,192,120684,128,0,120860:0:0:0:0:
256,192,120860,128,0,121037:0:0:0:0:
329,192,121037,128,0,121213:0:0:0:0:
475,192,121037,1,0,0:0:0:0:
256,192,121213,128,0,121390:0:0:0:0:
109,192,121213,1,0,0:0:0:0:
36,192,121213,1,0,0:0:0:0:
182,192,121390,128,0,121743:0:0:0:0:
475,192,121566,1,0,0:0:0:0:
256,192,121743,128,0,121919:0:0:0:0:
109,192,121919,1,0,0:0:0:0:
36,192,121919,1,0,0:0:0:0:
329,192,121919,128,0,122096:0:0:0:0:
475,192,122096,1,0,0:0:0:0:
182,192,122096,128,0,122272:0:0:0:0:
256,192,122272,128,0,122449:0:0:0:0:
329,192,122449,128,0,122625:0:0:0:0:
36,192,122625,1,0,0:0:0:0:
109,192,122625,1,0,0:0:0:0:
256,192,122625,128,0,122802:0:0:0:0:
182,192,122802,128,0,122978:0:0:0:0:
475,192,122978,1,0,0:0:0:0:
109,192,122978,128,0,123154:0:0:0:0:
182,192,123154,128,0,123331:0:0:0:0:
475,192,123154,1,0,0:0:0:0:
329,192,123331,1,0,0:0:0:0:
402,192,123331,1,0,0:0:0:0:
256,192,123331,128,0,123507:0:0:0:0:
109,192,123507,128,0,123684:0:0:0:0:
182,192,123684,128,0,123860:0:0:0:0:
475,192,123860,1,0,0:0:0:0:
256,192,123860,128,0,124037:0:0:0:0:
182,192,124037,128,0,124213:0:0:0:0:
402,192,124037,1,0,0:0:0:0:
329,192,124037,1,0,0:0:0:0:
109,192,124213,128,0,124566:0:0:0:0:
475,192,124390,1,0,0:0:0:0:
182,192,124566,128,0,124743:0:0:0:0:
402,192,124743,1,0,0:0:0:0:
256,192,124743,128,0,124919:0:0:0:0:
329,192,124743,1,0,0:0:0:0:
109,192,124919,128,0,125096:0:0:0:0:
475,192,124919,1,0,0:0:0:0:
182,192,125096,128,0,125272:0:0:0:0:
256,192,125272,128,0,125449:0:0:0:0:
402,192,125449,1,0,0:0:0:0:
329,192,125449,1,0,0:0:0:0:
182,192,125449,128,0,125625:0:0:0:0:
109,192,125625,128,0,125802:0:0:0:0:
329,192,125625,1,0,0:0:0:0:
402,192,125713,1,0,0:0:0:0:
475,192,125802,1,0,0:0:0:0:
36,192,125802,128,0,125978:0:0:0:0:
256,192,125802,1,0,0:0:0:0:
109,192,125978,128,0,126154:0:0:0:0:
475,192,125978,1,0,0:0:0:0:
182,192,126154,128,0,126331:0:0:0:0:
402,192,126154,1,0,0:0:0:0:
329,192,126154,1,0,0:0:0:0:
36,192,126331,128,0,126507:0:0:0:0:
109,192,126507,128,0,126684:0:0:0:0:
475,192,126684,1,0,0:0:0:0:
182,192,126684,128,0,126860:0:0:0:0:
329,192,126860,1,0,0:0:0:0:
402,192,126860,1,0,0:0:0:0:
109,192,126860,128,0,127037:0:0:0:0:
36,192,127037,128,0,127390:0:0:0:0:
475,192,127213,1,0,0:0:0:0:
109,192,127390,128,0,127566:0:0:0:0:
182,192,127566,128,0,127743:0:0:0:0:
329,192,127566,1,0,0:0:0:0:
402,192,127566,1,0,0:0:0:0:
475,192,127743,1,0,0:0:0:0:
36,192,127743,128,0,127919:0:0:0:0:
109,192,127919,128,0,128096:0:0:0:0:
182,192,128096,128,0,128272:0:0:0:0:
329,192,128272,1,0,0:0:0:0:
402,192,128272,1,0,0:0:0:0:
256,192,128272,128,0,128449:0:0:0:0:
182,192,128449,128,0,128625:0:0:0:0:
475,192,128625,1,0,0:0:0:0:
109,192,128625,128,0,128802:0:0:0:0:
182,192,128802,128,0,128978:0:0:0:0:
475,192,128802,1,0,0:0:0:0:
256,192,128978,128,0,129154:0:0:0:0:
329,192,128978,1,0,0:0:0:0:
402,192,128978,1,0,0:0:0:0:
109,192,129154,128,0,129331:0:0:0:0:
182,192,129331,128,0,129507:0:0:0:0:
475,192,129507,1,0,0:0:0:0:
256,192,129507,128,0,129684:0:0:0:0:
329,192,129684,1,0,0:0:0:0:
402,192,129684,1,0,0:0:0:0:
182,192,129684,128,0,129860:0:0:0:0:
109,192,129860,128,0,130213:0:0:0:0:
475,192,130037,1,0,0:0:0:0:
182,192,130213,128,0,130390:0:0:0:0:
256,192,130390,128,0,130566:0:0:0:0:
402,192,130390,1,0,0:0:0:0:
329,192,130390,1,0,0:0:0:0:
475,192,130566,1,0,0:0:0:0:
109,192,130566,128,0,130743:0:0:0:0:
182,192,130743,128,0,130919:0:0:0:0:
256,192,130919,128,0,131096:0:0:0:0:
329,192,131096,128,0,131272:0:0:0:0:
402,192,131096,1,0,0:0:0:0:
475,192,131096,1,0,0:0:0:0:
256,192,131272,128,0,131449:0:0:0:0:
182,192,131449,128,0,131625:0:0:0:0:
475,192,131449,1,0,0:0:0:0:
475,192,131625,1,0,0:0:0:0:
256,192,131625,128,0,131802:0:0:0:0:
109,192,131802,1,0,0:0:0:0:
36,192,131802,1,0,0:0:0:0:
329,192,131802,128,0,131978:0:0:0:0:
182,192,131978,128,0,132154:0:0:0:0:
256,192,132154,128,0,132331:0:0:0:0:
475,192,132331,1,0,0:0:0:0:
329,192,132331,128,0,132507:0:0:0:0:
256,192,132507,128,0,132684:0:0:0:0:
36,192,132507,1,0,0:0:0:0:
109,192,132507,1,0,0:0:0:0:
182,192,132684,128,0,133037:0:0:0:0:
475,192,132860,1,0,0:0:0:0:
256,192,133037,128,0,133213:0:0:0:0:
109,192,133213,1,0,0:0:0:0:
329,192,133213,128,0,133390:0:0:0:0:
36,192,133213,1,0,0:0:0:0:
475,192,133390,1,0,0:0:0:0:
182,192,133390,128,0,133566:0:0:0:0:
256,192,133566,128,0,133743:0:0:0:0:
329,192,133743,128,0,133919:0:0:0:0:
36,192,133919,1,0,0:0:0:0:
402,192,133919,128,0,134096:0:0:0:0:
109,192,133919,1,0,0:0:0:0:
329,192,134096,128,0,134272:0:0:0:0:
256,192,134272,128,0,134449:0:0:0:0:
475,192,134272,1,0,0:0:0:0:
475,192,134449,1,0,0:0:0:0:
329,192,134449,128,0,134625:0:0:0:0:
36,192,134625,1,0,0:0:0:0:
109,192,134625,1,0,0:0:0:0:
402,192,134625,128,0,134802:0:0:0:0:
256,192,134802,128,0,134978:0:0:0:0:
329,192,134978,128,0,135154:0:0:0:0:
402,192,135154,128,0,135331:0:0:0:0:
36,192,135154,1,0,0:0:0:0:
109,192,135154,1,0,0:0:0:0:
329,192,135331,128,0,135507:0:0:0:0:
256,192,135331,1,0,0:0:0:0:
475,192,135331,1,0,0:0:0:0:
109,192,135507,1,0,0:0:0:0:
256,192,135507,128,0,136390:0:0:0:0:
475,192,135507,1,0,0:0:0:0:
182,192,135684,1,0,0:0:0:0:
329,192,135860,1,0,0:0:0:0:
109,192,136037,1,0,0:0:0:0:
329,192,136213,1,0,0:0:0:0:
182,192,136302,1,0,0:0:0:0:
475,192,136390,128,0,137096:0:0:0:0:
402,192,136390,1,0,0:0:0:0:
36,192,136390,128,0,137096:0:0:0:0:
109,192,136478,1,0,0:0:0:0:
329,192,136566,1,0,0:0:0:0:
109,192,136743,1,0,0:0:0:0:
402,192,136831,1,0,0:0:0:0:
109,192,136919,1,0,0:0:0:0:
402,192,137007,1,0,0:0:0:0:
182,192,137096,1,0,0:0:0:0:
329,192,137096,1,0,0:0:0:0:
256,192,137096,1,0,0:0:0:0:
256,192,137272,1,0,0:0:0:0:
36,192,137449,1,0,0:0:0:0:
475,192,137449,1,0,0:0:0:0:
109,192,137625,1,0,0:0:0:0:
402,192,137713,1,0,0:0:0:0:
109,192,137802,1,0,0:0:0:0:
402,192,137890,1,0,0:0:0:0:
256,192,137978,1,0,0:0:0:0:
36,192,138154,1,0,0:0:0:0:
475,192,138154,1,0,0:0:0:0:
256,192,138507,1,0,0:0:0:0:
182,192,138684,1,0,0:0:0:0:
36,192,138860,1,0,0:0:0:0:
475,192,138860,1,0,0:0:0:0:
329,192,138860,1,0,0:0:0:0:
109,192,139037,1,0,0:0:0:0:
256,192,139037,1,0,0:0:0:0:
402,192,139125,1,0,0:0:0:0:
109,192,139213,1,0,0:0:0:0:
402,192,139302,1,0,0:0:0:0:
109,192,139390,1,0,0:0:0:0:
36,192,139566,1,0,0:0:0:0:
475,192,139566,1,0,0:0:0:0:
109,192,139919,1,0,0:0:0:0:
256,192,139919,1,0,0:0:0:0:
402,192,140007,1,0,0:0:0:0:
109,192,140096,1,0,0:0:0:0:
256,192,140096,1,0,0:0:0:0:
402,192,140184,1,0,0:0:0:0:
36,192,140272,1,0,0:0:0:0:
475,192,140272,1,0,0:0:0:0:
402,192,140537,1,0,0:0:0:0:
402,192,140713,1,0,0:0:0:0:
109,192,140802,1,0,0:0:0:0:
256,192,140802,1,0,0:0:0:0:
36,192,140978,1,0,0:0:0:0:
475,192,140978,1,0,0:0:0:0:
256,192,141331,1,0,0:0:0:0:
109,192,141507,1,0,0:0:0:0:
402,192,141596,1,0,0:0:0:0:
36,192,141684,1,0,0:0:0:0:
475,192,141684,1,0,0:0:0:0:
109,192,141860,1,0,0:0:0:0:
256,192,141860,1,0,0:0:0:0:
402,192,141949,1,0,0:0:0:0:
109,192,142037,1,0,0:0:0:0:
402,192,142125,1,0,0:0:0:0:
109,192,142213,1,0,0:0:0:0:
475,192,142390,1,0,0:0:0:0:
36,192,142390,1,0,0:0:0:0:
256,192,142743,1,0,0:0:0:0:
109,192,142919,1,0,0:0:0:0:
256,192,142919,1,0,0:0:0:0:
402,192,143007,1,0,0:0:0:0:
36,192,143096,1,0,0:0:0:0:
475,192,143096,1,0,0:0:0:0:
402,192,143360,1,0,0:0:0:0:
109,192,143449,1,0,0:0:0:0:
402,192,143537,1,0,0:0:0:0:
109,192,143625,1,0,0:0:0:0:
256,192,143625,1,0,0:0:0:0:
475,192,143802,1,0,0:0:0:0:
36,192,143802,1,0,0:0:0:0:
256,192,144154,1,0,0:0:0:0:
182,192,144331,1,0,0:0:0:0:
329,192,144507,1,0,0:0:0:0:
109,192,144684,1,0,0:0:0:0:
256,192,144684,1,0,0:0:0:0:
402,192,144772,1,0,0:0:0:0:
109,192,144860,1,0,0:0:0:0:
402,192,144949,1,0,0:0:0:0:
109,192,145037,1,0,0:0:0:0:
36,192,145213,1,0,0:0:0:0:
475,192,145213,1,0,0:0:0:0:
256,192,145566,1,0,0:0:0:0:
109,192,145566,1,0,0:0:0:0:
402,192,145654,1,0,0:0:0:0:
256,192,145743,1,0,0:0:0:0:
109,192,145743,1,0,0:0:0:0:
402,192,145831,1,0,0:0:0:0:
475,192,145919,1,0,0:0:0:0:
36,192,145919,1,0,0:0:0:0:
402,192,146184,1,0,0:0:0:0:
402,192,146360,1,0,0:0:0:0:
256,192,146449,1,0,0:0:0:0:
109,192,146449,1,0,0:0:0:0:
36,192,146625,1,0,0:0:0:0:
475,192,146625,1,0,0:0:0:0:
256,192,146978,1,0,0:0:0:0:
109,192,147154,1,0,0:0:0:0:
402,192,147243,1,0,0:0:0:0:
36,192,147331,1,0,0:0:0:0:
475,192,147331,1,0,0:0:0:0:
256,192,147507,1,0,0:0:0:0:
109,192,147507,1,0,0:0:0:0:
402,192,147596,1,0,0:0:0:0:
109,192,147684,1,0,0:0:0:0:
402,192,147772,1,0,0:0:0:0:
109,192,147860,1,0,0:0:0:0:
36,192,148037,1,0,0:0:0:0:
475,192,148037,1,0,0:0:0:0:
36,192,148213,1,0,0:0:0:0:
475,192,148302,1,0,0:0:0:0:
402,192,148390,1,0,0:0:0:0:
256,192,148390,1,0,0:0:0:0:
36,192,148390,1,0,0:0:0:0:
402,192,148566,1,0,0:0:0:0:
109,192,148566,1,0,0:0:0:0:
182,192,148743,1,0,0:0:0:0:
329,192,148743,1,0,0:0:0:0:
475,192,148743,1,0,0:0:0:0:
36,192,148919,1,0,0:0:0:0:
109,192,149096,1,0,0:0:0:0:
182,192,149272,1,0,0:0:0:0:
402,192,149272,1,0,0:0:0:0:
109,192,149449,1,0,0:0:0:0:
475,192,149449,1,0,0:0:0:0:
329,192,149449,1,0,0:0:0:0:
36,192,149625,1,0,0:0:0:0:
402,192,149802,1,0,0:0:0:0:
109,192,149978,1,0,0:0:0:0:
329,192,150154,1,0,0:0:0:0:
475,192,150154,1,0,0:0:0:0:
182,192,150154,1,0,0:0:0:0:
402,192,150331,1,0,0:0:0:0:
36,192,150331,1,0,0:0:0:0:
109,192,150507,1,0,0:0:0:0:
402,192,150684,1,0,0:0:0:0:
182,192,150684,1,0,0:0:0:0:
182,192,150860,1,0,0:0:0:0:
475,192,150860,1,0,0:0:0:0:
329,192,150860,1,0,0:0:0:0:
109,192,151037,1,0,0:0:0:0:
36,192,151213,1,0,0:0:0:0:
402,192,151213,1,0,0:0:0:0:
402,192,151390,1,0,0:0:0:0:
109,192,151390,1,0,0:0:0:0:
182,192,151566,1,0,0:0:0:0:
329,192,151566,1,0,0:0:0:0:
475,192,151566,1,0,0:0:0:0:
36,192,151743,1,0,0:0:0:0:
329,192,151831,1,0,0:0:0:0:
109,192,151919,1,0,0:0:0:0:
329,192,152007,1,0,0:0:0:0:
402,192,152096,1,0,0:0:0:0:
182,192,152096,1,0,0:0:0:0:
109,192,152272,1,0,0:0:0:0:
329,192,152272,1,0,0:0:0:0:
475,192,152272,1,0,0:0:0:0:
36,192,152449,1,0,0:0:0:0:
402,192,152625,1,0,0:0:0:0:
109,192,152802,1,0,0:0:0:0:
475,192,152978,1,0,0:0:0:0:
182,192,152978,1,0,0:0:0:0:
329,192,152978,1,0,0:0:0:0:
402,192,153154,1,0,0:0:0:0:
36,192,153154,1,0,0:0:0:0:
109,192,153331,1,0,0:0:0:0:
182,192,153507,1,0,0:0:0:0:
329,192,153684,1,0,0:0:0:0:
182,192,153684,1,0,0:0:0:0:
475,192,153684,1,0,0:0:0:0:
109,192,153860,1,0,0:0:0:0:
475,192,154037,1,0,0:0:0:0:
36,192,154037,1,0,0:0:0:0:
109,192,154213,1,0,0:0:0:0:
475,192,154213,1,0,0:0:0:0:
329,192,154390,1,0,0:0:0:0:
402,192,154390,1,0,0:0:0:0:
182,192,154390,1,0,0:0:0:0:
36,192,154566,1,0,0:0:0:0:
109,192,154743,1,0,0:0:0:0:
182,192,154919,1,0,0:0:0:0:
475,192,154919,1,0,0:0:0:0:
402,192,155096,1,0,0:0:0:0:
109,192,155096,1,0,0:0:0:0:
329,192,155096,1,0,0:0:0:0:
36,192,155272,1,0,0:0:0:0:
475,192,155449,1,0,0:0:0:0:
109,192,155625,1,0,0:0:0:0:
402,192,155802,1,0,0:0:0:0:
329,192,155802,1,0,0:0:0:0:
182,192,155802,1,0,0:0:0:0:
36,192,155978,1,0,0:0:0:0:
475,192,155978,1,0,0:0:0:0:
109,192,156154,1,0,0:0:0:0:
182,192,156331,1,0,0:0:0:0:
402,192,156507,1,0,0:0:0:0:
329,192,156507,1,0,0:0:0:0:
182,192,156507,1,0,0:0:0:0:
109,192,156684,1,0,0:0:0:0:
475,192,156860,1,0,0:0:0:0:
36,192,156860,1,0,0:0:0:0:
475,192,157037,1,0,0:0:0:0:
109,192,157037,1,0,0:0:0:0:
329,192,157213,1,0,0:0:0:0:
402,192,157213,1,0,0:0:0:0:
182,192,157213,1,0,0:0:0:0:
36,192,157390,1,0,0:0:0:0:
329,192,157478,1,0,0:0:0:0:
109,192,157566,1,0,0:0:0:0:
329,192,157654,1,0,0:0:0:0:
182,192,157743,1,0,0:0:0:0:
475,192,157743,1,0,0:0:0:0:
402,192,157919,1,0,0:0:0:0:
109,192,157919,1,0,0:0:0:0:
329,192,157919,1,0,0:0:0:0:
36,192,158096,1,0,0:0:0:0:
329,192,158272,1,0,0:0:0:0:
109,192,158449,1,0,0:0:0:0:
329,192,158449,1,0,0:0:0:0:
475,192,158625,1,0,0:0:0:0:
182,192,158625,1,0,0:0:0:0:
36,192,158802,1,0,0:0:0:0:
329,192,158802,1,0,0:0:0:0:
402,192,158890,1,0,0:0:0:0:
109,192,158978,1,0,0:0:0:0:
329,192,158978,1,0,0:0:0:0:
402,192,159066,1,0,0:0:0:0:
182,192,159154,1,0,0:0:0:0:
329,192,159154,1,0,0:0:0:0:
329,192,159331,1,0,0:0:0:0:
182,192,159331,1,0,0:0:0:0:
329,192,159507,1,0,0:0:0:0:
109,192,159507,1,0,0:0:0:0:
36,192,159684,1,0,0:0:0:0:
402,192,159684,1,0,0:0:0:0:
109,192,159860,1,0,0:0:0:0:
329,192,159860,1,0,0:0:0:0:
182,192,160037,1,0,0:0:0:0:
475,192,160037,1,0,0:0:0:0:
36,192,160213,1,0,0:0:0:0:
329,192,160213,1,0,0:0:0:0:
109,192,160390,1,0,0:0:0:0:
402,192,160390,1,0,0:0:0:0:
182,192,160566,1,0,0:0:0:0:
475,192,160566,1,0,0:0:0:0:
109,192,160743,1,0,0:0:0:0:
402,192,160743,1,0,0:0:0:0:
36,192,160919,1,0,0:0:0:0:
329,192,160919,1,0,0:0:0:0:
402,192,161096,1,0,0:0:0:0:
109,192,161272,1,0,0:0:0:0:
329,192,161272,1,0,0:0:0:0:
182,192,161449,1,0,0:0:0:0:
402,192,161449,1,0,0:0:0:0:
36,192,161625,1,0,0:0:0:0:
475,192,161625,1,0,0:0:0:0:
109,192,161802,1,0,0:0:0:0:
402,192,161802,1,0,0:0:0:0:
182,192,161978,1,0,0:0:0:0:
329,192,161978,1,0,0:0:0:0:
182,192,162154,1,0,0:0:0:0:
402,192,162154,1,0,0:0:0:0:
109,192,162331,1,0,0:0:0:0:
475,192,162331,1,0,0:0:0:0:
36,192,162507,1,0,0:0:0:0:
402,192,162507,1,0,0:0:0:0:
109,192,162684,1,0,0:0:0:0:
329,192,162684,1,0,0:0:0:0:
182,192,162860,1,0,0:0:0:0:
475,192,162860,1,0,0:0:0:0:
36,192,163037,1,0,0:0:0:0:
329,192,163037,1,0,0:0:0:0:
109,192,163213,1,0,0:0:0:0:
402,192,163213,1,0,0:0:0:0:
182,192,163390,1,0,0:0:0:0:
329,192,163390,1,0,0:0:0:0:
109,192,163566,1,0,0:0:0:0:
475,192,163566,1,0,0:0:0:0:
36,192,163743,1,0,0:0:0:0:
402,192,163743,1,0,0:0:0:0:
329,192,163919,1,0,0:0:0:0:
109,192,164096,1,0,0:0:0:0:
402,192,164096,1,0,0:0:0:0:
182,192,164272,1,0,0:0:0:0:
329,192,164272,1,0,0:0:0:0:
36,192,164449,1,0,0:0:0:0:
475,192,164449,1,0,0:0:0:0:
109,192,164625,1,0,0:0:0:0:
329,192,164625,1,0,0:0:0:0:
182,192,164802,1,0,0:0:0:0:
402,192,164802,1,0,0:0:0:0:
182,192,164978,1,0,0:0:0:0:
329,192,164978,1,0,0:0:0:0:
109,192,165154,1,0,0:0:0:0:
475,192,165154,1,0,0:0:0:0:
36,192,165331,1,0,0:0:0:0:
256,192,165331,1,0,0:0:0:0:
402,192,165331,1,0,0:0:0:0:
109,192,165507,1,0,0:0:0:0:
329,192,165507,1,0,0:0:0:0:
182,192,165684,1,0,0:0:0:0:
402,192,165684,1,0,0:0:0:0:
36,192,165860,1,0,0:0:0:0:
329,192,165860,1,0,0:0:0:0:
109,192,166037,1,0,0:0:0:0:
402,192,166037,1,0,0:0:0:0:
182,192,166213,1,0,0:0:0:0:
475,192,166213,1,0,0:0:0:0:
109,192,166390,1,0,0:0:0:0:
402,192,166390,1,0,0:0:0:0:
36,192,166566,1,0,0:0:0:0:
329,192,166566,1,0,0:0:0:0:
402,192,166743,1,0,0:0:0:0:
109,192,166919,1,0,0:0:0:0:
329,192,166919,1,0,0:0:0:0:
182,192,167096,1,0,0:0:0:0:
402,192,167096,1,0,0:0:0:0:
36,192,167272,1,0,0:0:0:0:
475,192,167272,1,0,0:0:0:0:
109,192,167449,1,0,0:0:0:0:
329,192,167449,1,0,0:0:0:0:
182,192,167625,1,0,0:0:0:0:
402,192,167625,1,0,0:0:0:0:
182,192,167802,1,0,0:0:0:0:
329,192,167802,1,0,0:0:0:0:
109,192,167978,1,0,0:0:0:0:
475,192,167978,1,0,0:0:0:0:
36,192,168154,1,0,0:0:0:0:
329,192,168154,1,0,0:0:0:0:
109,192,168331,1,0,0:0:0:0:
402,192,168331,1,0,0:0:0:0:
182,192,168507,1,0,0:0:0:0:
329,192,168507,1,0,0:0:0:0:
36,192,168684,1,0,0:0:0:0:
475,192,168684,1,0,0:0:0:0:
109,192,168860,1,0,0:0:0:0:
402,192,168860,1,0,0:0:0:0:
182,192,169037,1,0,0:0:0:0:
475,192,169037,1,0,0:0:0:0:
109,192,169213,1,0,0:0:0:0:
402,192,169213,1,0,0:0:0:0:
36,192,169390,1,0,0:0:0:0:
475,192,169390,1,0,0:0:0:0:
329,192,169566,1,0,0:0:0:0:
109,192,169743,1,0,0:0:0:0:
475,192,169743,1,0,0:0:0:0:
182,192,169919,1,0,0:0:0:0:
329,192,169919,1,0,0:0:0:0:
36,192,170096,1,0,0:0:0:0:
402,192,170096,1,0,0:0:0:0:
109,192,170272,1,0,0:0:0:0:
329,192,170272,1,0,0:0:0:0:
182,192,170449,1,0,0:0:0:0:
402,192,170449,1,0,0:0:0:0:
182,192,170625,1,0,0:0:0:0:
329,192,170625,1,0,0:0:0:0:
109,192,170802,1,0,0:0:0:0:
475,192,170802,1,0,0:0:0:0:
36,192,170978,1,0,0:0:0:0:
329,192,170978,1,0,0:0:0:0:
256,192,170978,1,0,0:0:0:0:
182,192,170978,1,0,0:0:0:0:
109,192,171154,1,0,0:0:0:0:
402,192,171154,1,0,0:0:0:0:
182,192,171331,1,0,0:0:0:0:
329,192,171331,1,0,0:0:0:0:
36,192,171507,1,0,0:0:0:0:
402,192,171507,1,0,0:0:0:0:
109,192,171684,1,0,0:0:0:0:
475,192,171684,1,0,0:0:0:0:
182,192,171860,1,0,0:0:0:0:
402,192,171860,1,0,0:0:0:0:
109,192,172037,1,0,0:0:0:0:
475,192,172037,1,0,0:0:0:0:
36,192,172213,1,0,0:0:0:0:
402,192,172213,1,0,0:0:0:0:
329,192,172390,1,0,0:0:0:0:
109,192,172566,1,0,0:0:0:0:
402,192,172566,1,0,0:0:0:0:
182,192,172743,1,0,0:0:0:0:
329,192,172743,1,0,0:0:0:0:
36,192,172919,1,0,0:0:0:0:
475,192,172919,1,0,0:0:0:0:
109,192,173096,1,0,0:0:0:0:
402,192,173096,1,0,0:0:0:0:
182,192,173272,1,0,0:0:0:0:
329,192,173272,1,0,0:0:0:0:
182,192,173449,1,0,0:0:0:0:
402,192,173449,1,0,0:0:0:0:
109,192,173625,1,0,0:0:0:0:
475,192,173625,1,0,0:0:0:0:
36,192,173802,1,0,0:0:0:0:
329,192,173802,1,0,0:0:0:0:
109,192,173978,1,0,0:0:0:0:
402,192,173978,1,0,0:0:0:0:
182,192,174154,1,0,0:0:0:0:
329,192,174154,1,0,0:0:0:0:
36,192,174331,1,0,0:0:0:0:
475,192,174331,1,0,0:0:0:0:
109,192,174507,1,0,0:0:0:0:
402,192,174507,1,0,0:0:0:0:
182,192,174684,1,0,0:0:0:0:
475,192,174684,1,0,0:0:0:0:
109,192,174860,1,0,0:0:0:0:
329,192,174860,1,0,0:0:0:0:
36,192,175037,1,0,0:0:0:0:
475,192,175037,1,0,0:0:0:0:
402,192,175213,1,0,0:0:0:0:
109,192,175390,1,0,0:0:0:0:
475,192,175390,1,0,0:0:0:0:
182,192,175566,1,0,0:0:0:0:
329,192,175566,1,0,0:0:0:0:
36,192,175743,1,0,0:0:0:0:
402,192,175743,1,0,0:0:0:0:
109,192,175919,1,0,0:0:0:0:
329,192,175919,1,0,0:0:0:0:
182,192,176096,1,0,0:0:0:0:
475,192,176096,1,0,0:0:0:0:
182,192,176272,1,0,0:0:0:0:
329,192,176272,1,0,0:0:0:0:
109,192,176449,1,0,0:0:0:0:
402,192,176449,1,0,0:0:0:0:
36,192,176625,1,0,0:0:0:0:
329,192,176625,1,0,0:0:0:0:
256,192,176625,1,0,0:0:0:0:
182,192,176625,1,0,0:0:0:0:
109,192,176802,1,0,0:0:0:0:
402,192,176802,1,0,0:0:0:0:
182,192,176978,1,0,0:0:0:0:
475,192,176978,1,0,0:0:0:0:
36,192,177154,1,0,0:0:0:0:
402,192,177154,1,0,0:0:0:0:
109,192,177331,1,0,0:0:0:0:
329,192,177331,1,0,0:0:0:0:
182,192,177507,1,0,0:0:0:0:
402,192,177507,1,0,0:0:0:0:
109,192,177684,1,0,0:0:0:0:
475,192,177684,1,0,0:0:0:0:
36,192,177860,1,0,0:0:0:0:
402,192,177860,1,0,0:0:0:0:
329,192,178037,1,0,0:0:0:0:
256,192,178037,1,0,0:0:0:0:
475,192,178037,1,0,0:0:0:0:
109,192,178213,1,0,0:0:0:0:
402,192,178213,1,0,0:0:0:0:
182,192,178390,1,0,0:0:0:0:
329,192,178390,1,0,0:0:0:0:
36,192,178566,1,0,0:0:0:0:
402,192,178566,1,0,0:0:0:0:
109,192,178743,1,0,0:0:0:0:
475,192,178743,1,0,0:0:0:0:
182,192,178919,1,0,0:0:0:0:
329,192,178919,1,0,0:0:0:0:
182,192,179096,1,0,0:0:0:0:
402,192,179096,1,0,0:0:0:0:
109,192,179272,1,0,0:0:0:0:
475,192,179272,1,0,0:0:0:0:
36,192,179449,1,0,0:0:0:0:
329,192,179449,1,0,0:0:0:0:
256,192,179449,1,0,0:0:0:0:
182,192,179449,1,0,0:0:0:0:
109,192,179625,1,0,0:0:0:0:
402,192,179625,1,0,0:0:0:0:
182,192,179802,1,0,0:0:0:0:
329,192,179802,1,0,0:0:0:0:
36,192,179978,1,0,0:0:0:0:
475,192,179978,1,0,0:0:0:0:
109,192,180154,1,0,0:0:0:0:
402,192,180154,1,0,0:0:0:0:
256,192,180154,1,0,0:0:0:0:
329,192,180154,1,0,0:0:0:0:
182,192,180331,1,0,0:0:0:0:
475,192,180331,1,0,0:0:0:0:
109,192,180507,5,0,0:0:0:0:
329,192,180507,1,0,0:0:0:0:
36,192,180684,1,0,0:0:0:0:
475,192,180684,1,0,0:0:0:0:
402,192,180860,1,0,0:0:0:0:
256,192,180860,1,0,0:0:0:0:
109,192,180860,1,0,0:0:0:0:
182,192,181566,5,0,0:0:0:0:
329,192,181566,1,0,0:0:0:0:
256,192,181743,1,0,0:0:0:0:
182,192,181919,1,0,0:0:0:0:
329,192,181919,1,0,0:0:0:0:
329,192,182096,1,0,0:0:0:0:
182,192,182184,1,0,0:0:0:0:
475,192,182272,1,0,0:0:0:0:
402,192,182449,1,0,0:0:0:0:
329,192,182625,1,0,0:0:0:0:
182,192,182802,1,0,0:0:0:0:
109,192,182978,1,0,0:0:0:0:
36,192,183154,1,0,0:0:0:0:
256,192,183331,1,0,0:0:0:0:
475,192,183507,128,0,183860:0:0:0:0:
402,192,183860,1,0,0:0:0:0:
329,192,184037,1,0,0:0:0:0:
182,192,184213,1,0,0:0:0:0:
109,192,184390,1,0,0:0:0:0:
36,192,184566,1,0,0:0:0:0:
182,192,184743,1,0,0:0:0:0:
329,192,184919,1,0,0:0:0:0:
475,192,185096,1,0,0:0:0:0:
402,192,185272,1,0,0:0:0:0:
329,192,185449,1,0,0:0:0:0:
182,192,185625,1,0,0:0:0:0:
109,192,185802,1,0,0:0:0:0:
36,192,185978,1,0,0:0:0:0:
329,192,186154,1,0,0:0:0:0:
182,192,186331,1,0,0:0:0:0:
475,192,186507,1,0,0:0:0:0:
329,192,186684,1,0,0:0:0:0:
182,192,186860,1,0,0:0:0:0:
36,192,187037,1,0,0:0:0:0:
402,192,187213,1,0,0:0:0:0:
182,192,187390,1,0,0:0:0:0:
329,192,187566,1,0,0:0:0:0:
109,192,187743,1,0,0:0:0:0:
475,192,187919,1,0,0:0:0:0:
402,192,188096,1,0,0:0:0:0:
329,192,188272,1,0,0:0:0:0:
182,192,188449,1,0,0:0:0:0:
109,192,188625,1,0,0:0:0:0:
36,192,188802,1,0,0:0:0:0:
256,192,188978,1,0,0:0:0:0:
475,192,189154,128,0,189507:0:0:0:0:
402,192,189507,1,0,0:0:0:0:
329,192,189684,1,0,0:0:0:0:
182,192,189860,1,0,0:0:0:0:
109,192,190037,1,0,0:0:0:0:
36,192,190213,1,0,0:0:0:0:
182,192,190390,1,0,0:0:0:0:
329,192,190566,128,0,191272:0:0:0:0:
256,192,191272,128,0,191802:0:0:0:0:
182,192,191802,128,0,192154:0:0:0:0:
36,192,192154,1,0,0:0:0:0:
182,192,192331,1,0,0:0:0:0:
329,192,192507,1,0,0:0:0:0:
475,192,192684,1,0,0:0:0:0:
109,192,192860,1,0,0:0:0:0:
256,192,193037,1,0,0:0:0:0:
402,192,193213,128,0,193566:0:0:0:0:
475,192,193566,1,0,0:0:0:0:
182,192,193566,1,0,0:0:0:0:
36,192,193566,1,0,0:0:0:0:
256,192,193566,1,0,0:0:0:0:
402,192,193743,1,0,0:0:0:0:
329,192,193919,1,0,0:0:0:0:
182,192,194096,1,0,0:0:0:0:
109,192,194272,1,0,0:0:0:0:
36,192,194449,1,0,0:0:0:0:
256,192,194625,1,0,0:0:0:0:
475,192,194802,128,0,195154:0:0:0:0:
402,192,195154,1,0,0:0:0:0:
329,192,195331,1,0,0:0:0:0:
182,192,195507,1,0,0:0:0:0:
109,192,195684,1,0,0:0:0:0:
36,192,195860,1,0,0:0:0:0:
182,192,196037,1,0,0:0:0:0:
329,192,196213,1,0,0:0:0:0:
475,192,196390,1,0,0:0:0:0:
402,192,196566,1,0,0:0:0:0:
329,192,196743,1,0,0:0:0:0:
182,192,196919,1,0,0:0:0:0:
109,192,197096,1,0,0:0:0:0:
36,192,197272,1,0,0:0:0:0:
329,192,197449,1,0,0:0:0:0:
182,192,197625,128,0,197978:0:0:0:0:
402,192,197978,1,0,0:0:0:0:
329,192,198154,1,0,0:0:0:0:
182,192,198331,1,0,0:0:0:0:
109,192,198507,1,0,0:0:0:0:
402,192,198684,1,0,0:0:0:0:
256,192,198860,1,0,0:0:0:0:
109,192,199037,1,0,0:0:0:0:
475,192,199213,1,0,0:0:0:0:
402,192,199390,1,0,0:0:0:0:
329,192,199566,1,0,0:0:0:0:
182,192,199743,1,0,0:0:0:0:
109,192,199919,1,0,0:0:0:0:
36,192,200096,1,0,0:0:0:0:
256,192,200272,1,0,0:0:0:0:
475,192,200449,128,0,200802:0:0:0:0:
402,192,200802,1,0,0:0:0:0:
329,192,200978,1,0,0:0:0:0:
182,192,201154,1,0,0:0:0:0:
109,192,201331,1,0,0:0:0:0:
36,192,201507,1,0,0:0:0:0:
329,192,201684,1,0,0:0:0:0:
256,192,201860,1,0,0:0:0:0:
182,192,202037,1,0,0:0:0:0:
475,192,202037,1,0,0:0:0:0:
36,192,202037,1,0,0:0:0:0:
402,192,202213,1,0,0:0:0:0:
109,192,202390,1,0,0:0:0:0:
402,192,202566,128,0,202919:0:0:0:0:
36,192,202743,1,0,0:0:0:0:
475,192,202743,1,0,0:0:0:0:
182,192,202919,1,0,0:0:0:0:
329,192,203096,1,0,0:0:0:0:
182,192,203272,128,0,203625:0:0:0:0:
475,192,203449,1,0,0:0:0:0:
36,192,203449,1,0,0:0:0:0:
109,192,203625,1,0,0:0:0:0:
256,192,203802,1,0,0:0:0:0:
402,192,203978,128,0,204331:0:0:0:0:
475,192,204154,1,0,0:0:0:0:
36,192,204331,1,0,0:0:0:0:
182,192,204507,1,0,0:0:0:0:
475,192,204507,1,0,0:0:0:0:
329,192,204684,1,0,0:0:0:0:
36,192,204684,1,0,0:0:0:0:
475,192,204772,1,0,0:0:0:0:
182,192,204860,128,0,205037:0:0:0:0:
256,192,204860,1,0,0:0:0:0:
402,192,204860,1,0,0:0:0:0:
475,192,205037,128,0,205213:0:0:0:0:
109,192,205213,128,0,205390:0:0:0:0:
329,192,205213,1,0,0:0:0:0:
402,192,205390,128,0,205566:0:0:0:0:
182,192,205390,1,0,0:0:0:0:
36,192,205566,128,0,205743:0:0:0:0:
329,192,205743,128,0,205919:0:0:0:0:
182,192,205743,1,0,0:0:0:0:
109,192,205919,128,0,206096:0:0:0:0:
475,192,206096,128,0,206449:0:0:0:0:
402,192,206272,1,0,0:0:0:0:
182,192,206449,128,0,206625:0:0:0:0:
402,192,206625,128,0,206802:0:0:0:0:
36,192,206625,1,0,0:0:0:0:
109,192,206802,128,0,206978:0:0:0:0:
475,192,206802,1,0,0:0:0:0:
329,192,206978,128,0,207154:0:0:0:0:
36,192,207154,128,0,207331:0:0:0:0:
475,192,207154,1,0,0:0:0:0:
402,192,207331,128,0,207507:0:0:0:0:
182,192,207331,1,0,0:0:0:0:
109,192,207507,128,0,207684:0:0:0:0:
329,192,207507,1,0,0:0:0:0:
475,192,207684,128,0,207860:0:0:0:0:
402,192,207684,1,0,0:0:0:0:
182,192,207860,128,0,208037:0:0:0:0:
402,192,208037,128,0,208213:0:0:0:0:
36,192,208037,1,0,0:0:0:0:
109,192,208213,128,0,208390:0:0:0:0:
475,192,208213,1,0,0:0:0:0:
329,192,208390,128,0,208566:0:0:0:0:
36,192,208566,128,0,208743:0:0:0:0:
475,192,208566,1,0,0:0:0:0:
402,192,208743,128,0,208919:0:0:0:0:
109,192,208919,128,0,209096:0:0:0:0:
182,192,208919,1,0,0:0:0:0:
475,192,209096,128,0,209272:0:0:0:0:
329,192,209096,1,0,0:0:0:0:
36,192,209272,128,0,209449:0:0:0:0:
402,192,209449,128,0,209625:0:0:0:0:
182,192,209449,1,0,0:0:0:0:
109,192,209625,128,0,209802:0:0:0:0:
475,192,209625,1,0,0:0:0:0:
329,192,209802,128,0,209978:0:0:0:0:
182,192,209978,128,0,210154:0:0:0:0:
475,192,209978,1,0,0:0:0:0:
402,192,210154,128,0,210331:0:0:0:0:
329,192,210154,1,0,0:0:0:0:
109,192,210331,128,0,210507:0:0:0:0:
182,192,210331,1,0,0:0:0:0:
475,192,210507,128,0,210684:0:0:0:0:
329,192,210507,1,0,0:0:0:0:
182,192,210684,128,0,210860:0:0:0:0:
402,192,210860,128,0,211037:0:0:0:0:
36,192,210860,1,0,0:0:0:0:
109,192,211037,128,0,211213:0:0:0:0:
475,192,211037,1,0,0:0:0:0:
329,192,211213,128,0,211390:0:0:0:0:
36,192,211390,128,0,211566:0:0:0:0:
475,192,211390,1,0,0:0:0:0:
182,192,211566,128,0,211743:0:0:0:0:
475,192,211743,128,0,212096:0:0:0:0:
329,192,211919,1,0,0:0:0:0:
182,192,212096,128,0,212272:0:0:0:0:
402,192,212272,128,0,212449:0:0:0:0:
36,192,212272,1,0,0:0:0:0:
109,192,212449,128,0,212625:0:0:0:0:
475,192,212449,1,0,0:0:0:0:
329,192,212625,128,0,212802:0:0:0:0:
36,192,212802,128,0,212978:0:0:0:0:
475,192,212802,1,0,0:0:0:0:
182,192,212978,128,0,213154:0:0:0:0:
402,192,213154,128,0,213331:0:0:0:0:
36,192,213154,1,0,0:0:0:0:
109,192,213331,128,0,213507:0:0:0:0:
475,192,213331,1,0,0:0:0:0:
329,192,213507,128,0,213684:0:0:0:0:
36,192,213684,128,0,213860:0:0:0:0:
109,192,213684,1,0,0:0:0:0:
182,192,213860,128,0,214037:0:0:0:0:
475,192,213860,1,0,0:0:0:0:
402,192,214037,128,0,214390:0:0:0:0:
475,192,214213,1,0,0:0:0:0:
109,192,214390,128,0,214743:0:0:0:0:
182,192,214566,1,0,0:0:0:0:
329,192,214743,128,0,214919:0:0:0:0:
475,192,214743,1,0,0:0:0:0:
36,192,214919,128,0,215096:0:0:0:0:
402,192,215096,128,0,215272:0:0:0:0:
182,192,215096,1,0,0:0:0:0:
109,192,215272,128,0,215625:0:0:0:0:
329,192,215272,1,0,0:0:0:0:
329,192,215625,128,0,215802:0:0:0:0:
475,192,215625,1,0,0:0:0:0:
36,192,215802,128,0,216154:0:0:0:0:
182,192,215802,1,0,0:0:0:0:
109,192,215978,1,0,0:0:0:0:
475,192,216154,128,0,216331:0:0:0:0:
256,192,216154,1,0,0:0:0:0:
329,192,216154,1,0,0:0:0:0:
182,192,216331,128,0,216507:0:0:0:0:
402,192,216507,128,0,216684:0:0:0:0:
36,192,216507,1,0,0:0:0:0:
109,192,216684,128,0,216860:0:0:0:0:
475,192,216684,1,0,0:0:0:0:
329,192,216860,128,0,217037:0:0:0:0:
36,192,217037,128,0,217213:0:0:0:0:
475,192,217037,1,0,0:0:0:0:
182,192,217213,128,0,217390:0:0:0:0:
475,192,217390,128,0,217743:0:0:0:0:
329,192,217390,1,0,0:0:0:0:
182,192,217743,128,0,217919:0:0:0:0:
402,192,217919,128,0,218096:0:0:0:0:
109,192,218096,128,0,218272:0:0:0:0:
182,192,218096,1,0,0:0:0:0:
329,192,218272,128,0,218449:0:0:0:0:
36,192,218449,128,0,218625:0:0:0:0:
402,192,218449,1,0,0:0:0:0:
182,192,218625,128,0,218802:0:0:0:0:
329,192,218802,128,0,218978:0:0:0:0:
109,192,218802,1,0,0:0:0:0:
475,192,218978,128,0,219154:0:0:0:0:
402,192,218978,1,0,0:0:0:0:
182,192,219154,128,0,219331:0:0:0:0:
402,192,219331,128,0,219507:0:0:0:0:
475,192,219331,1,0,0:0:0:0:
109,192,219507,128,0,219684:0:0:0:0:
182,192,219507,1,0,0:0:0:0:
329,192,219684,128,0,219860:0:0:0:0:
36,192,219860,128,0,220037:0:0:0:0:
109,192,219860,1,0,0:0:0:0:
182,192,220037,128,0,220213:0:0:0:0:
402,192,220213,128,0,220566:0:0:0:0:
329,192,220213,1,0,0:0:0:0:
36,192,220390,1,0,0:0:0:0:
182,192,220566,128,0,220743:0:0:0:0:
329,192,220743,128,0,220919:0:0:0:0:
475,192,220743,1,0,0:0:0:0:
109,192,220919,128,0,221096:0:0:0:0:
182,192,220919,1,0,0:0:0:0:
256,192,221096,128,0,221272:0:0:0:0:
36,192,221272,128,0,221449:0:0:0:0:
402,192,221272,1,0,0:0:0:0:
182,192,221449,128,0,221625:0:0:0:0:
329,192,221625,128,0,221802:0:0:0:0:
402,192,221625,1,0,0:0:0:0:
475,192,221802,128,0,221978:0:0:0:0:
109,192,221802,1,0,0:0:0:0:
182,192,221978,128,0,222154:0:0:0:0:
402,192,222154,128,0,222331:0:0:0:0:
329,192,222154,1,0,0:0:0:0:
109,192,222331,128,0,222507:0:0:0:0:
36,192,222331,1,0,0:0:0:0:
329,192,222507,128,0,222684:0:0:0:0:
36,192,222684,128,0,222860:0:0:0:0:
475,192,222684,1,0,0:0:0:0:
182,192,222860,128,0,223037:0:0:0:0:
475,192,223037,128,0,223390:0:0:0:0:
329,192,223037,1,0,0:0:0:0:
182,192,223390,128,0,223566:0:0:0:0:
402,192,223566,128,0,223743:0:0:0:0:
109,192,223743,128,0,223919:0:0:0:0:
182,192,223743,1,0,0:0:0:0:
329,192,223919,128,0,224096:0:0:0:0:
36,192,224096,128,0,224272:0:0:0:0:
402,192,224096,1,0,0:0:0:0:
182,192,224272,128,0,224449:0:0:0:0:
402,192,224449,128,0,224625:0:0:0:0:
36,192,224449,1,0,0:0:0:0:
109,192,224625,128,0,224802:0:0:0:0:
475,192,224625,1,0,0:0:0:0:
329,192,224802,128,0,224978:0:0:0:0:
182,192,224978,128,0,225154:0:0:0:0:
475,192,224978,1,0,0:0:0:0:
402,192,225154,128,0,225507:0:0:0:0:
329,192,225154,1,0,0:0:0:0:
182,192,225507,128,0,225684:0:0:0:0:
36,192,225507,1,0,0:0:0:0:
475,192,225684,128,0,225860:0:0:0:0:
109,192,225860,128,0,226037:0:0:0:0:
329,192,225860,1,0,0:0:0:0:
402,192,226037,128,0,226213:0:0:0:0:
182,192,226037,1,0,0:0:0:0:
256,192,226037,1,0,0:0:0:0:
36,192,226213,128,0,226390:0:0:0:0:
329,192,226390,128,0,226566:0:0:0:0:
182,192,226390,1,0,0:0:0:0:
109,192,226566,128,0,227449:0:0:0:0:
36,192,226566,1,0,0:0:0:0:
182,192,226743,1,0,0:0:0:0:
329,192,226743,1,0,0:0:0:0:
256,192,226919,1,0,0:0:0:0:
182,192,227096,1,0,0:0:0:0:
329,192,227096,1,0,0:0:0:0:
182,192,227272,1,0,0:0:0:0:
329,192,227360,1,0,0:0:0:0:
256,192,227449,1,0,0:0:0:0:
36,192,227449,1,0,0:0:0:0:
475,192,227449,1,0,0:0:0:0:
