osu file format v7

[General]
AudioFilename: (10) [nayuta] -1st Anniversary Remix-.mp3
AudioLeadIn: 0
PreviewTime: 78970
Countdown: 0
SampleSet: Soft
StackLeniency: 0.7
Mode: 0
LetterboxInBreaks: 1

[Editor]
Bookmarks: 155170
DistanceSpacing: 1
BeatDivisor: 8
GridSize: 8

[Metadata]
Title:Hiiro Gekka Kyousai no Zetsu -1st Anniversary Remix-
Artist:EastNewSound
Creator:niedzwiedz1124
Version:happy30
Source:
Tags:

[Difficulty]
HPDrainRate:7
CircleSize:4
OverallDifficulty:7
SliderMultiplier:2
SliderTickRate:2

[Events]
//Background and Video events
0,0,"flandrenomnomnom.jpg"
//Break Periods
2,52970,63870
//Storyboard Layer 0 (Background)
//Storyboard Layer 1 (Fail)
//Storyboard Layer 2 (Pass)
//Storyboard Layer 3 (Foreground)
//Storyboard Sound Samples
//Background Colour Transformations
3,100,163,162,255

[TimingPoints]
1570,400,4,2,0,70,1,0
26970,-200,4,2,0,50,0,0
51070,-200,4,2,0,70,0,0
51870,-100,4,1,0,90,0,0
52170,-100,4,2,0,90,0,0
52270,-100,4,1,0,90,0,0
52570,-100,4,2,0,90,0,0
52670,-100,4,1,1,90,0,0
65570,-100,4,2,1,90,0,0
77170,-100,4,1,1,60,0,0
78370,-100,4,1,2,80,0,0
103070,-100,4,1,0,50,0,0
103770,-100,4,1,0,80,0,0
104570,-200,4,1,0,80,0,0
105070,-100,4,1,0,80,0,0
106170,-200,4,1,0,80,0,0
106670,-100,4,1,0,80,0,0
107070,-100,4,1,0,60,0,0
108570,-100,4,1,0,80,0,0
110170,-100,4,1,0,80,0,0
113470,-100,4,1,0,60,0,0
114970,-100,4,1,0,80,0,0
116270,-100,4,1,0,70,0,0
116670,-100,4,1,0,80,0,0
119470,-100,4,1,0,70,0,0
119870,-100,4,1,0,80,0,0
122670,-100,4,1,0,70,0,0
123070,-100,4,1,0,80,0,0
125870,-100,4,1,0,70,0,0
126270,-100,4,1,0,80,0,0
127470,-100,4,1,0,100,0,0
128970,-100,4,1,2,80,0,0
129570,-100,4,1,2,100,0,1
154970,-100,4,1,2,80,0,0
167970,1600,4,2,2,70,1,0
174370,400,4,1,2,80,1,0
179870,-100,4,1,2,50,0,0

[Colours]
Combo1 : 255,255,255
Combo2 : 121,121,121
Combo3 : 159,38,47

[HitObjects]
72,264,27170,2,0,B|200:296,1,100,2|2
248,232,27770,1,0
248,232,27970,2,0,B|120:200,1,100,2|2
150,207,28570,2,0,B|200:160|160:80,1,100
56,168,29170,2,0,B|40:200|64:240,1,50,2|2
96,304,29570,2,0,B|193:328,1,100,2|2
344,192,30370,5,2
440,224,30570,1,0
472,128,30770,1,2
376,96,30970,1,2
344,192,31170,1,2
440,224,31370,1,0
440,224,31470,1,0
440,224,31570,2,0,B|456:296,1,50,2|2
376,336,31970,2,0,B|360:264,1,50,2|0
272,256,32370,2,0,B|256:328,1,50,2|2
168,344,32770,1,2
440,264,33570,6,0,B|312:296,1,100,2|2
264,232,34170,1,0
264,232,34370,2,0,B|392:200,1,100,2|2
361,207,34970,2,0,B|312:160|352:80,1,100
456,168,35570,2,0,B|472:200|448:240,1,50,2|2
416,304,35970,2,0,B|318:328,1,100,2|2
168,192,36770,5,2
72,224,36970,1,0
40,128,37170,1,2
136,96,37370,1,2
168,192,37570,1,2
72,224,37770,1,0
72,224,37870,1,0
72,224,37970,2,0,B|56:296,1,50,2|2
128,344,38370,2,0,B|208:296|240:400|328:328,1,200,2|0
440,64,39970,6,0,B|312:32,1,100,2|2
264,96,40570,1,0
264,96,40770,2,0,B|392:128,1,100,2|2
456,152,41370,2,0,B|465:207|433:255,1,100
352,200,41970,2,0,B|360:256,1,50,2|2
376,336,42370,2,0,B|272:360,1,100,2|2
144,208,43170,5,2
80,288,43370,1,0
160,344,43570,1,2
224,264,43770,1,2
144,208,43970,1,2
80,288,44170,1,0
80,288,44270,1,0
80,288,44370,2,0,B|144:288,1,50,2|2
264,344,44770,2,0,B|208:344,1,50,2|0
264,240,45170,1,2
344,184,45370,1,2
424,248,45570,2,0,B|424:312|360:352,1,100,2|2
72,64,46370,6,0,B|200:32,1,100,2|2
248,96,46970,1,0
248,96,47170,2,0,B|120:128,1,100,2|2
56,152,47770,2,0,B|47:207|79:255,1,100
160,200,48370,2,0,B|152:256,1,50,2|2
136,336,48770,2,0,B|240:360,1,100,2|2
368,208,49570,5,2
432,288,49770,1,0
352,344,49970,1,2
288,264,50170,1,2
368,208,50370,1,2
432,288,50570,1,0
432,288,50670,1,0
432,288,50770,2,0,B|368:288,1,50,2|2
248,344,51170,2,0,B|304:344,1,50,6|2
232,232,51570,1,0
136,192,51770,1,2
168,96,51970,5,4
168,96,52070,1,0
168,96,52170,1,2
264,136,52370,1,0
264,136,52470,1,0
264,136,52570,1,2
232,232,52770,1,8
472,192,64770,5,4
376,192,64970,1,0
288,152,65170,1,8
288,152,65270,1,0
232,232,65470,1,0
232,232,65570,6,0,B|112:232,1,100,4|2
80,144,65970,2,0,B|192:144,1,100,8|2
180,144,66270,2,0,B|152:88|184:32,1,100
176,47,66570,2,0,B|288:80,1,100,2|8
272,75,66870,1,2
360,200,67070,1,2
360,200,67170,2,0,B|248:167,1,100,0|2
176,224,67570,2,0,B|200:280|168:328,1,100,8|2
174,319,67870,2,0,B|285:286,1,100,0|0
269,290,68170,1,2
440,312,68370,1,8
440,312,68470,2,0,B|328:344,1,100,2|0
344,340,68770,6,0,B|312:296|336:224,1,100,2|2
240,104,69170,2,0,B|272:148|248:220,1,100,8|2
253,199,69470,2,0,B|144:160,1,100
159,165,69770,1,2
48,224,69970,1,8
48,224,70070,2,0,B|157:263,1,100,2|0
141,257,70370,2,0,B|109:301|133:373,1,100,2|2
240,264,70770,2,0,B|272:220|248:148,1,100,8|2
253,168,71070,2,0,B|352:96,1,100,0|0
334,108,71370,1,2
456,144,71570,1,8
456,144,71670,2,0,B|357:216,1,100,2|0
375,203,71970,5,6
352,304,72170,1,2
256,304,72370,2,0,B|200:288|160:352,1,100,8|2
169,338,72670,2,0,B|88:248,1,100
102,264,72970,1,2
104,144,73170,1,8
104,144,73270,2,0,B|185:234,1,100,2|2
170,218,73570,2,0,B|216:176|184:96,1,100,0|2
296,40,73970,2,0,B|250:82|282:162,1,100,8|2
273,132,74270,2,0,B|360:224,1,100
341,204,74570,1,2
328,312,74770,1,8
328,312,74870,2,0,B|241:220,1,100,2|2
259,239,75170,6,0,B|224:288|152:248,1,100,0|2
80,184,75570,2,0,B|115:135|187:175,1,100,8|2
169,166,75870,2,0,B|208:72,1,100
207,73,76170,1,2
296,144,76370,1,8
296,144,76470,2,0,B|257:238,1,100,2|2
258,236,76770,1,4
258,236,77570,5,4
258,236,77670,1,0
258,236,77770,1,4
256,336,77970,1,0
256,336,78170,1,0
160,296,78370,6,2,B|64:224|144:96,2,200,2|12|2
216,216,79370,2,0,B|336:216,1,100,0|12
408,264,79770,1,0
336,328,79970,2,2,B|112:328,2,200,2|12|2
408,264,80970,1,0
376,168,81170,2,0,B|256:176|200:48,1,200,12|2
120,104,81770,6,2,B|136:216,1,100,0|12
72,352,82170,2,2,B|56:232,1,100,0|2
152,288,82570,1,0
232,232,82770,2,0,B|272:192|240:104,1,100,12|0
360,48,83170,2,2,B|320:88|352:176,1,100,2|0
424,304,83570,2,0,B|464:264|432:176,1,100,12|0
344,224,83970,1,2
344,224,84170,2,2,B|232:224,1,100,0|12
144,224,84570,1,14
80,144,84770,6,2,B|-16:216|64:344,2,200,2|12|2
160,80,85770,2,0,B|280:80,1,100,0|12
384,160,86170,1,0
320,296,86370,2,2,B|96:296,2,200,2|12|2
296,200,87370,1,0
200,208,87570,2,0,B|86:168|84:28,1,200,12|2
24,160,88170,6,2,B|8:272,1,100,0|12
96,352,88570,2,0,B|112:232,1,100,0|2
200,208,88970,1,0
272,136,89170,2,0,B|232:96|264:8,1,100,12|0
360,120,89570,2,2,B|400:160|368:248,1,100,2|0
304,336,89970,2,2,B|264:296|296:208,1,100,12|0
448,328,90370,1,2
448,328,90570,1,2
448,328,90770,1,14
352,296,90970,1,12
352,296,91170,6,2,B|448:224|368:96,2,200,2|12|2
296,216,92170,2,0,B|176:216,1,100,0|12
104,264,92570,1,0
176,328,92770,2,2,B|400:328,2,200,2|12|2
104,264,93770,1,0
136,168,93970,2,0,B|256:176|312:48,1,200,12|2
392,104,94570,6,2,B|376:216,1,100,0|12
440,352,94970,2,2,B|456:232,1,100,0|2
360,288,95370,1,0
280,232,95570,2,0,B|240:192|272:104,1,100,12|0
152,48,95970,2,2,B|192:88|160:176,1,100,2|0
88,304,96370,2,0,B|48:264|80:176,1,100,12|0
168,224,96770,1,2
168,224,96970,2,2,B|280:224,1,100,0|12
368,224,97370,1,14
432,144,97570,6,2,B|528:216|448:344,2,200,2|12|2
352,80,98570,2,0,B|232:80,1,100,0|12
128,160,98970,1,0
192,296,99170,2,2,B|416:296,2,200,2|12|2
216,200,100170,1,0
312,208,100370,2,0,B|425:168|427:28,1,200,12|2
488,160,100970,6,2,B|504:272,1,100,0|12
416,352,101370,2,0,B|400:232,1,100,0|2
312,208,101770,1,0
240,136,101970,2,0,B|280:96|248:8,1,100,12|0
152,120,102370,2,2,B|112:160|144:248,1,100,2|0
208,336,102770,2,2,B|248:296|216:208,1,100,12|0
96,304,103170,1,2
96,304,103370,1,2
96,304,103570,1,2
96,304,103970,6,0,B|304:304,1,200,4|0
296,304,104570,2,0,B|344:256|280:176,1,100
303,211,105170,2,0,B|190:212,1,100
56,128,105570,2,0,B|264:128,1,200,4|0
256,128,106170,2,0,B|208:176|272:256,1,100
248,220,106770,2,0,B|369:221,1,100
424,288,107170,5,2
424,288,107570,1,2
256,336,108170,1,2
88,288,108770,1,2
88,288,109170,1,2
256,336,109770,1,2
424,280,110370,6,0,B|456:232|432:176,1,100,4|0
360,104,110770,2,0,B|328:152|352:200,1,100,0|0
376,328,111170,2,0,B|408:280|384:224,1,100
312,152,111570,2,0,B|280:200|304:248,1,100
248,344,111970,6,0,B|280:296|256:240,1,100,4|0
184,168,112370,2,0,B|152:216|176:264,1,100
224,304,112770,2,0,B|256:256|232:200,1,100
160,128,113170,2,0,B|128:176|152:224,1,100
88,288,113570,5,2
88,288,113970,1,2
256,336,114570,1,2
424,288,115170,1,2
424,288,115570,1,2
256,336,116170,1,2
256,240,116370,1,8
256,240,116570,1,8
352,208,116770,6,0,B|376:152|336:96,1,100,2|0
256,160,117170,1,2
168,120,117370,1,0
136,216,117570,2,0,B|112:272|152:328,1,100,0|2
256,160,117970,2,0,B|280:104|240:48,1,100,0|0
104,40,118370,6,0,B|104:120|104:120|48:136|48:136|48:208,1,200,6|2
80,352,118970,2,0,B|80:272|80:272|136:256|136:256|136:184,1,200,0|2
136,194,119570,1,8
136,194,119770,1,8
208,128,119970,6,0,B|248:168|232:224,1,100,6|0
336,352,120370,2,0,B|296:312|312:256,1,100,2|0
400,216,120770,2,0,B|440:176|424:120,1,100,0|2
320,40,121170,2,0,B|280:80|296:136,1,100,0|0
408,344,121570,6,0,B|408:264|408:264|464:248|464:248|464:176,1,200,6|2
432,32,122170,2,0,B|432:112|432:112|376:128|376:128|376:200,1,200,0|2
376,189,122770,1,8
376,189,122970,1,8
312,272,123170,6,0,B|264:240|264:184,1,100,6|0
128,40,123570,2,0,B|176:72|176:128,1,100,2|0
184,224,123970,1,0
120,304,124170,1,2
32,264,124370,2,0,B|8:208|24:152,1,100
128,40,124770,6,0,B|128:120|128:120|184:136|184:136|184:208,1,200,6|2
152,352,125370,2,0,B|152:272|152:272|96:256|96:256|96:184,1,200,0|2
96,194,125970,1,8
96,194,126170,1,8
176,104,126370,6,0,B|216:152|192:208,1,100,6|0
304,320,126770,2,0,B|264:272|288:216,1,100,2|0
352,152,127170,1,0
448,160,127370,1,2
488,248,127570,1,0
432,336,127770,1,0
336,336,127970,2,0,B|224:336,1,100,4|0
136,336,128370,1,0
136,336,128570,1,0
136,336,129170,5,4
136,336,129570,2,0,B|176:256|128:168,1,150,4|0
139,190,129970,2,0,B|256:192,1,100,8|0
224,288,130370,2,0,B|424:288,1,150,4|0
374,288,130770,2,0,B|344:240|368:192,1,100,8|0
376,168,131070,1,0
384,144,131170,2,0,B|232:144,2,150,4|0|0
424,232,131970,2,0,B|328:232|304:320,1,150,4|0
307,308,132370,2,0,B|173:309,1,100,8|0
72,224,132770,6,0,B|232:224,1,150,4|0
222,224,133170,2,0,B|192:168|224:112,1,100,8|0
304,176,133570,2,0,B|336:264|272:336,2,150,4|0|0
222,224,134370,2,0,B|184:160|240:72,1,150,4|0
233,82,134770,2,0,B|123:83,1,100,8|0
64,152,135170,1,4
64,152,135270,2,0,B|104:208|48:280,1,100,8|0
69,246,135570,2,0,B|192:248,1,100,8|0
256,304,135970,6,0,B|296:224|248:136,1,150,4|0
259,158,136370,2,0,B|376:160,1,100,8|0
494,256,136770,2,0,B|344:256,1,150,4|0
344,256,137170,2,0,B|312:304|344:352,1,100,8|0
440,168,137570,2,0,B|488:96|432:16,2,150,4|0|0
343,115,138370,2,0,B|295:187|351:267,1,150,4|0
344,255,138770,2,0,B|232:256,1,100,8|0
176,328,139170,6,0,B|16:328,1,150,4|0
26,328,139570,2,0,B|64:280|32:192,1,100,8|0
136,128,139970,2,0,B|114:177|138:225,2,100,4|0|8
256,120,140570,2,0,B|277:70|253:22,2,100,0|4|0
224,216,141170,2,0,B|384:216,1,150,8|0
374,216,141570,2,0,B|344:320,1,100,4|0
248,344,141970,1,8
248,344,142070,1,0
160,296,142270,5,0
160,296,142370,2,0,B|208:224|160:120,1,150,4|0
172,152,142770,2,0,B|56:152,1,100,8|0
144,80,143170,2,0,B|96:152|144:256,1,150,4|0
131,223,143570,2,0,B|256:224,1,100,8|0
256,224,143870,1,0
280,224,143970,2,0,B|344:152|288:64,1,150,4|0
299,85,144370,2,0,B|418:85,1,100,8|0
448,176,144770,2,0,B|384:248|440:336,1,150,4|0
428,314,145170,2,0,B|310:315,1,100,8|0
256,248,145570,6,0,B|240:192|272:144,2,100,4|0|8
144,248,146170,2,0,B|160:304|128:352,2,100,0|4|0
48,128,146770,2,0,B|20:168|36:224,1,100,8|0
144,248,147170,2,0,B|272:248,1,100,4|0
312,320,147570,1,8
384,248,147770,1,0
384,248,147870,1,8
336,160,148070,1,0
336,160,148170,2,0,B|304:104|336:56,1,100,8|8
232,88,148570,5,0
232,88,148770,2,0,B|72:88,1,150,4|0
82,88,149170,2,0,B|48:144|80:192,1,100,8|0
144,312,149570,2,0,B|200:232|152:160,1,150,4|0
158,171,149970,2,0,B|270:172,1,100,8|0
384,128,150370,2,0,B|328:208|376:280,1,150,4|0
369,268,150770,2,0,B|265:268,1,100,8|0
192,328,151170,1,4
192,328,151270,2,0,B|80:328,1,100
92,328,151570,2,0,B|128:272|88:200,1,100,8|0
192,192,151970,6,0,B|136:120|184:48,1,150,4|0
180,52,152370,2,0,B|284:53,1,100,8|0
288,152,152770,2,0,B|344:224|296:296,2,150,4|0|0
232,72,153570,1,4
256,208,153770,12,0,154770
352,88,155170,6,2,B|448:160|368:288,2,200,2|12|2
296,168,156170,2,0,B|176:168,1,100,0|12
104,120,156570,1,0
176,56,156770,2,2,B|400:56,2,200,2|12|2
104,120,157770,1,0
136,216,157970,2,0,B|256:208|312:336,1,200,12|2
392,280,158570,6,2,B|376:168,1,100,0|12
440,32,158970,2,2,B|456:152,1,100,0|2
360,96,159370,1,0
280,152,159570,2,0,B|240:192|272:280,1,100,12|0
152,336,159970,2,2,B|192:296|160:208,1,100,2|0
88,80,160370,2,0,B|48:120|80:208,1,100,12|0
168,160,160770,1,2
168,160,160970,2,2,B|280:160,1,100,0|12
368,160,161370,1,14
432,240,161570,6,2,B|528:168|448:40,2,200,2|12|2
352,304,162570,2,0,B|232:304,1,100,0|12
128,224,162970,1,0
192,88,163170,2,2,B|416:88,2,200,2|12|2
216,184,164170,1,0
312,176,164370,2,0,B|426:216|428:356,1,200,12|2
488,224,164970,6,2,B|504:112,1,100,0|12
416,32,165370,2,0,B|400:152,1,100,0|2
312,176,165770,1,0
240,248,165970,2,0,B|280:288|248:376,1,100,12|0
152,264,166370,2,2,B|112:224|144:136,1,100,2|0
208,48,166770,2,2,B|248:88|216:176,1,100,12|0
64,56,167170,1,2
64,56,167370,1,2
64,56,167570,1,14
160,88,167770,1,12
160,88,167970,6,0,B|104:176|160:264,1,175,4|0
216,328,169570,2,0,B|272:240|216:152,1,175
200,80,171170,2,0,B|144:168|200:256,1,175
256,320,172770,2,0,B|312:232|256:144,1,175
224,64,174370,6,2,B|319:-8|420:103,2,200,2|12|2
168,152,175370,2,0,B|288:152,1,100,0|12
256,248,175770,1,0
352,248,175970,2,2,B|312:304|360:360,1,100,2|0
448,232,176370,2,2,B|488:176|440:120,1,100,12|0
376,72,176770,1,2
376,72,176970,1,0
296,128,177170,2,0,B|183:168|181:308,1,200,12|2
56,232,177770,6,2,B|40:120,1,100,0|12
128,40,178170,2,0,B|144:160,1,100,0|2
160,240,178570,1,0
256,248,178770,2,0,B|216:288|248:376,1,100,12|0
352,264,179170,2,2,B|392:224|360:136,1,100,2|0
304,48,179570,2,2,B|264:88|296:176,1,100,12|0
285,141,179970,1,2
285,141,180170,1,2
285,141,180370,1,2
