osu file format v7

[General]
AudioFilename: (10) [nayuta] -1st Anniversary Remix-.mp3
AudioLeadIn: 0
PreviewTime: -1
Countdown: 0
SampleSet: Normal
StackLeniency: 0.7
Mode: 0
LetterboxInBreaks: 0

[Editor]
Bookmarks: 52568
DistanceSpacing: 1.20000004768372
BeatDivisor: 4
GridSize: 8

[Metadata]
Title:Hiiro Gekka Kyousai no Zetsu -1st Anniversary Remix-
Artist:EastNewSound
Creator:niedzwiedz1124
Version:Lunatic
Source:
Tags:

[Difficulty]
HPDrainRate:8
CircleSize:5
OverallDifficulty:8
SliderMultiplier:1.4
SliderTickRate:1

[Events]
//Background and Video events
0,0,"flandrenomnomnom.jpg"
//Break Periods
//Storyboard Layer 0 (Background)
//Storyboard Layer 1 (Fail)
//Storyboard Layer 2 (Pass)
//Storyboard Layer 3 (Foreground)
//Storyboard Sound Samples
//Background Colour Transformations
3,100,163,162,255

[TimingPoints]
1568,400,4,1,1,100,1,0
82968,-200,4,1,1,100,0,0
83368,-100,4,1,1,100,0,0
91168,-200,4,1,1,100,0,0
91568,-100,4,1,1,100,0,0
94368,-200,4,1,1,100,0,0
94768,-100,4,1,1,100,0,0
95768,-200,4,1,1,100,0,0
96168,-100,4,1,1,100,0,0
103168,-100,4,1,1,0,0,0
103668,-100,4,1,1,100,0,0

[Colours]
Combo1 : 255,255,255
Combo2 : 0,0,0
Combo3 : 186,12,16

[HitObjects]
256,328,52768,2,0,B|288:288|248:256,1,70
216,192,53168,1,8
296,160,53368,1,0
296,160,53468,1,0
224,112,53668,1,0
224,112,53768,1,0
304,80,53968,1,8
304,80,54068,6,0,B|336:48|376:88,1,70,0|0
400,48,54368,2,0,B|426:89|386:89|418:137,1,70
448,192,54768,1,8
376,232,54968,1,0
376,232,55068,2,0,B|330:231|330:288,1,70,0|0
296,248,55368,2,0,B|264:328,1,70,0|8
256,352,55668,1,0
256,352,55868,5,0
248,312,55968,1,0
240,272,56068,1,0
232,232,56168,1,0
160,184,56368,2,0,B|256:152,1,70,8|0
264,144,56668,2,0,B|168:112,1,70
160,112,56968,1,0
192,32,57168,1,8
192,32,57268,1,0
264,72,57468,5,0
304,64,57568,1,0
344,72,57668,1,0
384,64,57768,1,0
464,40,57968,2,0,B|496:80|456:112,1,70,8|0
464,144,58268,2,0,B|432:184|472:216,1,70
464,248,58568,1,0
392,208,58768,5,8
352,216,58868,1,0
312,224,58968,1,0
272,232,59068,1,0
232,240,59168,2,0,B|328:272,1,70
376,296,59568,2,0,B|408:336|368:368,1,70,8|0
377,359,59868,1,0
312,312,60068,1,0
312,312,60168,2,0,B|281:288|313:248,1,70,0|8
304,250,60468,1,0
256,192,60668,5,0
248,232,60768,1,0
240,272,60868,1,0
232,312,60968,1,0
160,272,61168,2,0,B|144:352,1,70,8|0
146,340,61468,1,0
64,368,61668,1,0
72,328,61768,1,0
88,248,61968,1,8
88,248,62068,1,0
32,184,62268,5,0
72,176,62368,1,0
112,168,62468,1,0
152,160,62568,1,0
232,152,62768,2,0,B|264:192|224:224,1,70,8|0
208,248,63068,2,0,B|272:296,1,70
232,320,63368,1,0
232,320,63568,1,8
232,320,63668,1,0
304,368,63868,5,0
312,328,63968,1,0
304,288,64068,1,0
312,248,64168,1,0
368,184,64368,1,8
296,136,64568,1,0
296,136,64668,1,0
296,136,64768,1,0
352,72,64968,1,0
160,72,65168,5,8
352,72,65368,5,0
288,24,65568,1,0
256,56,65668,1,0
224,88,65768,1,0
168,144,65968,2,0,B|136:184|176:216,1,70,8|0
200,232,66268,2,0,B|240:264|272:224,1,70,0|0
296,208,66568,1,0
368,160,66768,1,8
368,160,66868,1,0
440,208,67068,5,0
416,240,67168,1,0
392,272,67268,1,0
360,304,67368,2,0,B|256:304,1,70,0|8
208,336,67768,1,0
176,368,67868,2,0,B|256:368,1,70
288,368,68168,1,0
368,368,68368,1,8
368,368,68468,1,0
288,368,68668,5,0
288,328,68768,1,0
288,288,68868,1,0
288,248,68968,1,0
312,168,69168,2,0,B|240:112,1,70,8|0
256,125,69468,1,0
200,216,69668,1,0
200,216,69768,2,0,B|272:272,1,70,0|8
255,258,70068,1,0
200,320,70268,5,0
168,296,70368,1,0
136,272,70468,1,0
104,248,70568,2,0,B|72:208|112:176,1,70,0|8
104,104,70968,1,0
104,104,71068,1,0
184,136,71268,1,0
184,136,71368,1,0
176,56,71568,5,8
216,56,71668,1,0
256,56,71768,1,0
296,56,71868,1,0
336,56,71968,2,0,B|400:120,1,70
448,160,72368,1,8
384,216,72568,1,0
352,240,72668,2,0,B|320:280|360:312,1,70,0|0
384,336,72968,1,0
312,376,73168,5,8
288,344,73268,1,0
256,312,73368,1,0
224,280,73468,1,0
192,248,73568,2,0,B|160:208|200:176,1,70,0|0
320,136,73968,2,0,B|352:176|312:208,1,70,8|0
321,199,74268,1,0
256,192,74468,1,0
256,192,74568,1,0
240,272,74768,5,8
272,296,74868,1,0
240,320,74968,1,0
272,344,75068,1,0
240,368,75168,2,0,B|160:368,1,70
104,320,75568,2,0,B|72:280|112:248,1,70,8|0
102,256,75868,1,0
72,176,76068,1,0
72,176,76168,1,0
152,192,76368,5,8
152,192,76468,1,0
128,112,76668,5,0
128,112,76768,1,0
384,272,78368,6,0,B|385:226|328:226,1,70,0|0
256,224,78768,1,8
176,224,78968,2,0,B|130:225|130:168,1,70,0|0
128,96,79368,1,0
192,40,79568,2,0,B|288:40,2,70,8|0|0
216,120,80168,2,0,B|312:120,1,70,0|8
368,120,80568,1,0
432,176,80768,1,0
368,232,80968,1,0
432,288,81168,1,8
264,288,81568,6,0,B|232:248|272:216,1,70,0|0
328,176,81968,2,0,B|360:216|320:248,1,70,8|0
264,288,82368,1,0
208,352,82568,1,0
152,288,82768,1,8
96,224,82968,2,0,B|40:160,1,70,0|0
49,171,83568,1,8
80,96,83768,2,0,B|136:160,1,70,0|0
126,148,84168,1,0
184,208,84368,1,8
176,288,84568,1,0
256,256,84768,1,0
256,88,85168,5,8
256,88,85368,1,0
424,112,85768,1,0
456,192,85968,1,8
424,272,86168,1,0
272,192,86568,1,0
200,152,86768,1,8
200,232,86968,2,0,B|112:280,1,70,0|0
56,232,87368,2,0,B|144:184,1,70,0|8
117,198,87968,5,0
192,160,88168,2,0,B|224:200|184:232,2,70,0|8|0
224,80,88768,1,0
288,24,88968,2,0,B|288:104,1,70,0|8
288,94,89368,1,0
288,176,89568,1,0
360,136,89768,1,0
360,216,89968,1,8
288,256,90168,1,0
352,312,90368,1,0
160,312,90568,5,0
352,312,90768,5,8
160,312,90968,5,0
80,344,91168,2,0,B|48:304|88:272,1,70,0|8
80,200,91768,1,0
78,280,91968,1,0
80,200,92168,2,0,B|112:160|72:128,1,70,0|8
32,72,92568,2,0,B|192:72,1,140
256,48,93168,5,8
340,72,93368,2,0,B|432:72,1,70
488,32,93768,1,0
488,112,93968,1,8
408,144,94168,1,0
472,200,94368,2,0,B|456:288,1,70,0|8
440,352,94968,1,0
360,352,95168,1,0
280,352,95368,1,0
304,272,95568,1,8
336,192,95768,2,0,B|360:104,1,70
376,40,96368,5,8
296,40,96568,1,0
264,112,96768,1,0
184,112,96968,1,0
152,192,97168,2,0,B|192:224|224:184,1,70,8|0
256,120,97568,1,0
256,288,97968,5,8
256,288,98168,1,0
336,144,98568,1,0
256,120,98768,1,8
176,144,98968,1,0
104,104,99168,1,0
176,56,99368,1,0
256,32,99568,1,8
336,56,99768,1,0
408,104,99968,2,0,B|448:144|448:208|384:248,1,140,0|8
336,272,100568,1,0
336,192,100768,1,0
176,192,101168,5,8
176,272,101368,1,0
176,352,101568,1,0
256,344,101768,2,0,B|256:272,1,70,0|8
256,192,102168,1,0
336,224,102368,2,0,B|368:184|328:152,1,70,0|0
176,160,102768,2,0,B|144:200|184:232,1,70,8|0
256,112,103168,1,0
256,32,103368,1,0
256,112,103568,1,8
