osu file format v12

[General]
AudioFilename: Hiiro Gekka Kyousai no Zetsu.mp3
AudioLeadIn: 0
PreviewTime: -1
Countdown: 0
SampleSet: None
StackLeniency: 0.7
Mode: 0
LetterboxInBreaks: 1
WidescreenStoryboard: 1

[Editor]
DistanceSpacing: 0.7
BeatDivisor: 4
GridSize: 32

[Metadata]
Title:Hiiro Gekka Kyousai no Zetsu
TitleUnicode:Hiiro Gekka Kyousai no Zetsu
Artist:EastNewSound
ArtistUnicode:EastNewSound
Creator:Naiko KuN
Version:Tomato
Source:TouhouProject
Tags:Flandre Scarlet
BeatmapID:324905
BeatmapSetID:92220

[Difficulty]
HPDrainRate:3
CircleSize:3
OverallDifficulty:4
ApproachRate:4
SliderMultiplier:1.60000000596046
SliderTickRate:2

[Events]
//Background and Video events
0,0,"1st.jpg",0,0
//Break Periods
2,65400,70680
//Storyboard Layer 0 (Background)
//Storyboard Layer 1 (Fail)
//Storyboard Layer 2 (Pass)
//Storyboard Layer 3 (Foreground)
//Storyboard Sound Samples
//Background Colour Transformations
3,100,163,162,255

[TimingPoints]
1600,400,4,2,0,60,1,0
27200,-200,4,2,0,60,0,0
52800,-200,4,2,0,60,0,1
56000,-200,4,2,0,60,0,1
57600,-200,4,2,0,60,0,1
62400,-200,4,2,0,60,0,1
65200,-200,4,2,0,60,0,0
72000,-100,4,2,0,60,0,0
78400,-100,4,2,0,60,0,0

[Colours]
Combo1 : 187,47,103
Combo2 : 255,0,0
Combo3 : 128,0,64
Combo4 : 128,0,0

[HitObjects]
192,264,27200,2,0,P|168:168|200:104,1,160.000000596046
328,88,28800,2,0,P|352:184|320:248,1,160.000000596046
208,256,30400,1,0,0:0:0:0:
80,192,31200,1,0,0:0:0:0:
72,80,32000,2,0,P|120:56|232:80,1,160.000000596046
400,72,33600,6,0,P|464:144|488:208,2,160.000000596046
200,104,35600,2,0,L|288:104|288:104,2,80.000000298023
224,192,36800,1,0,0:0:0:0:
248,272,37600,2,0,P|160:296|88:264,2,160.000000596046
128,232,40000,2,0,L|80:64,1,160.000000596046
256,240,41600,2,0,L|256:72,1,160.000000596046
440,200,43200,1,0,0:0:0:0:
384,96,44000,2,0,P|304:40|240:64,2,160.000000596046
464,184,46400,1,0,0:0:0:0:
416,280,47200,1,0,0:0:0:0:
304,312,48000,2,0,P|208:336|152:304,2,160.000000596046
256,192,50400,1,0,0:0:0:0:
256,192,50800,12,0,52000,0:0:0:0:
64,136,52800,6,0,P|144:96|208:128,1,160.000000596046
208,120,54000,1,0,0:0:0:0:
264,208,54400,2,0,P|320:208|336:176,1,80.000000298023
336,272,55200,2,0,P|392:272|408:240,1,80.000000298023
376,104,56000,6,0,P|440:168|424:240,1,160.000000596046
288,176,57200,1,0,0:0:0:0:
328,264,57600,2,0,P|248:296|168:264,1,160.000000596046
256,192,58800,1,0,0:0:0:0:
408,144,59200,6,0,P|408:96|368:80,1,80.000000298023
304,72,60000,2,0,P|256:72|240:112,1,80.000000298023
200,192,60800,1,0,0:0:0:0:
200,192,61200,1,0,0:0:0:0:
136,288,61600,1,0,0:0:0:0:
136,288,62000,1,0,0:0:0:0:
80,232,62400,6,0,P|152:280|224:256,1,160.000000596046
328,216,63600,1,0,0:0:0:0:
416,152,64000,2,0,P|344:104|272:128,1,160.000000596046
264,128,65200,1,0,0:0:0:0:
256,192,72000,12,0,76800,0:0:0:0:
136,112,78400,5,0,0:0:0:0:
248,112,78800,2,0,B|344:112|344:112|408:168,1,160.000000596046
464,240,79600,2,0,B|424:296|424:296|304:296,1,160.000000596046
216,296,80400,2,0,L|40:296,2,160.000000596046
152,208,81600,5,0,0:0:0:0:
72,128,82000,2,0,B|128:56|128:56|216:56,1,160.000000596046
312,56,82800,1,0,0:0:0:0:
424,56,83200,1,0,0:0:0:0:
368,160,83600,2,0,B|368:264|368:264|416:296,2,160.000000596046
256,160,84800,5,0,0:0:0:0:
152,128,85200,2,0,B|152:216|152:216|80:264,1,160.000000596046
168,336,86000,2,0,B|264:336|264:336|328:280,1,160.000000596046
320,184,86800,2,0,B|408:184|408:184|472:128,2,160.000000596046
344,296,88000,6,0,L|176:296,1,160.000000596046
120,208,88800,2,0,L|288:208,1,160.000000596046
352,120,89600,2,0,L|184:120,1,160.000000596046
80,88,90400,5,0,0:0:0:0:
80,88,90600,1,0,0:0:0:0:
80,88,90800,1,0,0:0:0:0:
96,320,91200,6,0,B|192:320|192:320|256:256,3,160.000000596046
320,224,92800,1,0,0:0:0:0:
416,224,93200,2,0,B|480:160|480:160|480:64,2,160.000000596046
352,320,94400,6,0,L|192:320,1,160.000000596046
96,256,95200,2,0,L|256:256,1,160.000000596046
320,160,96000,1,0,0:0:0:0:
416,160,96400,1,0,0:0:0:0:
512,160,96800,2,0,P|576:128|576:96,3,80.000000298023
512,256,97600,6,0,B|448:320|448:320|352:320,1,160.000000596046
256,320,98400,2,0,B|160:320|160:320|96:288,1,160.000000596046
64,192,99200,2,0,L|64:32,1,160.000000596046
192,32,100000,2,0,L|192:192,1,160.000000596046
320,192,100800,2,0,L|320:32,2,160.000000596046
448,192,102000,5,0,0:0:0:0:
384,288,102400,1,0,0:0:0:0:
288,320,102800,1,0,0:0:0:0:
192,288,103200,1,0,0:0:0:0:
128,192,103600,1,0,0:0:0:0:
416,64,104000,2,0,P|480:160|480:224,1,160.000000596046
384,224,104600,2,0,L|320:288,3,80.000000298023
224,288,105600,2,0,P|128:288|64:224,1,160.000000596046
160,192,106400,2,0,P|64:192|0:128,1,160.000000596046
64,64,107200,6,0,L|128:128,1,80.000000298023
224,96,107600,2,0,L|288:160,1,80.000000298023
448,96,108200,5,0,0:0:0:0:
448,320,108800,6,0,L|384:256,1,80.000000298023
320,256,109200,2,0,L|256:192,1,80.000000298023
64,288,109800,5,0,0:0:0:0:
192,64,110400,5,0,0:0:0:0:
320,64,110800,1,0,0:0:0:0:
192,160,111200,1,0,0:0:0:0:
320,160,111600,1,0,0:0:0:0:
192,256,112000,1,0,0:0:0:0:
320,256,112400,1,0,0:0:0:0:
192,352,112800,1,0,0:0:0:0:
320,352,113200,1,0,0:0:0:0:
64,320,113600,6,0,L|128:256,1,80.000000298023
224,288,114000,2,0,L|288:224,1,80.000000298023
448,288,114600,5,0,0:0:0:0:
448,64,115200,6,0,L|384:128,1,80.000000298023
288,96,115600,2,0,L|224:160,1,80.000000298023,0|0,0:0|0:0,0:0:0:0:
64,96,116200,5,0,0:0:0:0:
64,320,116800,6,0,B|160:320|160:320|224:288,1,160.000000596046
320,256,117600,2,0,B|384:320|384:320|480:320,1,160.000000596046
448,224,118400,2,0,L|448:64,2,160.000000596046
448,224,119600,1,0,0:0:0:0:
