osu file format v12

[General]
AudioFilename: Hiiro Gekka Kyousai no Zetsu.mp3
AudioLeadIn: 0
PreviewTime: -1
Countdown: 0
SampleSet: Soft
StackLeniency: 0.7
Mode: 0
LetterboxInBreaks: 1
WidescreenStoryboard: 0

[Editor]
DistanceSpacing: 1.2
BeatDivisor: 4
GridSize: 8

[Metadata]
Title:Hiiro Gekka Kyousai no Zetsu
TitleUnicode:Hiiro Gekka Kyousai no Zetsu
Artist:EastNewSound
ArtistUnicode:EastNewSound
Creator:Naiko KuN
Version:NK-Hard
Source:TouhouProject
Tags:Flandre Scarlet
BeatmapID:249412
BeatmapSetID:92220

[Difficulty]
HPDrainRate:7
CircleSize:4
OverallDifficulty:6
ApproachRate:8
SliderMultiplier:1.4
SliderTickRate:1

[Events]
//Background and Video events
0,0,"1st.jpg",0,0
//Break Periods
2,14999,24852
2,66200,76052
2,168200,173650
//Storyboard Layer 0 (Background)
//Storyboard Layer 1 (Fail)
//Storyboard Layer 2 (Pass)
//Storyboard Layer 3 (Foreground)
//Storyboard Sound Samples
//Background Colour Transformations
3,100,163,162,255

[TimingPoints]
1600,400,4,2,1,60,1,0
2000,-100,4,2,1,60,0,0
2400,-200,4,2,1,60,0,0
3200,-100,4,2,1,60,0,0
3600,-100,4,2,1,60,0,0
4800,-100,4,2,1,60,0,0
5600,-200,4,2,1,60,0,0
6400,-100,4,2,1,60,0,0
6400,-100,4,2,1,60,0,0
6800,-100,4,2,1,60,0,0
8000,-100,4,2,1,60,0,0
8800,-200,4,2,1,60,0,0
9600,-100,4,2,1,60,0,0
10000,-100,4,2,1,60,0,0
13200,-100,4,2,1,65,0,0
13600,-133.333333333333,4,2,1,65,0,0
14000,-100,4,2,1,50,0,0
14400,-100,4,2,1,60,0,0
14800,-100,4,2,1,50,0,0
26600,-100,4,2,1,80,0,0
26800,-100,4,2,1,60,0,0
27200,-83.3333333333333,4,2,1,60,0,0
27400,-83.3333333333333,4,2,1,50,0,0
27600,-83.3333333333333,4,2,1,60,0,0
27800,-83.3333333333333,4,2,1,50,0,0
28000,-83.3333333333333,4,2,1,60,0,0
28200,-83.3333333333333,4,2,1,50,0,0
28400,-83.3333333333333,4,2,1,60,0,0
28600,-100,4,2,1,50,0,0
28800,-100,4,2,1,60,0,0
29600,-100,4,2,1,60,0,0
38400,-133.333333333333,4,2,1,60,0,0
39200,-100,4,2,1,60,0,0
52800,-100,4,2,1,60,0,1
60000,-133.333333333333,4,2,1,60,0,1
60800,-100,4,2,1,60,0,1
61600,-133.333333333333,4,2,1,60,0,1
62400,-100,4,2,1,60,0,1
66000,-100,4,2,1,80,0,0
76800,-100,4,1,1,60,0,0
78400,-100,4,2,1,60,0,0
79000,-100,4,2,1,60,0,0
92000,-76.9230769230769,4,2,1,60,0,0
92400,-100,4,2,1,60,0,0
109800,-66.6666666666667,4,2,1,60,0,0
110000,-100,4,2,1,60,0,0
114600,-100,4,2,1,60,0,0
116200,-100,4,2,1,60,0,0
116800,-100,4,2,1,60,0,0
118200,-100,4,2,1,60,0,0
128000,-100,4,2,1,60,0,1
128800,-100,4,2,1,60,0,0
129200,-100,4,2,1,60,0,1
142000,-100,4,2,1,60,0,0
158000,-100,4,2,1,60,0,0
158400,-100,4,2,1,60,0,0
206400,-100,4,2,1,60,0,1
232000,-100,4,2,1,60,0,0

[Colours]
Combo1 : 187,47,103
Combo2 : 255,0,0
Combo3 : 128,0,64
Combo4 : 128,0,0

[HitObjects]
56,72,1602,1,2,0:0:0:0:
128,72,1802,1,0,0:0:0:0:
200,72,2002,1,2,0:0:0:0:
216,208,2400,2,2,B|248:192|280:208|280:208|312:192|344:208|344:208|360:208,1,140
360,112,3400,1,0,0:0:0:0:
408,56,3600,2,0,P|488:80|496:128,1,140
456,312,4800,5,2,0:0:0:0:
384,312,5000,1,0,0:0:0:0:
312,312,5200,1,2,0:0:0:0:
296,176,5600,2,2,B|289:176|289:176|257:160|225:176|225:176|193:160|161:176,1,140
152,272,6598,1,0,0:0:0:0:
104,328,6798,2,0,P|24:304|16:256,1,140
56,72,8000,5,2,0:0:0:0:
128,72,8200,1,0,0:0:0:0:
200,72,8400,1,2,0:0:0:0:
216,208,8800,2,2,B|248:224|280:208|280:208|312:224|344:208|344:208|350:208,1,140
360,112,9798,1,0,0:0:0:0:
424,80,10000,1,2,0:0:0:0:
432,152,10200,1,0,0:0:0:0:
432,152,10300,1,0,0:0:0:0:
432,152,10400,1,2,0:0:0:0:
408,288,10800,1,2,0:0:0:0:
280,336,11200,6,2,P|232:312|224:280,2,70
320,200,12000,2,2,P|336:88|184:48,1,280
136,56,13000,1,0,0:0:0:0:
80,104,13200,2,0,L|64:184,1,70
128,176,13600,2,0,B|144:168|144:168|160:176|176:168|176:168|192:176|208:168|208:168|224:176|240:168|240:168,1,105.000004005432,0|0,0:0|0:0,0:0:0:0:
352,264,14400,6,2,P|408:264|432:240,2,70
256,192,25602,12,2,26402,0:0:0:0:
256,192,26600,5,0,0:0:0:0:
256,192,26800,1,2,0:0:0:0:
376,88,27200,6,0,L|456:48,1,83.9999974365235,2|0,0:0|0:0,0:0:0:0:
512,120,27600,6,0,L|408:176,1,83.9999974365235,2|0,0:0|0:0,0:0:0:0:
424,248,28000,6,0,L|528:216,1,83.9999974365235,2|0,0:0|0:0,0:0:0:0:
504,320,28400,6,0,L|408:352,1,83.9999974365235,2|0,0:0|0:0,0:0:0:0:
352,328,28800,6,2,B|336:320|336:320|320:328|320:328|304:320|304:320|288:328|288:328|272:320|272:320|256:328|256:328|240:320|240:320|224:328|224:328,1,140
160,280,29400,1,0,0:0:0:0:
160,280,29500,1,0,0:0:0:0:
160,280,29600,2,2,P|80:272|24:224,1,140
80,88,30400,5,2,0:0:0:0:
80,88,30600,1,0,0:0:0:0:
136,32,30800,1,2,0:0:0:0:
136,32,31000,1,0,0:0:0:0:
216,32,31200,1,2,0:0:0:0:
256,96,31400,1,0,0:0:0:0:
296,96,31500,1,0,0:0:0:0:
336,96,31600,1,2,0:0:0:0:
408,128,31800,6,2,L|384:200,1,70
312,224,32200,1,0,0:0:0:0:
312,304,32400,2,0,L|248:336,1,70,2|2,0:0|0:0,0:0:0:0:
184,304,32800,2,2,B|176:280|152:296|152:296|144:272|120:288|120:288|112:264|96:280|96:280|80:256|64:272,1,140
72,112,33600,6,2,L|128:48,1,70,2|2,0:0|0:0,0:0:0:0:
184,112,34000,1,2,0:0:0:0:
352,112,34400,5,2,0:0:0:0:
424,64,34600,2,2,L|471:117,1,70
504,264,35200,1,2,0:0:0:0:
432,312,35400,5,0,0:0:0:0:
432,312,35500,1,0,0:0:0:0:
432,312,35600,1,2,0:0:0:0:
352,320,35800,2,2,P|304:360|280:376,1,70
248,280,36400,1,2,0:0:0:0:
104,336,36800,5,2,0:0:0:0:
48,280,37000,2,2,P|16:224|16:208,1,70
56,152,37400,1,0,0:0:0:0:
80,120,37500,1,0,0:0:0:0:
104,88,37600,1,2,0:0:0:0:
168,32,37800,2,2,P|224:8|240:0,1,70
312,40,38200,1,0,0:0:0:0:
336,56,38400,6,2,P|408:96|424:128,2,105.000004005432
376,160,39400,2,2,P|392:216|416:240,1,70
448,168,39800,1,0,0:0:0:0:
488,232,40000,6,2,P|416:328|384:352,1,140
288,240,40800,1,2,0:0:0:0:
136,200,41200,2,2,P|184:96|208:80,1,140
272,56,41800,1,0,0:0:0:0:
272,56,42000,1,2,0:0:0:0:
272,56,42100,1,0,0:0:0:0:
272,56,42200,1,0,0:0:0:0:
352,64,42400,2,2,P|400:136|456:176,1,140
328,272,43200,5,2,0:0:0:0:
280,336,43400,1,0,0:0:0:0:
240,272,43600,1,2,0:0:0:0:
200,336,43800,1,0,0:0:0:0:
160,272,44000,1,2,0:0:0:0:
112,336,44200,1,0,0:0:0:0:
112,336,44300,1,0,0:0:0:0:
112,336,44400,1,2,0:0:0:0:
64,272,44600,1,0,0:0:0:0:
112,208,44800,5,2,0:0:0:0:
112,208,45000,1,0,0:0:0:0:
192,208,45200,1,2,0:0:0:0:
192,208,45400,1,0,0:0:0:0:
264,176,45600,2,2,B|296:104|320:128|352:48,1,140
496,40,46400,5,2,0:0:0:0:
480,208,46800,1,2,0:0:0:0:
368,336,47200,1,2,0:0:0:0:
240,224,47602,2,2,B|224:288|184:288|184:288|144:352,1,140,2|2,0:0|0:0,0:0:0:0:
160,328,48200,1,0,0:0:0:0:
160,328,48300,1,0,0:0:0:0:
160,328,48400,1,2,0:0:0:0:
96,288,48600,6,2,P|40:240|40:224,1,70
32,96,49200,1,2,0:0:0:0:
168,32,49600,1,2,0:0:0:0:
248,32,49800,1,0,0:0:0:0:
328,32,50000,1,2,0:0:0:0:
408,32,50200,1,0,0:0:0:0:
488,32,50400,1,2,0:0:0:0:
504,152,50600,1,0,0:0:0:0:
480,184,50700,1,0,0:0:0:0:
456,216,50800,1,2,0:0:0:0:
496,280,51000,2,2,P|472:328|432:352,1,70
416,280,51400,1,0,0:0:0:0:
336,280,51600,2,2,P|368:224|392:208,1,70
408,152,52000,5,2,0:0:0:0:
304,48,52200,1,0,0:0:0:0:
112,80,52400,1,10,0:0:0:0:
152,288,52802,6,2,P|112:224|112:208,1,70
176,176,53202,2,2,P|177:184|161:242,1,70
80,216,53602,1,2,0:0:0:0:
40,144,53800,1,0,0:0:0:0:
56,64,54002,1,2,0:0:0:0:
128,104,54200,6,2,P|184:72|216:80,1,70
256,128,54602,6,2,P|216:192|216:208,1,70
272,248,55002,1,0,0:0:0:0:
352,272,55202,1,2,0:0:0:0:
432,240,55400,1,0,0:0:0:0:
440,160,55600,6,2,P|441:152|425:94,1,70
352,136,56000,1,2,0:0:0:0:
304,208,56200,6,2,P|313:241|335:268,1,70
288,336,56600,1,0,0:0:0:0:
216,296,56802,1,2,0:0:0:0:
136,288,57000,1,0,0:0:0:0:
72,232,57200,6,2,B|80:184|80:184|80:136,1,70
24,104,57600,6,2,B|16:152|16:152|16:173,1,70
96,144,58000,6,2,B|104:96|104:96|104:48,1,70
40,16,58400,6,0,B|32:64|32:64|32:85,1,70,0|2,0:0|0:0,0:0:0:0:
32,85,58700,1,0,0:0:0:0:
32,85,58800,1,2,0:0:0:0:
112,56,59002,1,0,0:0:0:0:
139,52,59100,1,0,0:0:0:0:
168,48,59200,1,2,0:0:0:0:
240,96,59400,5,0,0:0:0:0:
304,40,59600,1,2,0:0:0:0:
240,96,59800,1,2,0:0:0:0:
240,96,60000,2,2,B|192:184|192:184|184:304,1,210.000008010865
264,272,61000,1,0,0:0:0:0:
272,352,61200,6,2,B|312:344|312:344|331:315,1,70
376,256,61600,2,2,B|408:152|408:152|400:32,1,210.000008010865
320,32,62600,1,0,0:0:0:0:
320,32,62800,1,2,0:0:0:0:
240,32,63000,5,0,0:0:0:0:
240,32,63100,1,0,0:0:0:0:
240,32,63200,2,2,B|200:48|200:48|160:80,1,70
120,32,63600,2,2,B|160:48|160:48|181:64,1,70,2|2,0:0|0:0,0:0:0:0:
224,136,64002,5,2,0:0:0:0:
144,168,64200,2,0,B|128:200|128:200|128:248,2,70,0|2|0,0:0|0:0|0:0,0:0:0:0:
208,224,64800,2,2,B|248:152|248:152|320:104,1,140
336,104,65300,1,0,0:0:0:0:
376,96,65400,1,0,0:0:0:0:
400,176,65600,2,2,B|360:248|360:248|310:282,1,140
256,192,76802,12,0,78002,0:0:0:0:
72,152,78400,6,0,P|120:64|168:48,1,140
236,40,79002,1,2,0:0:0:0:
276,48,79102,1,0,0:0:0:0:
316,56,79202,1,0,0:0:0:0:
396,32,79400,2,2,B|440:68|440:68|452:88,2,70
384,200,80202,5,2,0:0:0:0:
336,268,80402,1,0,0:0:0:0:
304,188,80602,1,2,0:0:0:0:
248,252,80802,1,0,0:0:0:0:
224,172,81002,1,2,0:0:0:0:
172,236,81202,1,0,0:0:0:0:
148,156,81402,1,2,0:0:0:0:
180,80,81600,6,2,P|120:60|108:68,2,70,2|2|2,0:0|0:0|0:0,0:0:0:0:
180,80,82200,1,0,0:0:0:0:
180,80,82300,1,0,0:0:0:0:
180,80,82400,1,2,0:0:0:0:
252,124,82602,1,2,0:0:0:0:
256,208,82802,1,0,0:0:0:0:
328,252,83002,1,2,0:0:0:0:
484,320,83400,6,2,B|496:288|496:288|472:240,1,70
412,196,83800,1,0,0:0:0:0:
408,280,84002,1,2,0:0:0:0:
408,280,84102,1,0,0:0:0:0:
408,280,84202,1,0,0:0:0:0:
468,340,84402,1,2,0:0:0:0:
388,304,84602,2,2,L|320:352,1,70
240,292,85002,5,0,0:0:0:0:
164,256,85200,1,0,0:0:0:0:
80,252,85400,1,0,0:0:0:0:
48,176,85600,1,2,0:0:0:0:
100,108,85800,1,0,0:0:0:0:
132,80,85900,1,0,0:0:0:0:
164,52,86000,2,2,B|236:40|236:40|312:44,1,140
388,48,86600,6,0,P|420:104|416:132,1,70,0|2,0:0|0:0,0:0:0:0:
424,148,86900,1,0,0:0:0:0:
424,188,87000,1,0,0:0:0:0:
352,232,87200,2,2,P|352:320|356:328,2,70,2|2|2,0:0|0:0|0:0,0:0:0:0:
212,328,88000,6,2,P|104:288|88:256,1,140
124,192,88602,2,0,L|220:192,1,70,0|2,0:0|0:0,0:0:0:0:
244,124,89002,2,0,L|284:100,2,35,0|0|2,0:0|0:0|0:0,0:0:0:0:
304,184,89400,1,0,0:0:0:0:
380,148,89600,1,2,0:0:0:0:
304,184,89800,1,0,0:0:0:0:
380,148,90000,1,2,0:0:0:0:
412,224,90200,6,2,B|460:268|460:268|468:288,1,70
404,332,90600,2,0,L|320:356,2,70,2|2|2,0:0|0:0|0:0,0:0:0:0:
364,256,91200,6,2,P|460:176|468:152,1,140
432,88,91802,1,0,0:0:0:0:
328,56,92000,2,2,L|272:64,2,45.4999979171754
280,88,92300,2,2,L|216:136,1,45.4999979171754,2|4,0:0|0:0,0:0:0:0:
136,144,92602,6,0,L|56:184,1,70,0|2,0:0|0:0,0:0:0:0:
136,224,93002,1,0,0:0:0:0:
216,224,93202,1,2,0:0:0:0:
216,304,93402,1,0,0:0:0:0:
296,304,93602,1,2,0:0:0:0:
376,304,93802,2,0,L|376:224,1,70,0|2,0:0|0:0,0:0:0:0:
376,224,94102,1,0,0:0:0:0:
376,216,94202,1,0,0:0:0:0:
376,72,94400,6,2,B|272:48|272:48|240:56,1,140
192,128,95002,1,0,0:0:0:0:
152,200,95202,2,0,L|112:272,1,70,2|0,0:0|0:0,0:0:0:0:
118,261,95500,1,0,0:0:0:0:
118,261,95600,2,0,L|176:344,1,70,2|0,0:0|0:0,0:0:0:0:
240,320,96000,1,2,0:0:0:0:
320,320,96200,1,0,0:0:0:0:
408,320,96402,6,0,P|440:272|448:256,1,70,2|0,0:0|0:0,0:0:0:0:
408,184,96802,1,2,0:0:0:0:
408,184,96902,1,0,0:0:0:0:
408,184,97002,1,0,0:0:0:0:
368,112,97202,1,2,0:0:0:0:
368,112,97302,1,0,0:0:0:0:
368,112,97402,1,0,0:0:0:0:
312,48,97600,6,2,P|184:48|152:56,1,140
104,96,98202,2,0,P|111:129|106:164,1,70,0|2,0:0|0:0,0:0:0:0:
104,248,98600,2,0,L|184:248,2,70,0|2|0,0:0|0:0|0:0,0:0:0:0:
104,248,99200,1,2,0:0:0:0:
104,336,99402,5,0,0:0:0:0:
184,336,99602,1,2,0:0:0:0:
256,296,99802,1,0,0:0:0:0:
312,240,100002,1,2,0:0:0:0:
336,208,100102,1,0,0:0:0:0:
360,176,100202,1,0,0:0:0:0:
440,200,100402,1,2,0:0:0:0:
456,120,100602,6,2,L|408:96,2,35
480,40,101002,1,0,0:0:0:0:
400,40,101200,2,2,B|392:32|392:32|384:40|384:40|376:32|376:32|368:40|368:40|360:32|360:32|352:40|352:40|344:32|344:32|328:32,1,70,2|2,0:0|0:0,0:0:0:0:
264,40,101602,1,2,0:0:0:0:
264,64,101702,1,0,0:0:0:0:
264,88,101802,1,0,0:0:0:0:
216,152,102002,1,2,0:0:0:0:
160,88,102202,6,0,L|80:64,1,70,0|2,0:0|0:0,0:0:0:0:
112,152,102602,1,0,0:0:0:0:
128,232,102802,1,2,0:0:0:0:
136,272,102902,1,0,0:0:0:0:
144,312,103002,1,0,0:0:0:0:
224,312,103202,1,2,0:0:0:0:
304,312,103400,2,0,B|312:304|312:304|328:312|328:312|336:304|336:304|352:312|352:312|360:304|360:304|376:312|376:312|384:304|384:304|400:312|400:312|408:304|408:304|416:312,1,140
464,184,104002,6,2,P|470:117|414:82,1,140
376,160,104602,1,0,0:0:0:0:
336,232,104802,2,2,P|269:238|234:182,1,140
224,96,105416,1,0,0:0:0:0:
152,64,105602,2,0,L|88:104,1,70,2|0,0:0|0:0,0:0:0:0:
72,184,106002,1,2,0:0:0:0:
72,184,106102,1,0,0:0:0:0:
72,184,106202,1,0,0:0:0:0:
56,104,106402,6,2,P|128:56|184:56,1,140
256,96,107002,2,2,L|232:128,2,35
296,168,107402,2,0,L|328:200,2,35,2|2|2,0:0|0:0|0:0,0:0:0:0:
344,96,107802,1,0,0:0:0:0:
424,96,108002,1,2,0:0:0:0:
424,120,108102,1,0,0:0:0:0:
424,144,108202,1,0,0:0:0:0:
480,208,108402,6,2,P|408:240|400:240,2,70
400,224,109002,2,0,L|360:208,2,35,0|0|2,0:0|0:0|0:0,0:0:0:0:
344,288,109402,2,0,L|248:272,1,70,0|2,0:0|0:0,0:0:0:0:
152,272,109800,2,4,B|144:264|144:264|152:256|144:248|144:248|152:240|144:232|144:232|152:224|144:216|144:216|152:208|144:200|144:200|152:192|144:184|144:184|152:176,1,105.000004005432,0|6,0:0|0:0,0:0:0:0:
48,48,110402,6,0,L|144:48,1,70,2|0,0:0|0:0,0:0:0:0:
184,96,110802,1,2,0:0:0:0:
184,96,111002,1,0,0:0:0:0:
216,176,111202,2,0,L|120:176,1,70,2|0,0:0|0:0,0:0:0:0:
88,240,111602,1,2,0:0:0:0:
88,240,111802,1,0,0:0:0:0:
144,304,112000,6,0,B|200:304|200:304|232:296,1,70,2|0,0:0|0:0,0:0:0:0:
224,288,112302,1,0,0:0:0:0:
232,280,112402,1,2,0:0:0:0:
304,240,112602,1,2,0:0:0:0:
304,240,112702,1,0,0:0:0:0:
304,240,112802,2,0,P|272:184|240:176,1,70,2|0,0:0|0:0,0:0:0:0:
336,128,113202,1,2,0:0:0:0:
400,80,113402,1,4,0:0:0:0:
328,48,113600,6,0,L|248:48,1,70,2|0,0:0|0:0,0:0:0:0:
176,48,114000,1,2,0:0:0:0:
96,48,114200,1,2,0:0:0:0:
96,216,114600,1,0,0:0:0:0:
184,336,115200,6,0,L|264:336,1,70,2|0,0:0|0:0,0:0:0:0:
336,336,115600,1,2,0:0:0:0:
416,336,115800,1,2,0:0:0:0:
416,168,116200,1,4,0:0:0:0:
200,320,116800,6,0,L|104:288,1,70,0|2,0:0|0:0,0:0:0:0:
152,216,117200,2,0,L|232:192,1,70,0|2,0:0|0:0,0:0:0:0:
292,195,117600,2,0,L|360:216,1,70,0|2,0:0|0:0,0:0:0:0:
378,297,118000,2,0,L|312:320,1,70,0|2,0:0|0:0,0:0:0:0:
224,320,118400,2,2,B|224:312|224:312|208:312|208:312|208:320|192:320|192:312|192:312|176:312|176:312|176:320|160:320|160:312|160:312|144:312|144:312|144:320|128:320|128:312|128:312|112:312|112:312|112:320|96:320|96:312|96:312|80:312|80:312|80:320|64:320|64:312|64:312|48:312|48:312|48:320|48:320,1,210,0|2,0:0|0:0,0:0:0:0:
40,144,119400,1,2,0:0:0:0:
48,120,119500,1,0,0:0:0:0:
56,96,119600,1,2,0:0:0:0:
312,64,120000,6,0,L|378:86,1,70,0|2,0:0|0:0,0:0:0:0:
360,168,120400,2,0,L|292:188,1,70,0|2,0:0|0:0,0:0:0:0:
220,189,120800,2,0,L|153:168,1,70,0|2,0:0|0:0,0:0:0:0:
134,87,121200,2,0,L|200:64,1,70,0|2,0:0|0:0,0:0:0:0:
296,72,121602,2,2,B|288:72|288:72|304:72|304:72|304:64|320:64|320:72|320:72|336:72|336:72|336:64|352:64|352:72|352:72|368:72|368:72|368:64|384:64|384:72|384:72|400:72|400:72|400:64|416:64|416:72|416:72|432:72|432:72|432:64|448:64|448:72|448:72|464:72|464:72|464:64|458:72,1,210,0|2,0:0|0:0,0:0:0:0:
472,240,122600,1,2,0:0:0:0:
464,264,122700,1,0,0:0:0:0:
456,288,122800,1,2,0:0:0:0:
288,288,123200,6,0,L|280:200,1,70,2|0,0:0|0:0,0:0:0:0:
184,264,123600,2,0,L|208:184,1,70,2|0,0:0|0:0,0:0:0:0:
120,184,124000,2,0,L|168:128,1,70,2|0,0:0|0:0,0:0:0:0:
104,80,124400,2,0,L|176:48,1,70,2|0,0:0|0:0,0:0:0:0:
248,40,124800,6,0,L|184:68,1,70,2|0,0:0|0:0,0:0:0:0:
245,119,125200,2,0,L|199:172,1,70,2|0,0:0|0:0,0:0:0:0:
284,185,125601,2,0,L|263:252,1,70,2|0,0:0|0:0,0:0:0:0:
361,206,126000,2,0,L|367:275,1,70,2|0,0:0|0:0,0:0:0:0:
448,296,126400,6,2,B|448:256|448:256|456:248|456:248|448:240|448:240|456:232|456:232|448:224|448:224|456:216|456:216|448:208|448:208|456:200|456:200|448:192|448:192|456:184|456:184|448:176|448:176,1,140
448,104,127000,1,2,0:0:0:0:
280,64,127402,1,2,0:0:0:0:
280,144,127602,1,0,0:0:0:0:
344,200,127802,1,6,0:0:0:0:
328,280,128002,5,0,0:0:0:0:
304,264,128102,1,0,0:0:0:0:
280,248,128202,1,0,0:0:0:0:
256,232,128302,1,0,0:0:0:0:
232,216,128402,1,0,0:0:0:0:
200,192,128502,1,0,0:0:0:0:
168,168,128602,1,0,0:0:0:0:
128,136,128702,1,0,0:0:0:0:
88,104,128802,1,4,0:0:0:0:
232,40,129200,6,2,B|256:56|256:56|280:40|280:40|304:56|304:56|328:40|328:40|352:56|352:56,1,140
440,64,129800,2,0,P|448:120|464:144,1,70,2|2,0:0|0:0,0:0:0:0:
376,128,130200,1,0,0:0:0:0:
480,176,130402,1,6,0:0:0:0:
280,328,131000,1,2,0:0:0:0:
208,288,131200,2,0,B|128:296|128:296|96:296,1,105,2|4,0:0|0:0,0:0:0:0:
64,176,131800,1,2,0:0:0:0:
96,96,132000,1,2,0:0:0:0:
256,48,132400,2,0,L|320:64,2,35,2|2|2,0:0|0:0|0:0,0:0:0:0:
256,136,132800,6,0,B|248:144|248:144|256:152|256:152|248:160|248:160|256:168|256:168|248:176|248:176|256:184|256:184|256:264|256:264,1,140,0|2,0:0|0:0,0:0:0:0:
336,312,133400,1,2,0:0:0:0:
384,240,133600,1,0,0:0:0:0:
304,264,133800,1,2,0:0:0:0:
384,288,134000,1,0,0:0:0:0:
336,216,134200,2,0,B|368:176|376:168|376:168|384:144,1,70,2|0,0:0|0:0,0:0:0:0:
416,72,134600,1,2,0:0:0:0:
344,32,134800,5,2,0:0:0:0:
312,48,135000,2,0,B|272:48|272:48|224:80,1,70,0|2,0:0|0:0,0:0:0:0:
440,224,135802,5,0,0:0:0:0:
384,280,136000,2,0,P|376:320|328:344,1,70,2|0,0:0|0:0,0:0:0:0:
304,272,136402,1,2,0:0:0:0:
224,264,136600,2,0,P|240:208|256:192,1,70,0|2,0:0|0:0,0:0:0:0:
464,32,137600,5,2,0:0:0:0:
360,112,137900,1,2,0:0:0:0:
232,120,138200,1,2,0:0:0:0:
232,120,138400,1,2,0:0:0:0:
232,120,138600,2,0,B|192:80|192:80|168:72,1,70,0|4,0:0|0:0,0:0:0:0:
48,184,139200,2,2,B|56:192|56:192|48:200|48:200|56:208|56:208|48:216|48:216|56:224|56:224|48:232|48:232|56:240|56:240|48:248|48:248|56:256|56:256|48:264|48:264|56:272|56:272|48:280|48:280|56:288|56:288|48:296|48:296|56:304|56:304|48:312|48:312|56:320|56:320|48:328|48:328|56:336|56:336,1,210
136,312,140000,5,2,0:0:0:0:
192,376,140200,2,2,P|216:336|224:296,1,70
240,232,140600,1,0,0:0:0:0:
248,144,140800,1,2,0:0:0:0:
168,112,141000,1,0,0:0:0:0:
144,32,141200,1,2,0:0:0:0:
312,32,141600,2,2,B|328:48|328:48|344:32|344:32|360:48|360:48|376:32|376:32|392:48|392:48|408:32|408:32|424:48|424:48,1,140,2|2,0:0|0:0,0:0:0:0:
464,104,142200,2,0,L|392:144,1,70,0|2,0:0|0:0,0:0:0:0:
232,160,142802,5,2,0:0:0:0:
312,128,143000,1,0,0:0:0:0:
248,80,143200,2,2,P|176:96|160:176,1,140,2|2,0:0|0:0,0:0:0:0:
80,112,143800,2,0,B|80:168|80:168|96:200,1,70,0|2,0:0|0:0,0:0:0:0:
192,240,144300,1,2,0:0:0:0:
336,328,144600,1,0,0:0:0:0:
368,256,144800,1,2,0:0:0:0:
368,88,145202,1,2,0:0:0:0:
208,48,145600,6,2,P|128:96|128:160,1,140
176,200,146200,1,0,0:0:0:0:
192,280,146400,2,2,P|88:296|64:280,1,140
40,200,147000,2,2,L|88:128,1,70,0|2,0:0|0:0,0:0:0:0:
136,200,147400,2,0,L|208:144,1,70,0|2,0:0|0:0,0:0:0:0:
232,232,147800,2,0,L|328:208,1,70,0|2,0:0|0:0,0:0:0:0:
472,32,148600,6,0,L|448:120,1,70,0|2,0:0|0:0,0:0:0:0:
392,256,149202,1,2,0:0:0:0:
312,256,149400,1,0,0:0:0:0:
248,304,149600,2,2,P|176:288|160:208,1,140,2|2,0:0|0:0,0:0:0:0:
80,272,150200,2,0,B|80:216|80:216|96:184,1,70,0|2,0:0|0:0,0:0:0:0:
192,144,150700,1,2,0:0:0:0:
328,64,151000,1,0,0:0:0:0:
376,136,151200,1,2,0:0:0:0:
368,296,151602,1,2,0:0:0:0:
208,336,152000,6,2,P|128:288|128:224,1,140
176,184,152600,1,0,0:0:0:0:
192,104,152800,2,2,P|88:88|64:104,1,140
40,184,153400,2,2,L|88:256,1,70,0|2,0:0|0:0,0:0:0:0:
136,184,153800,2,0,L|208:240,1,70,0|2,0:0|0:0,0:0:0:0:
232,152,154200,2,0,L|328:176,1,70,0|2,0:0|0:0,0:0:0:0:
424,56,154800,5,2,0:0:0:0:
424,56,155000,1,2,0:0:0:0:
424,56,155200,2,2,P|440:144|400:176,1,140
352,112,155800,2,2,P|328:208|376:240,1,140
408,168,156400,1,2,0:0:0:0:
464,224,156600,2,2,L|328:320,1,140
272,280,157200,5,0,0:0:0:0:
192,312,157400,2,0,B|144:288|144:288|128:272,1,70,0|2,0:0|0:0,0:0:0:0:
96,200,157800,1,2,0:0:0:0:
48,128,158000,1,2,0:0:0:0:
200,48,158400,6,2,P|184:136|224:168,1,140
272,104,159000,2,2,P|296:200|248:232,1,140
216,160,159600,1,2,0:0:0:0:
160,216,159800,2,2,L|296:312,1,140
352,272,160400,5,0,0:0:0:0:
432,304,160600,2,0,B|480:280|480:280|496:264,1,70,0|2,0:0|0:0,0:0:0:0:
480,184,161000,2,0,B|432:208|432:208|416:224,1,70,0|2,0:0|0:0,0:0:0:0:
87,327,161600,6,2,P|63:265|103:211,1,140
159,272,162200,2,2,P|194:214|163:154,1,140
104,216,162801,1,2,0:0:0:0:
48,160,163001,2,2,L|162:79,1,140
240,104,163601,5,0,0:0:0:0:
320,72,163801,2,0,B|368:96|368:96|379:107,1,70,0|2,0:0|0:0,0:0:0:0:
320,160,164200,2,0,B|272:136|272:136|261:125,1,70,0|2,0:0|0:0,0:0:0:0:
416,192,164800,6,2,P|416:272|360:312,1,140
320,248,165400,2,2,B|280:248|296:328|296:328|240:320,1,140
208,248,166000,1,0,0:0:0:0:
136,216,166200,1,2,0:0:0:0:
240,80,166600,6,0,L|304:48,1,70,2|2,0:0|0:0,0:0:0:0:
320,128,167000,2,0,L|408:160,1,70,2|2,0:0|0:0,0:0:0:0:
392,72,167400,2,0,L|472:40,1,70,2|2,0:0|0:0,0:0:0:0:
464,216,168000,1,4,0:0:0:0:
120,48,174400,6,0,B|64:104|64:104|40:168,1,140,4|0,0:0|0:0,0:0:0:0:
120,200,175000,1,0,0:0:0:0:
256,96,175400,2,0,L|336:104,1,70,0|0,0:0|0:0,0:0:0:0:
280,176,175800,2,0,L|200:184,1,70,0|0,0:0|0:0,0:0:0:0:
256,256,176200,2,0,L|336:264,1,70,0|0,0:0|0:0,0:0:0:0:
280,336,176600,2,0,L|200:344,1,70,0|0,0:0|0:0,0:0:0:0:
210,342,177000,1,0,0:0:0:0:
210,342,177200,1,0,0:0:0:0:
104,216,177600,6,2,P|136:96|144:96,1,140
168,168,178200,2,2,P|200:112|160:40,1,140
96,48,178800,1,0,0:0:0:0:
96,48,179000,1,2,0:0:0:0:
264,80,179400,2,0,L|336:40,1,70,2|0,0:0|0:0,0:0:0:0:
336,128,179800,2,0,L|408:160,1,70,2|0,0:0|0:0,0:0:0:0:
360,232,180202,1,0,0:0:0:0:
440,256,180402,1,4,0:0:0:0:
296,336,180802,6,0,P|208:296|192:256,1,140
272,232,181402,1,0,0:0:0:0:
320,168,181602,2,0,P|282:110|216:92,1,140
160,152,182202,1,0,0:0:0:0:
96,96,182402,2,0,P|96:208|128:224,1,140
176,264,183002,1,0,0:0:0:0:
176,264,183202,1,0,0:0:0:0:
176,264,183402,1,0,0:0:0:0:
232,328,183600,6,0,L|288:264,1,70
296,264,184000,2,2,L|368:240,1,70
392,232,184400,2,2,L|432:152,1,70
320,40,185000,1,0,0:0:0:0:
184,256,185600,2,2,L|112:232,1,70
88,224,186000,2,2,L|48:144,1,70
160,32,186600,1,0,0:0:0:0:
384,152,187202,6,0,P|336:216|256:208,1,140
296,136,187802,1,0,0:0:0:0:
216,168,188002,2,0,P|136:216|136:288,1,140
296,256,188802,1,0,0:0:0:0:
376,256,189002,1,0,0:0:0:0:
456,256,189202,1,0,0:0:0:0:
456,176,189402,2,0,L|456:104,1,70
376,104,189802,1,0,0:0:0:0:
304,144,190002,2,2,L|368:200,1,70
280,232,190400,5,2,0:0:0:0:
216,280,190600,1,0,0:0:0:0:
208,200,190800,1,2,0:0:0:0:
136,248,191000,1,0,0:0:0:0:
40,112,191400,2,2,B|56:96|56:96|72:112|72:112|88:96|88:96|104:112|104:112|120:96|120:96|136:112|136:112|152:96|152:96,1,140,2|0,0:0|0:0,0:0:0:0:
208,64,192000,6,0,L|288:48,1,70,2|0,0:0|0:0,0:0:0:0:
272,136,192400,2,0,L|200:112,1,70,2|0,0:0|0:0,0:0:0:0:
200,200,193000,2,2,B|184:184|184:184|168:200|168:200|152:184|152:184|136:200|136:200|120:184|120:184|104:200|104:200|88:184|88:184,1,140,2|0,0:0|0:0,0:0:0:0:
48,48,193600,6,0,L|144:48,1,70,2|0,0:0|0:0,0:0:0:0:
184,96,194000,1,2,0:0:0:0:
184,96,194200,1,0,0:0:0:0:
216,176,194400,2,0,L|120:176,1,70,2|0,0:0|0:0,0:0:0:0:
88,240,194800,1,2,0:0:0:0:
88,240,195000,1,0,0:0:0:0:
144,304,195198,6,0,B|200:304|200:304|232:296,1,70,2|0,0:0|0:0,0:0:0:0:
224,288,195500,1,0,0:0:0:0:
232,280,195600,1,2,0:0:0:0:
304,240,195800,1,2,0:0:0:0:
304,240,195900,1,0,0:0:0:0:
304,240,196000,2,0,P|272:184|240:176,1,70,2|0,0:0|0:0,0:0:0:0:
352,200,196400,1,2,0:0:0:0:
408,256,196600,1,4,0:0:0:0:
464,336,196800,6,0,L|368:336,1,70,2|0,0:0|0:0,0:0:0:0:
328,288,197200,1,2,0:0:0:0:
328,288,197400,1,0,0:0:0:0:
296,208,197600,2,0,L|392:208,1,70,2|0,0:0|0:0,0:0:0:0:
424,144,198000,1,2,0:0:0:0:
424,144,198200,1,0,0:0:0:0:
368,80,198398,6,0,B|312:80|312:80|280:88,1,70,2|0,0:0|0:0,0:0:0:0:
288,96,198700,1,0,0:0:0:0:
280,104,198800,1,2,0:0:0:0:
208,144,199000,1,2,0:0:0:0:
208,144,199100,1,0,0:0:0:0:
208,144,199200,2,0,P|240:200|272:208,1,70,2|0,0:0|0:0,0:0:0:0:
160,176,199600,1,2,0:0:0:0:
96,128,199800,1,4,0:0:0:0:
48,48,200000,6,0,L|144:48,1,70,2|0,0:0|0:0,0:0:0:0:
184,96,200400,1,2,0:0:0:0:
184,96,200600,1,0,0:0:0:0:
216,176,200800,2,0,L|120:176,1,70,2|0,0:0|0:0,0:0:0:0:
88,240,201200,1,2,0:0:0:0:
88,240,201400,1,0,0:0:0:0:
144,304,201598,6,0,B|200:304|200:304|232:296,1,70,2|0,0:0|0:0,0:0:0:0:
224,288,201900,1,0,0:0:0:0:
232,280,202000,1,2,0:0:0:0:
304,240,202200,1,2,0:0:0:0:
304,240,202300,1,0,0:0:0:0:
304,240,202400,2,0,P|272:184|240:176,1,70,2|0,0:0|0:0,0:0:0:0:
336,128,202800,1,2,0:0:0:0:
400,80,203000,1,4,0:0:0:0:
328,48,203200,6,0,L|248:48,1,70,2|0,0:0|0:0,0:0:0:0:
176,48,203600,1,2,0:0:0:0:
96,48,203800,1,2,0:0:0:0:
96,216,204200,1,0,0:0:0:0:
176,216,204400,1,0,0:0:0:0:
96,216,204600,1,0,0:0:0:0:
128,296,204800,6,0,L|208:296,1,70,2|0,0:0|0:0,0:0:0:0:
280,296,205200,1,2,0:0:0:0:
360,296,205400,1,2,0:0:0:0:
376,216,205600,1,2,0:0:0:0:
456,216,205800,1,2,0:0:0:0:
480,136,206000,1,4,0:0:0:0:
200,320,206400,6,0,L|104:288,1,70,2|0,0:0|0:0,0:0:0:0:
152,216,206800,2,0,L|232:192,1,70,2|0,0:0|0:0,0:0:0:0:
292,195,207200,2,0,L|360:216,1,70,2|0,0:0|0:0,0:0:0:0:
378,297,207600,2,0,L|312:320,1,70,2|0,0:0|0:0,0:0:0:0:
224,320,208000,2,2,B|224:312|224:312|208:312|208:312|208:320|192:320|192:312|192:312|176:312|176:312|176:320|160:320|160:312|160:312|144:312|144:312|144:320|128:320|128:312|128:312|112:312|112:312|112:320|96:320|96:312|96:312|80:312|80:312|80:320|64:320|64:312|64:312|48:312|48:312|48:320|48:320,1,210,2|2,0:0|0:0,0:0:0:0:
56,144,209000,1,2,0:0:0:0:
136,144,209200,1,2,0:0:0:0:
312,64,209600,6,0,L|378:86,1,70,2|0,0:0|0:0,0:0:0:0:
360,168,209999,2,0,L|292:188,1,70,2|0,0:0|0:0,0:0:0:0:
220,189,210399,2,0,L|153:168,1,70,2|0,0:0|0:0,0:0:0:0:
134,87,210799,2,0,L|200:64,1,70,2|0,0:0|0:0,0:0:0:0:
296,72,211199,2,2,B|288:72|288:72|304:72|304:72|304:64|320:64|320:72|320:72|336:72|336:72|336:64|352:64|352:72|352:72|368:72|368:72|368:64|384:64|384:72|384:72|400:72|400:72|400:64|416:64|416:72|416:72|432:72|432:72|432:64|448:64|448:72|448:72|464:72|464:72|464:64|458:72,1,210,2|0,0:0|0:0,0:0:0:0:
464,240,212200,1,2,0:0:0:0:
384,240,212400,1,2,0:0:0:0:
200,320,212800,6,0,L|134:297,1,70,2|0,0:0|0:0,0:0:0:0:
153,215,213201,2,0,L|220:195,1,70,2|0,0:0|0:0,0:0:0:0:
292,195,213600,2,0,L|360:216,1,70,2|0,0:0|0:0,0:0:0:0:
378,297,213999,2,0,L|312:320,1,70,2|0,0:0|0:0,0:0:0:0:
224,320,214400,2,2,B|160:296|160:296|112:256,1,105
72,160,215000,1,0,0:0:0:0:
72,160,215200,1,2,0:0:0:0:
232,208,215600,2,2,P|280:232|312:232,2,70
312,48,216400,5,2,0:0:0:0:
232,48,216600,1,0,0:0:0:0:
312,48,216800,1,2,0:0:0:0:
360,120,217000,2,0,L|408:40,1,70,0|2,0:0|0:0,0:0:0:0:
456,120,217400,2,0,L|416:200,1,70,0|2,0:0|0:0,0:0:0:0:
344,200,217800,1,0,0:0:0:0:
264,200,218000,1,2,0:0:0:0:
264,288,218200,6,2,L|192:256,1,70
168,240,218600,2,2,L|136:176,1,70
136,177,218900,1,0,0:0:0:0:
136,177,219000,1,0,0:0:0:0:
56,144,219200,6,2,B|112:56|112:56|160:40,1,140
192,112,219802,1,0,0:0:0:0:
240,40,220002,1,2,0:0:0:0:
480,96,220600,1,0,0:0:0:0:
456,176,220800,1,2,0:0:0:0:
400,112,221000,1,0,0:0:0:0:
456,176,221200,1,2,0:0:0:0:
376,200,221400,2,0,L|424:272,1,70,0|2,0:0|0:0,0:0:0:0:
448,336,221800,5,2,0:0:0:0:
448,336,221902,1,0,0:0:0:0:
448,336,222002,1,2,0:0:0:0:
408,264,222202,1,0,0:0:0:0:
368,336,222400,2,2,B|352:328|352:328|336:336|336:336|320:328|320:328|304:336|304:336|288:328|288:328|272:336|272:336|256:328|256:328|240:336|240:336,1,140
242,334,223000,1,0,0:0:0:0:
200,264,223200,2,2,B|216:256|216:256|232:264|232:264|248:256|248:256|264:264|264:264|280:256|280:256|296:264|296:264|312:256|312:256|328:264|328:264,1,140
325,262,223800,1,0,0:0:0:0:
408,240,224000,6,0,P|368:144|248:144,1,210
272,130,224800,1,2,0:0:0:0:
40,40,225400,1,2,0:0:0:0:
40,40,225500,1,0,0:0:0:0:
40,40,225600,1,2,0:0:0:0:
64,120,225800,2,2,L|136:72,1,70,0|2,0:0|0:0,0:0:0:0:
128,168,226200,2,0,L|200:136,1,70,0|2,0:0|0:0,0:0:0:0:
336,224,226802,5,2,0:0:0:0:
296,152,227002,1,0,0:0:0:0:
216,144,227200,1,2,0:0:0:0:
224,272,227502,1,2,0:0:0:0:
96,272,227802,1,0,0:0:0:0:
96,272,228000,2,2,B|64:176|72:144|72:144|104:120,1,140
248,112,228802,6,0,P|272:56|296:48,1,70,2|0,0:0|0:0,0:0:0:0:
320,128,229202,2,0,P|296:184|272:192,1,70,2|0,0:0|0:0,0:0:0:0:
208,176,229602,2,0,P|232:232|256:240,1,70,2|0,0:0|0:0,0:0:0:0:
320,240,230002,2,0,P|296:296|272:304,1,70,2|0,0:0|0:0,0:0:0:0:
208,288,230402,1,2,0:0:0:0:
144,240,230600,1,0,0:0:0:0:
144,160,230800,1,2,0:0:0:0:
80,104,231000,1,0,0:0:0:0:
144,48,231202,5,2,0:0:0:0:
152,48,231302,1,0,0:0:0:0:
160,48,231402,1,2,0:0:0:0:
176,48,231502,1,0,0:0:0:0:
200,48,231602,1,2,0:0:0:0:
368,48,232000,1,4,0:0:0:0:
