osu file format v8

[General]
AudioFilename: Tsubaki - .mp3
AudioLeadIn: 0
PreviewTime: 32315
Countdown: 0
SampleSet: Normal
StackLeniency: 0.7
Mode: 0
LetterboxInBreaks: 1

[Editor]
Bookmarks: 61808,74731,180017
DistanceSpacing: 1.2
BeatDivisor: 4
GridSize: 8

[Metadata]
Title:Hana wa Gensou no Hate ni
Artist:EastNewSound
Creator:tsuka
Version:Hard+
Source:Touhou
Tags:kiddly dr_dy tsubaki

[Difficulty]
HPDrainRate:6
CircleSize:4
OverallDifficulty:6
ApproachRate:8
SliderMultiplier:1.5
SliderTickRate:1

[Events]
//Background and Video events
0,0,"Konachan_com%20-%2082397%20alice_margatroid%20dress%20moon%20nanaroba_hana%20touhou.jpg"
//Break Periods
//Storyboard Layer 0 (Background)
//Storyboard Layer 1 (Fail)
//Storyboard Layer 2 (Pass)
//Storyboard Layer 3 (Foreground)
//Storyboard Sound Samples
//Background Colour Transformations
3,100,163,162,255

[TimingPoints]
2822,461.538461538462,4,2,1,30,1,0
10046,-100,4,1,1,40,0,0
10277,-100,4,2,1,30,0,0
16623,-100,4,2,1,31,0,0
16738,-100,4,2,1,39,0,0
16969,-100,4,2,1,51,0,0
17315,-100,4,2,1,60,0,0
17546,-100,4,1,1,49,0,0
24815,-100,4,2,1,50,0,0
30353,-100,4,1,1,41,0,0
30584,-100,4,2,1,51,0,0
30815,-100,4,1,1,51,0,0
31046,-100,4,2,1,51,0,0
31277,-100,4,1,1,51,0,0
31402,-100,4,1,1,51,0,0
31507,-100,4,2,1,51,0,0
31623,-100,4,1,1,51,0,0
32200,-100,4,2,1,51,0,0
32315,-100,4,1,1,51,0,0
32440,-100,4,2,1,51,0,0
32671,-100,4,1,1,49,0,0
33825,-100,4,2,1,51,0,0
34056,-100,4,1,1,51,0,0
34287,-100,4,2,1,51,0,0
34517,-100,4,1,1,49,0,0
34748,-100,4,2,1,51,0,0
34979,-100,4,1,1,49,0,0
36133,-100,4,2,1,51,0,0
36363,-100,4,1,1,47,0,0
37517,-100,4,2,1,51,0,0
37748,-100,4,1,1,49,0,0
37979,-100,4,2,1,51,0,0
38210,-100,4,1,1,51,0,0
38440,-100,4,2,1,51,0,0
38671,-100,4,1,1,50,0,0
38902,-100,4,2,1,51,0,0
39133,-100,4,1,1,51,0,0
39825,-100,4,2,1,51,0,0
40056,-100,4,1,1,51,0,0
40287,-100,4,2,1,51,0,0
40633,-100,4,1,1,49,0,0
41210,-100,4,2,1,51,0,0
41440,-100,4,1,1,48,0,0
41671,-100,4,2,1,51,0,0
41902,-100,4,1,1,48,0,0
42133,-100,4,2,1,51,0,0
42479,-100,4,1,1,52,0,0
42594,-100,4,2,1,51,0,0
42825,-100,4,1,1,49,0,0
43056,-100,4,2,1,51,0,0
43402,-100,4,1,1,49,0,0
43517,-100,4,2,1,51,0,0
43748,-100,4,1,1,49,0,0
44902,-100,4,2,1,51,0,0
45133,-100,4,1,1,49,0,0
47210,-100,4,2,1,51,0,0
47440,-100,4,1,1,51,0,0
48594,-100,4,2,1,51,0,0
48825,-100,4,1,1,51,0,0
49056,-100,4,2,1,51,0,0
49402,-100,4,1,1,52,0,0
49517,-100,4,2,1,51,0,0
49748,-100,4,1,1,48,0,0
50210,-100,4,2,1,51,0,0
50325,-100,4,1,1,50,0,0
50440,-100,4,2,1,51,0,0
50671,-100,4,1,1,47,0,0
50902,-100,4,2,1,51,0,0
51248,-100,4,1,1,49,0,0
51363,-100,4,2,1,51,0,0
51594,-100,4,1,1,47,0,0
52056,-100,4,2,1,51,0,0
52171,-100,4,1,1,51,0,0
52287,-100,4,2,1,51,0,0
52517,-100,4,1,1,48,0,0
52748,-100,4,2,1,51,0,0
53094,-100,4,1,1,49,0,0
53210,-100,4,2,1,51,0,0
53440,-100,4,1,1,47,0,0
53671,-100,4,2,1,51,0,0
54017,-100,4,1,1,51,0,0
54594,-100,4,2,1,51,0,0
54825,-100,4,1,1,52,0,0
55287,-100,4,2,1,51,0,0
55402,-100,4,1,1,52,0,0
55517,-100,4,2,1,51,0,0
55748,-100,4,1,1,49,0,0
55979,-100,4,2,1,51,0,0
56210,-100,4,1,1,51,0,0
56440,-100,4,2,1,51,0,0
56671,-100,4,1,1,49,0,0
56902,-100,4,2,1,51,0,0
57133,-100,4,1,1,51,0,0
57594,-100,4,2,1,51,0,0
57710,-100,4,1,1,51,0,0
57825,-100,4,2,1,51,0,0
57940,-100,4,1,1,52,0,0
58056,-100,4,2,1,51,0,0
58171,-100,4,1,1,49,0,0
58287,-100,4,2,1,51,0,0
58517,-100,4,1,1,51,0,0
58979,-100,4,2,1,51,0,0
59094,-100,4,1,1,49,0,0
59671,-100,4,2,1,51,0,0
59902,-100,4,1,1,49,0,0
61863,-100,4,2,1,72,0,0
62084,-100,4,2,1,21,0,0
67277,-100,4,2,1,31,0,0
67507,-100,4,2,1,41,0,0
67738,-100,4,2,1,50,0,0
67969,-100,4,2,1,59,0,0
68200,-100,4,2,1,50,0,0
74661,-100,4,2,1,49,0,0
76633,-100,4,1,1,49,0,0
78133,-100,4,2,1,49,0,0
78363,-100,4,1,1,49,0,0
78710,-100,4,2,1,49,0,0
78825,-100,4,1,1,49,0,0
79171,-100,4,2,1,49,0,0
79287,-100,4,1,1,49,0,0
79979,-100,4,2,1,49,0,0
80210,-100,4,1,1,49,0,0
81017,-100,4,2,1,49,0,0
81133,-100,4,1,1,49,0,0
81479,-100,4,2,1,49,0,0
81594,-100,4,1,1,49,0,0
81940,-100,4,2,1,49,0,0
82633,-100,4,1,1,49,0,0
82748,-100,4,2,1,49,0,0
82979,-100,4,1,1,49,0,0
84248,-100,4,2,1,49,0,0
84479,-100,4,1,1,49,0,0
85171,-100,4,2,1,49,0,0
85287,-100,4,1,1,49,0,0
85633,-100,4,2,1,49,0,0
85748,-100,4,1,1,49,0,0
87363,-100,4,2,1,49,0,0
87594,-100,4,1,1,49,0,0
87940,-100,4,2,1,49,0,0
89440,-100,4,1,1,49,0,0
91517,-100,4,2,1,49,0,0
91748,-100,4,1,1,49,0,0
91979,-100,4,2,1,49,0,0
92671,-100,4,1,1,49,0,0
92902,-100,4,2,1,49,0,0
93594,-100,4,1,1,49,0,0
93825,-100,4,2,1,49,0,0
94056,-100,4,1,1,49,0,0
97171,-100,4,2,1,49,0,0
97287,-100,4,1,1,49,0,0
97517,-100,4,2,1,49,0,0
97863,-100,4,1,1,49,0,0
98210,-100,4,1,1,60,0,0
98440,-100,4,1,1,70,0,0
98671,-100,4,1,1,80,0,0
99017,-100,4,2,1,49,0,0
99133,-100,4,1,1,49,0,0
99825,-100,4,2,1,49,0,0
100171,-100,4,1,1,49,0,0
100287,-100,4,2,1,49,0,0
100517,-100,4,1,1,49,0,0
102133,-100,4,2,1,49,0,0
102363,-100,4,1,1,49,0,0
103517,-100,4,2,1,49,0,0
103863,-100,4,1,1,49,0,0
103979,-100,4,2,1,49,0,0
104210,-100,4,1,1,69,0,0
109056,-100,4,1,1,50,0,0
109517,-100,4,1,1,70,0,0
116440,-100,4,1,1,50,0,0
116902,-100,4,1,1,70,0,0
123940,-100,4,1,1,50,0,0
124287,-100,4,1,1,70,0,0
131210,-100,4,1,1,35,0,0
131975,-100,4,2,1,70,0,0
133591,-100,4,1,1,58,0,0
135745,-100,4,1,1,70,0,1
145898,-200,4,1,1,70,0,1
146360,-200,4,2,1,70,0,1
146583,-100,4,1,1,70,0,1
148517,-100,4,2,1,80,0,1
149014,-100,4,1,1,70,0,1
149360,-100,4,2,1,80,0,1
150283,-100,4,2,1,80,0,0
150514,-100,4,1,1,70,0,1
163171,-100,4,2,1,70,0,1
163863,-100,4,1,1,70,0,1
164094,-100,4,2,1,70,0,1
165283,-100,4,2,1,85,0,0
166206,-133.333333333333,4,2,1,70,0,0
167591,-133.333333333333,4,2,1,70,0,0
169437,-200,4,2,1,70,0,0
169898,-133.333333333333,4,2,1,70,0,0
172206,-200,4,2,1,70,0,0
172668,-100,4,1,1,70,0,0
175517,-100,4,2,1,70,0,0
175748,-100,4,1,1,70,0,0
177825,-100,4,2,1,70,0,0
178056,-100,4,1,1,70,0,0
179121,-200,4,1,1,70,0,0
180052,-200,4,1,1,70,0,1

[Colours]
Combo1 : 255,255,255
Combo2 : 255,128,64
Combo3 : 255,128,128
Combo4 : 128,255,255

[HitObjects]
48,72,2822,2,0,B|48:176,1,75
192,104,3514,2,0,B|192:208,1,75,0|2
336,80,4206,1,0
336,80,4437,1,0
336,80,4668,2,0,B|336:176,1,75,0|2
440,288,5360,2,2,B|440:208,1,75,0|2
304,264,6052,1,0
176,304,6514,6,0,B|176:224,1,75,0|2
80,80,7206,2,0,B|80:168,1,75,0|2
256,112,7898,1,0
256,112,8129,1,0
256,112,8360,2,0,B|256:208,1,75,0|2
432,80,9052,2,0,B|432:168,1,75,0|2
152,192,9745,5,0
352,192,9975,5,0
256,240,10206,6,0,B|256:320,1,75,4|2
168,160,10898,2,0,B|216:88,1,75,0|2
344,224,11591,2,0,B|296:296,1,75,0|2
209,286,12052,2,0,B|168:224,1,75,0|2
302,97,12745,2,0,B|344:160,1,75
256,192,13437,1,0
80,192,13898,6,0,B|168:192,1,75,0|2
256,56,14591,2,0,B|168:112,1,75,0|2
192,288,15283,1,0
192,288,15514,1,0
192,287,15745,2,0,B|256:328,1,75,0|2
160,192,16437,2,0,B|240:192,1,75,0|2
312,192,16898,1,0
392,192,17129,1,0
392,192,17245,1,0
472,192,17475,1,0
472,192,17591,5,0
392,80,18052,1,0
312,192,18514,1,0
392,304,18975,1,0
312,192,19437,5,0
256,264,19898,1,0
192,192,20360,1,0
256,112,20822,1,0
192,192,21283,5,0
112,80,21745,1,0
32,192,22206,1,0
112,304,22668,1,0
32,192,23129,5,0
256,192,23591,1,0
480,192,24052,1,0
256,192,24514,1,0
256,192,24745,1,0
256,192,24975,6,2,B|256:88,1,75
392,240,25668,2,2,B|296:240,1,75
120,240,26360,1,0
120,240,26591,1,0
120,240,26822,2,2,B|216:240,1,75
256,368,27514,2,2,B|256:280,1,75
256,120,28206,1,0
464,192,28668,5,2
464,192,28898,1,2
280,192,29360,2,0,B|312:168|360:216|392:192,2,112.5
216,128,30283,1,2
144,176,30514,1,0
160,264,30745,1,2
248,272,30975,1,0
280,192,31206,1,2
298,190,31322,1,0
313,187,31437,1,0
329,184,31552,1,0
345,182,31668,1,0
361,179,31783,1,0
377,177,31898,1,0
392,174,32014,1,0
408,172,32129,1,0
424,169,32245,1,0
436,167,32360,6,0,B|460:63,1,75,0|2
400,32,32822,2,0,B|328:64|232:64,1,150,0|0
384,152,33745,6,0,B|296:168,1,75,0|2
232,256,34206,2,0,B|320:240,1,75,0|2
440,280,34668,2,0,B|352:296,1,75,0|2
336,368,35129,2,0,B|248:360|240:272,1,150,0|0
192,144,36052,5,0
192,144,36283,1,2
192,144,36514,2,0,B|104:112|64:192,1,150
232,208,37437,6,0,B|320:208,1,75
336,136,37898,1,0
384,272,38129,2,0,B|384:176,1,75
307,208,38591,1,0
460,196,38822,2,0,B|364:196,1,75
336,60,39283,2,0,B|336:148,1,75
168,56,39745,5,0
88,80,39975,1,0
128,152,40206,1,0
176,224,40437,1,0
176,224,40552,1,0
176,224,40668,1,0
320,152,41129,6,0,B|240:192,1,75
176,224,41591,1,0
32,296,41822,2,0,B|112:256,1,75
176,224,42283,1,0
176,224,42398,1,0
176,224,42514,1,0
248,368,42745,2,0,B|208:288,1,75
176,224,43206,1,0
176,224,43322,1,0
176,224,43437,6,0,B|128:144,1,75
138,161,43898,2,0,B|144:72|224:40,1,150
366,43,44822,5,0
366,43,45052,1,0
366,43,45283,2,0,B|214:43,1,150
312,112,46206,1,0
256,184,46437,1,0
200,256,46668,1,0
200,256,46783,1,0
144,328,47014,1,0
144,328,47129,6,0,B|104:256,1,75
32,232,47591,2,0,B|32:144|136:120,1,150
240,40,48514,5,0
184,96,48745,1,0
224,168,48975,1,0
304,152,49206,1,0
304,152,49322,1,0
304,152,49437,1,0
360,216,49668,1,0
304,288,49898,2,0,B|272:352|216:360,1,112.5
208,336,50360,2,0,B|120:336,1,75
440,112,50822,5,0
368,72,51052,1,0
368,72,51168,1,0
368,72,51283,1,0
328,144,51514,1,0
400,184,51745,2,0,B|384:256|320:272,1,112.5
312,248,52206,2,0,B|232:248,1,75
32,216,52668,5,0
112,248,52898,1,0
112,248,53014,1,0
112,248,53129,1,0
232,224,53360,2,0,B|152:224,1,75
112,248,53822,1,0
112,248,53937,1,0
112,248,54052,1,0
80,360,54283,2,0,B|80:256,1,75
48,184,54745,5,0
48,96,54975,2,0,B|120:96|144:184,1,112.5
160,176,55437,2,0,B|240:176,1,75
200,80,55898,2,0,B|264:128,1,75
312,32,56360,2,0,B|312:120,1,75
424,80,56822,2,0,B|360:128,1,75
512,176,57283,2,0,B|376:176,1,112.5
384,184,57745,1,0
368,168,57860,1,0
352,184,57975,1,0
336,168,58091,1,0
320,184,58206,6,0,B|232:184,1,75
232,104,58668,2,0,B|160:120|152:200,1,112.5
156,178,59129,1,0
256,344,59591,6,0,B|256:240,2,75
256,40,60514,1,0
256,344,60975,1,0
288,272,61206,2,0,B|232:200,1,75
216,208,61552,2,0,B|272:136,1,75
256,128,61898,1,4
424,128,62360,6,0,B|424:48,2,75,2|0|2
344,248,63283,2,0,B|344:344,2,75,2|0|2
256,136,64206,2,0,B|256:56,2,75,2|0|2
168,248,65129,2,0,B|168:344,2,75,2|0|2
88,128,66052,2,0,B|88:48,2,75,2|0|2
248,208,66975,6,0,B|248:296,1,75,2|0
184,320,67437,1,0
124,259,67668,1,0
136,176,67898,1,0
192,112,68129,1,0
277,95,68360,1,2
352,137,68591,1,2
327,215,68822,6,0,B|351:311|455:303,1,150,2|0
432,256,69514,1,0
392,56,69975,1,2
392,104,70206,1,2
296,320,70668,5,0
296,272,70898,1,0
296,224,71129,1,2
296,176,71360,1,2
184,104,71822,1,2
184,152,72052,1,2
72,200,72514,5,0
72,152,72745,1,0
72,104,72975,1,2
72,56,73206,1,2
184,216,73668,1,2
184,264,73898,1,2
240,144,74360,1,0
288,144,74591,1,0
400,64,74822,5,4
456,128,75052,1,4
456,208,75283,1,4
400,264,75514,1,4
256,192,75629,12,0,76437
256,88,76668,5,0
64,192,77129,1,0
256,344,77591,1,0
448,192,78052,1,0
360,192,78283,1,0
272,192,78514,2,0,L|232:288,1,75,0|2
224,352,78975,2,0,L|252:282,1,75,0|2
168,264,79437,1,0
160,256,79552,1,0
80,264,79783,1,0
72,272,79898,1,0
0,256,80129,1,2
48,56,80360,6,0,B|96:104|48:160,1,112.5
51,156,80821,2,0,B|160:168,1,75,0|2
256,104,81283,2,0,B|181:97,1,75,0|2
336,56,81745,2,0,B|444:67,1,75,0|2
240,256,82437,1,2
224,216,82552,1,0
208,176,82668,1,0
128,136,82898,5,0
192,240,83129,1,0
320,240,83360,1,0
368,128,83591,1,0
256,64,83821,1,0
256,160,84052,2,0,B|256:240,2,75
256,280,84975,6,0,B|330:286,1,75,0|2
176,328,85437,2,0,B|67:316,1,75,0|2
56,216,85898,2,0,B|56:144|144:144|144:224,1,150
216,48,86821,2,0,B|216:120|304:120|304:40,1,150
392,56,87514,1,2
376,144,87745,2,0,B|360:240,1,75,0|2
352,304,88206,1,0
272,256,88437,1,2
272,248,88552,1,0
272,240,88668,1,0
200,304,88898,1,2
200,312,89014,1,0
200,320,89129,1,0
128,264,89360,1,2
128,56,89591,6,0,L|88:112|88:112|88:128|88:128|128:184,1,150
496,112,90514,1,4
408,112,90745,1,4
320,112,90975,1,4
320,112,91091,2,4,B|216:112,1,75
200,112,91437,5,4
96,136,91668,1,2
112,240,91898,1,0
216,216,92129,1,2
392,336,92591,1,2
416,264,92821,1,0
440,192,93052,1,2
64,80,93514,1,2
136,112,93745,1,0
200,80,93975,1,2
272,112,94206,1,0
280,120,94321,1,0
344,80,94552,1,0
352,72,94668,1,0
432,80,94898,1,0
400,176,95129,6,0,B|408:344,3,150
312,272,96745,2,0,B|176:272,1,112.5
199,272,97206,1,0
120,232,97437,1,0
64,344,97668,2,0,L|24:248,1,75
56,208,98129,1,0
48,144,98360,1,0
40,80,98591,1,0
176,64,98821,6,0,B|272:64,1,75,0|0
384,24,99283,2,0,B|472:64|416:152,1,150,0|0
304,216,99975,2,0,B|344:296,1,75
384,360,100437,1,0
432,320,100668,5,0
360,88,101129,1,0
152,88,101591,1,0
80,320,102052,1,0
168,288,102283,1,0
248,256,102514,6,0,B|248:152,1,75
161,72,102975,2,0,B|70:38|47:139,1,150
272,112,103668,2,0,B|376:112,1,75
416,120,104129,1,0
488,112,104360,5,0
24,112,104821,1,0
256,48,105283,1,0
176,96,105514,1,0
152,184,105745,1,0
152,184,105860,1,0
192,264,106091,1,0
192,264,106206,6,0,B|232:352,2,75,0|2|0
384,336,107129,2,0,B|344:248,2,75,0|2|0
320,192,107821,1,0
280,112,108052,2,2,B|376:136|408:56,2,150
208,64,109206,1,8
208,64,109437,1,8
96,128,109668,5,0
88,136,109783,1,0
80,144,109898,2,0,B|80:240,1,75,2|0
192,320,110360,2,0,B|192:245,1,75,2|0
392,192,110821,1,2
256,192,111052,1,2
32,304,111514,5,0
40,296,111629,1,0
48,288,111745,2,0,B|144:288,1,75
176,248,112206,2,0,B|256:248,1,75
456,272,112668,2,2,L|402:272|370:288|306:288,1,150
280,200,113360,1,0
256,112,113591,6,0,L|232:32,1,75,2|0
234,40,114052,1,0
96,144,114514,2,0,L|120:224,1,75,2|0
117,215,114975,1,0
117,215,115206,1,0
280,272,115437,2,2,B|376:248|408:328,2,150
208,320,116591,1,8
208,320,116821,1,8
160,304,117052,5,0
208,240,117283,2,2,L|248:184|248:184|248:168|248:168|208:112,1,150,2|2
147,184,117975,1,0
72,184,118206,2,0,L|152:184,1,75
224,136,118668,1,0
312,136,118898,1,2
320,128,119014,1,0
328,120,119129,1,0
488,160,119360,1,2
480,152,119475,1,0
472,144,119591,2,0,L|392:144,1,75
296,272,120052,6,0,L|240:248,1,37.5
320,240,120283,2,0,L|336:192,1,37.5
360,264,120514,2,0,L|416:288,1,37.5
336,296,120745,2,0,L|320:344,1,37.5
324,331,120975,6,0,L|160:352,1,150,0|0
395,123,121898,2,0,L|416:288,1,150,0|0
187,52,122821,2,2,L|352:32,1,150,2|0
336,33,123514,1,0
296,112,123745,2,0,L|296:200,1,75,0|8
296,264,124206,1,8
224,240,124437,5,2
176,296,124668,1,0
125,208,125129,5,0
208,160,125591,5,2
152,112,125821,1,2
472,72,126283,5,0
472,72,126398,1,0
472,72,126514,2,0,B|431:159,1,75
277,281,126975,2,0,B|308:213,1,75
71,114,127437,2,2,L|125:139|147:167|196:190,1,150
196,190,128129,1,0
248,112,128360,6,0,B|344:112,2,75,0|0|2
323,112,129052,1,2
360,192,129283,2,0,B|264:192,2,75,0|0|2
285,192,129975,1,2
256,280,130206,1,0
256,280,130321,1,0
176,328,130552,1,0
176,328,130668,1,2
72,312,130898,1,2
16,216,131129,1,0
48,112,131360,1,8
152,64,131591,1,8
464,40,132052,5,4
464,344,132514,1,4
48,40,132975,1,4
48,344,133437,1,4
352,312,133898,5,4
352,176,134129,1,4
160,240,134360,1,4
160,104,134591,1,4
256,144,134821,1,0
256,152,134937,1,0
256,160,135052,1,0
256,168,135168,1,0
256,176,135283,1,0
256,184,135398,1,0
256,192,135514,1,0
256,200,135629,1,0
256,208,135745,6,0,B|336:272,1,75,0|0
472,192,136206,2,0,B|413:145,1,75,8|0
256,192,136668,2,0,B|160:192,1,75,0|0
181,192,137129,1,8
88,288,137360,1,0
88,288,137475,1,0
88,288,137591,2,0,B|48:376,1,75,0|0
128,304,138052,2,0,B|184:360,1,75,8|0
160,272,138514,2,0,B|240:248,1,75,0|0
320,224,138975,1,8
264,56,139437,6,0,B|152:32|128:144,1,150,0|8
264,56,140129,1,0
176,192,140360,2,0,B|168:288,1,75,0|0
264,264,140821,2,0,B|352:264,1,75,8|0
352,168,141283,1,0
352,168,141398,1,0
384,80,141629,1,0
384,80,141745,5,8
264,128,141975,1,0
368,232,142206,1,2
240,280,142437,1,2
240,280,142552,1,0
240,280,142668,1,2
168,224,142898,1,2
80,224,143129,5,0
104,160,143360,1,0
168,144,143591,1,8
200,88,143821,1,0
200,88,143937,1,0
200,88,144052,2,0,B|232:16,1,75,0|0
368,112,144514,6,0,B|336:184,1,75,8|0
48,232,144975,2,0,B|88:192|136:224,1,75
240,320,145437,2,0,B|185:305|189:247,1,75,8|0
232,112,145898,2,0,B|246:166|194:192,1,75,0|4
344,312,146821,5,0
408,232,147052,1,0
408,232,147168,1,0
408,232,147283,1,8
352,144,147514,1,0
248,168,147745,1,2
248,272,147975,1,2
152,304,148206,1,2
80,232,148437,1,0
136,144,148668,6,0,B|200:80|112:24,1,112.5,4|0
140,46,149129,2,0,B|232:80,1,75
304,56,149591,2,0,B|304:128,1,37.5,4|0
240,152,149937,1,0
256,176,150052,2,4,B|347:209,1,75
400,336,150514,6,0,B|336:256,1,75,0|2
400,120,150975,2,0,B|447:179,1,75,0|2
400,336,151437,2,0,B|304:336,1,75,2|0
216,336,151898,1,0
64,184,152129,1,0
64,184,152245,1,0
64,184,152360,2,0,B|24:96,1,75,0|2
104,168,152821,2,0,B|160:112,1,75,2|2
136,200,153283,2,0,B|216:224,1,75,2|0
296,248,153745,1,2
464,120,154206,6,0,B|352:144|328:32,1,150,0|2
280,152,154898,1,2
296,320,155129,2,0,B|288:224,1,75,2|0
120,216,155591,2,0,B|208:216,1,75,0|0
288,200,156052,1,0
288,200,156168,1,0
368,216,156398,1,0
368,216,156514,5,0
376,288,156745,1,0
448,272,156975,1,2
440,192,157206,1,2
440,176,157321,1,0
440,160,157437,1,2
368,216,157668,1,2
320,136,157898,5,0
240,96,158129,1,2
152,112,158360,1,2
184,192,158591,1,2
184,192,158706,1,0
184,192,158821,2,0,B|216:264,1,75,2|0
424,304,159283,6,0,B|336:328,1,75,0|2
328,176,159745,2,0,B|400:156,1,75,0|2
432,272,160206,2,0,B|344:296,1,75,2|2
336,144,160668,2,0,B|408:124,1,75,2|0
376,56,161129,1,2
328,56,161245,1,0
280,56,161360,1,0
232,56,161475,1,0
184,56,161591,6,2,B|48:56,1,112.5,2|2
71,56,162052,2,0,B|24:128,1,75
129,185,162514,2,2,B|88:248,2,75
408,224,163437,6,0,B|344:288|432:344,1,112.5,4|0
360,320,163898,2,0,B|276:278,1,75
96,104,164360,1,4
96,104,164475,2,0,B|184:144,1,75
205,159,164822,1,4
304,136,165052,1,4
408,112,165283,1,12
408,160,165745,6,0,B|408:256,1,75,0|2
328,320,166206,2,0,B|328:200,1,112.499996647239
328,207,166898,1,2
328,207,167129,2,0,B|208:232,1,112.499996647239
112,160,167822,1,2
112,160,168052,2,0,B|232:135,1,112.499996647239
256,80,168745,1,2
256,80,168975,1,0
192,320,169437,6,0,B|144:336,1,37.5,0|2
96,280,169898,2,0,B|184:208,1,112.499996647239
256,192,170591,1,2
416,104,170822,2,0,B|328:176,1,112.499996647239
328,175,171514,1,2
328,175,171745,1,0
104,208,172206,6,0,B|142:187|126:139,1,75,6|0
127,143,172898,1,0
328,88,173360,2,0,B|392:16,1,75
344,256,174052,2,0,B|312:336,1,75
224,272,174514,2,0,B|144:296,1,75
24,64,175206,2,0,B|104:40,1,75
200,48,175668,5,0
192,152,175898,2,0,B|256:224|328:144,1,150
312,48,176591,1,0
472,120,177052,2,0,B|464:216,1,75
360,216,177514,2,0,B|352:304,1,75
288,304,177975,1,2
232,336,178206,6,4,B|176:296|208:248,1,75
143,99,178668,2,4,B|205:70|231:122,1,75
392,140,179129,2,4,B|386:209|328:205,1,75
256,192,180052,1,4
