osu file format v12

[General]
AudioFilename: hana wa gensou.mp3
AudioLeadIn: 0
PreviewTime: 32315
Countdown: 0
SampleSet: None
StackLeniency: 0.7
Mode: 0
LetterboxInBreaks: 1
WidescreenStoryboard: 1

[Editor]
Bookmarks: 2822,10206,17591,24398,24514,24975,31437,32360,33745,36052,37437,39745,41129,43437,44822,47129,48514,50822,52206,54514,55898,58206,59591,61898,62360,63283,64206,65129,66052,66975,67437,69745,70668,71591,72514,73437,74822,76668,78514,80360,82898,84052,87745,91437,93283,94437,98822,102514,106206,113591,120975,128360,132052,135745,139437,143129,146822,150514,154206,157898,161591,165283,172206,172668,178206,180017,180052
DistanceSpacing: 1.8
BeatDivisor: 2
GridSize: 8

[Metadata]
Title:Hana wa Gensou no Hate ni
TitleUnicode:Hana wa Gensou no Hate ni
Artist:EastNewSound
ArtistUnicode:EastNewSound
Creator:Project Railgun
Version:Collab [AR10]
Source:Touhou
Tags:japanese
BeatmapID:339026
BeatmapSetID:128958

[Difficulty]
HPDrainRate:7
CircleSize:4
OverallDifficulty:6
ApproachRate:10
SliderMultiplier:2
SliderTickRate:1

[Events]
//Background and Video events
0,0,"Anime__040913_23.jpg",0,0
//Break Periods
//Storyboard Layer 0 (Background)
//Storyboard Layer 1 (Fail)
//Storyboard Layer 2 (Pass)
//Storyboard Layer 3 (Foreground)
//Storyboard Sound Samples
//Background Colour Transformations
3,100,163,162,255

[TimingPoints]
2822,461.538461538462,4,2,1,30,1,0
9486,-200,4,1,1,40,0,0
10046,-100,4,1,1,40,0,0
10277,-100,4,2,1,30,0,0
16623,-100,4,2,1,31,0,0
16738,-100,4,2,1,39,0,0
16969,-100,4,2,1,51,0,0
17315,-100,4,2,1,60,0,0
17546,-100,4,1,1,49,0,0
17973,-200,4,1,1,40,0,0
24815,-153.846153846154,4,2,1,50,0,0
30353,-100,4,1,1,41,0,0
30584,-100,4,2,1,51,0,0
30815,-100,4,1,1,51,0,0
31046,-100,4,2,1,51,0,0
31277,-100,4,1,1,51,0,0
31402,-100,4,1,1,51,0,0
31507,-100,4,2,1,51,0,0
31623,-100,4,1,1,51,0,0
32200,-100,4,2,1,51,0,0
32315,-100,4,1,1,51,0,0
32440,-100,4,2,1,51,0,0
32672,-66.6666666666667,4,1,1,49,0,0
33825,-66.6666666666667,4,2,1,51,0,0
34056,-66.6666666666667,4,1,1,51,0,0
34287,-66.6666666666667,4,2,1,51,0,0
34517,-66.6666666666667,4,1,1,49,0,0
34748,-66.6666666666667,4,2,1,51,0,0
34979,-66.6666666666667,4,1,1,49,0,0
36133,-66.6666666666667,4,2,1,51,0,0
36363,-66.6666666666667,4,1,1,47,0,0
37437,-66.6666666666667,4,2,1,51,0,0
37748,-66.6666666666667,4,1,1,49,0,0
37979,-66.6666666666667,4,2,1,51,0,0
38210,-66.6666666666667,4,1,1,51,0,0
38440,-66.6666666666667,4,2,1,51,0,0
38671,-66.6666666666667,4,1,1,50,0,0
38902,-66.6666666666667,4,2,1,51,0,0
39133,-66.6666666666667,4,1,1,51,0,0
39825,-66.6666666666667,4,2,1,51,0,0
40056,-66.6666666666667,4,1,1,51,0,0
40287,-66.6666666666667,4,2,1,51,0,0
40633,-50,4,1,1,49,0,0
41210,-50,4,2,1,51,0,0
41440,-50,4,1,1,48,0,0
41671,-50,4,2,1,51,0,0
41902,-50,4,1,1,48,0,0
42133,-50,4,2,1,51,0,0
42479,-50,4,1,1,52,0,0
42594,-50,4,2,1,51,0,0
42825,-50,4,1,1,49,0,0
43056,-100,4,2,1,51,0,0
43402,-100,4,1,1,49,0,0
43517,-100,4,2,1,51,0,0
43748,-100,4,1,1,49,0,0
44902,-100,4,2,1,51,0,0
45975,-57.1428571428571,4,1,1,49,0,0
47210,-100,4,2,1,51,0,0
47440,-100,4,1,1,51,0,0
48594,-100,4,2,1,51,0,0
48860,-50,4,1,1,51,0,0
49056,-100,4,2,1,51,0,0
49402,-50,4,1,1,52,0,0
49517,-100,4,2,1,51,0,0
49748,-100,4,1,1,48,0,0
50210,-100,4,2,1,51,0,0
50325,-100,4,1,1,50,0,0
50440,-100,4,2,1,51,0,0
50671,-100,4,1,1,47,0,0
50902,-100,4,2,1,51,0,0
51248,-100,4,1,1,49,0,0
51363,-50,4,1,1,51,0,0
51594,-50,4,1,1,47,0,0
52056,-50,4,2,1,51,0,0
52171,-50,4,1,1,51,0,0
52287,-50,4,2,1,51,0,0
52517,-100,4,1,1,48,0,0
52748,-100,4,2,1,51,0,0
53094,-100,4,1,1,49,0,0
53210,-50,4,2,1,51,0,0
53440,-50,4,1,1,47,0,0
53674,-50,4,1,1,51,0,0
54017,-50,4,1,1,51,0,0
54594,-50,4,2,1,51,0,0
54825,-100,4,1,1,52,0,0
55287,-100,4,2,1,51,0,0
55402,-100,4,1,1,52,0,0
55517,-100,4,2,1,51,0,0
55748,-50,4,1,1,49,0,0
55979,-50,4,2,1,51,0,0
56210,-50,4,1,1,51,0,0
56440,-50,4,2,1,51,0,0
56671,-50,4,1,1,49,0,0
56902,-50,4,2,1,51,0,0
57133,-50,4,1,1,51,0,0
57594,-100,4,2,1,51,0,0
57710,-100,4,1,1,51,0,0
57825,-100,4,2,1,51,0,0
57940,-100,4,1,1,52,0,0
58056,-100,4,2,1,51,0,0
58171,-100,4,1,1,49,0,0
58287,-100,4,2,1,51,0,0
58517,-100,4,1,1,51,0,0
58979,-100,4,2,1,51,0,0
59094,-100,4,1,1,49,0,0
59671,-100,4,2,1,51,0,0
59902,-66.6666666666667,4,1,1,49,0,0
61863,-100,4,2,1,72,0,0
62084,-100,4,2,1,21,0,0
67277,-100,4,2,1,31,0,0
67507,-100,4,2,1,41,0,0
67738,-100,4,2,1,50,0,0
67969,-100,4,2,1,59,0,0
68200,-100,4,2,1,50,0,0
74661,-100,4,2,1,49,0,0
76633,-100,4,1,1,49,0,0
78133,-100,4,2,1,49,0,0
78363,-100,4,1,1,49,0,0
78710,-100,4,2,1,49,0,0
78825,-100,4,1,1,49,0,0
79171,-100,4,2,1,49,0,0
79287,-100,4,1,1,49,0,0
79979,-100,4,2,1,49,0,0
80210,-100,4,1,1,49,0,0
81017,-100,4,2,1,49,0,0
81133,-100,4,1,1,49,0,0
81479,-100,4,2,1,49,0,0
81594,-100,4,1,1,49,0,0
81940,-100,4,2,1,49,0,0
82633,-100,4,1,1,49,0,0
82748,-100,4,2,1,49,0,0
82979,-100,4,1,1,49,0,0
84248,-100,4,2,1,49,0,0
84479,-100,4,1,1,49,0,0
85171,-100,4,2,1,49,0,0
85287,-100,4,1,1,49,0,0
85633,-100,4,2,1,49,0,0
85748,-100,4,1,1,49,0,0
87363,-100,4,2,1,49,0,0
87594,-100,4,1,1,49,0,0
87940,-100,4,2,1,49,0,0
89440,-100,4,1,1,49,0,0
91517,-100,4,2,1,49,0,0
91748,-100,4,1,1,49,0,0
91979,-100,4,2,1,49,0,0
92671,-100,4,1,1,49,0,0
92902,-100,4,2,1,49,0,0
93594,-100,4,1,1,49,0,0
93825,-100,4,2,1,49,0,0
94056,-100,4,1,1,49,0,0
97171,-100,4,2,1,49,0,0
97287,-100,4,1,1,49,0,0
97517,-100,4,2,1,49,0,0
97863,-100,4,1,1,49,0,0
98210,-100,4,1,1,60,0,0
98440,-100,4,1,1,70,0,0
98671,-100,4,1,1,80,0,0
99017,-100,4,2,1,49,0,0
99133,-100,4,1,1,49,0,0
99825,-100,4,2,1,49,0,0
100171,-100,4,1,1,49,0,0
100287,-100,4,2,1,49,0,0
100517,-100,4,1,1,49,0,0
102133,-100,4,2,1,49,0,0
102363,-100,4,1,1,49,0,0
103517,-100,4,2,1,49,0,0
103863,-100,4,1,1,49,0,0
103979,-100,4,2,1,49,0,0
104210,-100,4,1,1,69,0,0
109056,-100,4,1,1,50,0,0
109517,-100,4,1,1,70,0,0
116440,-100,4,1,1,50,0,0
116902,-100,4,1,1,70,0,0
123940,-100,4,1,1,50,0,0
124287,-100,4,1,1,70,0,0
131210,-100,4,1,1,35,0,0
131975,-100,4,2,1,70,0,0
133591,-100,4,1,1,58,0,0
135745,-100,4,1,1,70,0,1
145898,-200,4,1,1,70,0,1
146360,-200,4,2,1,70,0,1
146583,-100,4,1,1,70,0,1
148517,-100,4,2,1,80,0,1
149014,-100,4,1,1,70,0,1
149360,-100,4,2,1,80,0,1
150283,-100,4,2,1,80,0,0
150514,-100,4,1,1,70,0,1
163171,-100,4,2,1,70,0,1
163863,-100,4,1,1,70,0,1
164094,-100,4,2,1,70,0,1
165283,-100,4,2,1,85,0,0
166206,-133.333333333333,4,2,1,70,0,0
167591,-133.333333333333,4,2,1,70,0,0
169437,-200,4,2,1,70,0,0
169898,-133.333333333333,4,2,1,70,0,0
172206,-200,4,2,1,70,0,0
172668,-100,4,1,1,70,0,0
175517,-100,4,2,1,70,0,0
175748,-100,4,1,1,70,0,0
177825,-100,4,2,1,70,0,0
178056,-100,4,1,1,70,0,0
179121,-200,4,1,1,70,0,0
180052,-200,4,1,1,70,0,1

[Colours]
Combo1 : 255,255,255
Combo2 : 255,128,64
Combo3 : 255,128,128
Combo4 : 128,255,255

[HitObjects]
256,192,975,12,0,2360,0:0:0:0:
120,112,2822,5,8,0:0:0:0:
200,216,3052,1,0,0:0:0:0:
200,216,3513,2,8,P|264:136|224:72,2,100
263,147,4206,1,2,0:0:0:0:
312,280,4437,1,8,0:0:0:0:
312,280,4668,5,2,0:0:0:0:
448,288,4899,1,8,0:0:0:0:
376,184,5360,1,0,0:0:0:0:
472,80,5591,5,8,0:0:0:0:
352,80,5822,2,0,B|296:80|296:80|240:104,2,100,0|8|0,0:0|0:0|0:0,0:0:0:0:
352,80,6514,1,8,0:0:0:0:
352,80,6745,1,0,0:0:0:0:
296,280,7206,1,8,0:0:0:0:
296,280,7437,1,8,0:0:0:0:
296,280,7668,6,0,B|248:296|248:296|192:280,2,100,0|8|0,0:0|0:0|0:0,0:0:0:0:
200,216,8360,5,2,0:0:0:0:
360,160,8591,1,2,0:0:0:0:
272,96,9052,1,8,0:0:0:0:
352,232,9283,1,10,0:0:0:0:
192,216,9514,2,0,P|160:168|128:160,1,50
136,152,9860,2,0,P|112:120|128:96,1,50
184,72,10206,5,4,0:0:0:0:
272,72,10437,1,8,0:0:0:0:
440,136,10898,2,0,P|448:192|392:224,1,100,0|8,0:0|0:0,0:0:0:0:
336,240,11360,1,8,0:0:0:0:
248,248,11591,1,8,0:0:0:0:
176,192,11822,1,8,0:0:0:0:
120,128,12052,6,0,P|128:88|192:64,1,100,0|8,0:0|0:0,0:0:0:0:
264,56,12514,1,2,0:0:0:0:
264,56,12745,2,0,P|320:56|352:88,1,100,0|8,0:0|0:0,0:0:0:0:
392,168,13206,2,8,L|288:232,2,100,8|2|8,0:0|0:0|0:0,0:0:0:0:
472,128,13898,5,2,0:0:0:0:
472,128,14129,1,8,0:0:0:0:
304,120,14591,2,8,P|208:128|200:168,2,100,8|2|2,0:0|0:0|0:0,0:0:0:0:
376,168,15283,2,8,P|400:208|336:240,1,100,8|2,0:0|0:0,0:0:0:0:
280,248,15745,1,8,0:0:0:0:
192,248,15975,1,2,0:0:0:0:
32,168,16437,2,8,P|88:80|160:64,1,100
256,192,16898,12,4,17591,0:0:0:0:
56,80,18052,6,0,P|176:128|192:144,1,100
416,128,18975,2,0,P|336:120|288:136,2,100
352,256,20360,1,0,0:0:0:0:
216,264,20822,2,0,P|144:256|104:208,1,100
64,320,21745,1,0,0:0:0:0:
168,192,22206,1,0,0:0:0:0:
288,272,22668,6,0,P|336:248|336:216,2,50,0|0|0,0:0|0:0|0:0,0:0:0:0:
192,80,23591,2,0,P|144:96|128:120,2,50,0|0|0,0:0|0:0|0:0,0:0:0:0:
408,176,24398,5,0,0:0:0:0:
408,176,24514,1,0,0:0:0:0:
368,48,24745,1,0,0:0:0:0:
248,96,24975,1,0,0:0:0:0:
120,208,25437,6,0,P|160:272|224:280,1,129.999994049073
328,160,26360,2,0,P|384:120|432:120,2,64.9999970245363,2|0|8,0:0|0:0|0:0,0:0:0:0:
216,288,27283,2,0,P|144:296|96:248,1,129.999994049073
48,104,28206,1,0,0:0:0:0:
216,80,28668,6,0,P|288:72|344:80,1,129.999994049073
424,104,29360,1,0,0:0:0:0:
424,104,29591,2,0,L|424:168,1,64.9999970245363,8|2,0:0|0:0,0:0:0:0:
512,160,30052,2,0,L|512:88,1,64.9999970245363,8|6,0:0|0:0,0:0:0:0:
256,192,30514,12,4,31437,0:0:0:0:
344,328,31668,5,0,0:0:0:0:
280,328,31783,1,0,0:0:0:0:
224,288,31898,1,0,0:0:0:0:
176,240,32014,1,0,0:0:0:0:
160,176,32129,1,0,0:0:0:0:
160,120,32245,1,0,0:0:0:0:
160,120,32360,5,4,0:0:0:0:
360,120,32591,1,0,0:0:0:0:
216,272,32822,1,0,0:0:0:0:
256,48,33052,1,0,0:0:0:0:
320,240,33283,1,8,0:0:0:0:
112,112,33745,6,0,P|196:96|288:128,1,150.000005722046
112,272,34206,2,0,P|196:288|288:256,1,150.000005722046
112,192,34668,2,0,L|296:192,1,150.000005722046
320,80,35129,1,0,0:0:0:0:
192,188,35360,1,8,0:0:0:0:
320,272,35591,1,8,0:0:0:0:
160,264,36052,5,4,0:0:0:0:
360,264,36283,1,0,0:0:0:0:
200,144,36514,1,0,0:0:0:0:
256,336,36744,1,2,0:0:0:0:
320,144,36975,1,8,0:0:0:0:
400,272,37437,6,0,P|316:288|224:256,1,150.000005722046
400,112,37898,2,0,P|316:96|224:128,1,150.000005722046
400,192,38360,2,0,L|216:192,1,150.000005722046
192,304,38821,1,0,0:0:0:0:
320,196,39052,1,0,0:0:0:0:
192,112,39283,1,2,0:0:0:0:
192,304,39514,1,2,0:0:0:0:
40,128,39745,5,0,0:0:0:0:
216,32,39975,1,0,0:0:0:0:
112,200,40206,1,0,0:0:0:0:
288,96,40437,1,0,0:0:0:0:
376,272,40668,1,8,0:0:0:0:
336,192,41129,6,0,B|256:88|256:280|176:192,1,200
128,64,41591,1,0,0:0:0:0:
384,320,41822,1,0,0:0:0:0:
384,64,42052,1,0,0:0:0:0:
128,320,42283,1,0,0:0:0:0:
176,192,42514,2,2,B|256:296|256:104|336:192,1,200,2|6,0:0|0:0,0:0:0:0:
256,192,42975,1,8,0:0:0:0:
104,240,43437,5,0,0:0:0:0:
184,56,43668,1,0,0:0:0:0:
256,240,43898,1,0,0:0:0:0:
344,56,44129,1,2,0:0:0:0:
424,240,44360,1,8,0:0:0:0:
328,144,44822,5,0,0:0:0:0:
184,144,45052,1,0,0:0:0:0:
344,240,45283,2,0,B|256:328|152:224,1,200
256,40,46206,6,0,B|400:120|128:224|272:360,1,350.00000333786,0|0,0:0|0:0,0:0:0:0:
256,192,46898,1,0,0:0:0:0:
488,200,47129,1,0,0:0:0:0:
376,32,47360,1,0,0:0:0:0:
256,192,47591,1,0,0:0:0:0:
488,200,47822,1,2,0:0:0:0:
256,192,48052,1,8,0:0:0:0:
168,304,48514,5,0,0:0:0:0:
344,80,48745,1,0,0:0:0:0:
192,128,48975,2,0,L|344:280,1,200
320,128,49437,2,0,L|168:280,1,200
256,192,49898,1,0,0:0:0:0:
224,304,50129,1,0,0:0:0:0:
256,312,50245,1,0,0:0:0:0:
288,304,50360,1,8,0:0:0:0:
56,104,50822,5,0,0:0:0:0:
256,104,51052,1,0,0:0:0:0:
344,288,51283,1,0,0:0:0:0:
144,272,51514,1,2,0:0:0:0:
160,64,51745,1,8,0:0:0:0:
160,64,52206,6,0,B|256:144|256:8|368:80,1,200
256,256,52668,1,0,0:0:0:0:
104,160,52898,1,0,0:0:0:0:
256,256,53129,1,0,0:0:0:0:
408,160,53360,1,0,0:0:0:0:
192,256,53591,2,2,P|256:192|312:288,1,200
320,256,54052,2,2,P|256:320|200:224,1,200
32,136,54514,5,0,0:0:0:0:
216,64,54745,1,0,0:0:0:0:
32,136,54975,1,0,0:0:0:0:
120,320,55206,1,2,0:0:0:0:
288,192,55437,1,8,0:0:0:0:
288,192,55898,5,0,0:0:0:0:
224,192,56129,1,0,0:0:0:0:
344,248,56360,2,0,P|344:152|224:136,1,200
168,248,56821,2,0,P|168:152|288:136,1,200
256,192,57282,1,0,0:0:0:0:
264,280,57513,1,0,0:0:0:0:
256,288,57629,1,0,0:0:0:0:
264,296,57744,1,0,0:0:0:0:
272,288,57860,1,0,0:0:0:0:
264,280,57975,1,4,0:0:0:0:
416,144,58206,5,0,0:0:0:0:
216,136,58437,1,0,0:0:0:0:
248,336,58668,1,0,0:0:0:0:
416,144,58898,1,2,0:0:0:0:
216,136,59129,1,8,0:0:0:0:
352,192,59591,5,0,0:0:0:0:
160,192,59822,1,0,0:0:0:0:
112,136,60052,2,2,P|256:112|440:152,1,300.000011444092
256,192,60745,1,0,0:0:0:0:
400,248,60975,2,2,P|256:272|72:232,1,300.000011444092
256,192,61668,1,0,0:0:0:0:
256,192,61898,1,4,0:0:0:0:
336,88,62360,6,0,P|376:96|392:168,1,100
232,216,62822,1,0,0:0:0:0:
152,96,64206,6,0,P|232:72|320:88,1,100
80,136,64668,1,0,0:0:0:0:
96,232,66052,6,0,P|184:256|232:224,1,100
48,144,66514,1,0,0:0:0:0:
80,136,67437,5,0,0:0:0:0:
240,56,67668,1,0,0:0:0:0:
192,232,67898,1,0,0:0:0:0:
352,144,68129,1,0,0:0:0:0:
184,208,68360,2,0,P|216:160|192:128,1,100
376,120,68822,2,0,P|344:72|368:40,1,100
184,64,69283,1,0,0:0:0:0:
296,208,69514,1,0,0:0:0:0:
168,256,70668,6,0,P|264:288|296:264,1,100
264,112,71129,1,0,0:0:0:0:
88,184,72514,6,0,P|160:128|232:128,1,100
240,288,72975,1,0,0:0:0:0:
72,96,74822,5,0,0:0:0:0:
272,96,75052,1,0,0:0:0:0:
208,288,75283,1,0,0:0:0:0:
408,288,75514,1,0,0:0:0:0:
256,192,75745,12,0,76206,0:0:0:0:
160,208,76668,6,0,P|152:264|176:304,1,100
304,152,77129,1,0,0:0:0:0:
64,48,77591,2,0,P|168:64|200:88,1,100
272,128,78052,1,0,0:0:0:0:
192,224,78283,1,0,0:0:0:0:
88,144,78514,6,0,P|136:104|216:112,1,100
248,240,78975,2,0,P|312:232|392:176,1,100
472,120,79437,2,0,B|440:80|440:80|384:56,1,100
320,200,79898,2,0,B|264:200|264:200|216:248,1,100
392,272,80360,6,0,P|347:293|299:284,1,100
152,192,80822,1,0,0:0:0:0:
392,56,81283,1,0,0:0:0:0:
131,56,81745,2,0,P|184:64|256:56,1,100
344,296,82437,2,0,P|291:288|219:296,1,100
80,176,82898,5,0,0:0:0:0:
248,72,83129,1,0,0:0:0:0:
272,272,83360,1,0,0:0:0:0:
272,272,83591,2,0,L|360:184,1,100
472,48,84052,5,0,0:0:0:0:
272,24,84283,1,0,0:0:0:0:
360,200,84514,1,0,0:0:0:0:
360,192,85206,2,0,P|344:280|320:328,1,100
224,344,85668,1,0,0:0:0:0:
104,256,85898,2,0,P|128:160|224:104,2,200
240,232,87283,2,0,L|240:344,1,100
40,328,87745,5,0,0:0:0:0:
240,328,87976,1,0,0:0:0:0:
40,328,88207,1,0,0:0:0:0:
160,168,88437,1,0,0:0:0:0:
336,264,88668,6,0,P|384:240|376:200,1,100
184,168,89129,1,0,0:0:0:0:
352,280,89360,1,0,0:0:0:0:
184,176,89591,2,0,L|272:104,1,100
432,216,90052,2,0,L|344:288,1,100
152,288,90514,2,0,P|104:240|128:184,1,100
272,96,90975,2,0,L|392:48,1,100
464,208,91437,5,4,0:0:0:0:
344,296,91668,1,2,0:0:0:0:
356,106,91898,2,0,P|348:194|252:250,1,200,0|0,0:0|0:0,0:0:0:0:
40,40,92822,2,0,P|48:112|88:152,1,100,0|2,0:0|0:0,0:0:0:0:
256,72,93283,6,0,P|296:56|360:72,1,100,0|2,0:0|0:0,0:0:0:0:
392,264,93745,2,0,P|352:280|288:264,1,100,0|2,0:0|0:0,0:0:0:0:
120,168,94206,1,2,0:0:0:0:
259,249,94437,1,2,0:0:0:0:
320,112,94668,2,0,P|376:48|424:40,2,100,0|0|0,0:0|0:0|0:0,0:0:0:0:
259,249,95360,5,0,0:0:0:0:
169,112,95591,2,0,P|88:152|80:272,1,200
416,208,96514,2,0,P|432:144|424:112,1,100
424,112,97206,1,0,0:0:0:0:
176,48,97668,2,0,P|120:96|104:152,1,100
48,232,98129,1,0,0:0:0:0:
144,336,98360,1,0,0:0:0:0:
288,272,98591,1,0,0:0:0:0:
256,112,98822,6,0,L|256:224,2,100
