osu file format v13

[General]
AudioFilename: EastNewSound.mp3
AudioLeadIn: 0
PreviewTime: 148608
Countdown: 0
SampleSet: Normal
StackLeniency: 0.7
Mode: 0
LetterboxInBreaks: 1
WidescreenStoryboard: 0

[Editor]
Bookmarks: 34665,46108,97522,240036,331808
DistanceSpacing: 0.9
BeatDivisor: 4
GridSize: 4
TimelineZoom: 1

[Metadata]
Title:Futarigoto
TitleUnicode:フタリゴト
Artist:EastNewSound
ArtistUnicode:EastNewSound
Creator:Vass_Bass
Version:Marathon
Source:
Tags:The Two of Us Yura Hatsuki Kokuchou Uncanny Instinct dnb
BeatmapID:429694
BeatmapSetID:178646

[Difficulty]
HPDrainRate:7
CircleSize:4
OverallDifficulty:7
ApproachRate:9
SliderMultiplier:1.8
SliderTickRate:1

[Events]
//Background and Video events
0,0,"bg].jpg",0,0
Video,0,"fu3.avi"
//Break Periods
2,264865,274065
//Storyboard Layer 0 (Background)
//Storyboard Layer 1 (Fail)
//Storyboard Layer 2 (Pass)
//Storyboard Layer 3 (Foreground)
//Storyboard Sound Samples
//Background Colour Transformations
3,100,163,162,255

[TimingPoints]
380,357.142857142857,4,1,1,40,1,0
11808,-200,4,1,1,40,0,0
11897,-200,4,1,1,30,0,0
16094,-200,4,2,1,30,0,0
23237,-200,4,2,1,40,0,0
23326,-200,4,2,1,30,0,0
28951,-200,4,2,1,40,0,0
34665,-181.818181818181,4,2,1,30,0,0
39665,-181.818181818181,4,1,1,20,0,0
40379,-181.818181818181,4,2,1,30,0,0
44665,-181.818181818181,4,1,1,30,0,0
44844,-181.818181818181,4,1,1,35,0,0
45022,-181.818181818181,4,1,1,40,0,0
45201,-181.818181818181,4,1,1,45,0,0
45379,-181.818181818181,4,1,1,50,0,0
46094,-100,4,1,1,60,0,0
67522,-100,4,1,0,40,0,0
68237,-200,4,1,1,30,0,0
68951,-100,4,1,2,50,0,0
69040,-100,4,1,1,50,0,0
73772,-100,4,1,0,40,0,0
74665,-100,4,1,1,50,0,0
78951,-100,4,1,0,40,0,0
80379,-100,4,1,1,50,0,0
85201,-100,4,1,0,40,0,0
86094,-100,4,1,1,50,0,0
90379,-100,4,1,0,40,0,0
91808,-100,4,1,1,60,0,0
101808,-100,4,1,0,40,0,0
102522,-200,4,1,1,30,0,0
103237,-100,4,1,2,50,0,0
103326,-100,4,1,1,50,0,0
108237,-100,4,1,0,40,0,0
108951,-100,4,1,1,50,0,0
113237,-100,4,1,0,40,0,0
114665,-100,4,1,1,50,0,0
119665,-100,4,1,0,40,0,0
120379,-100,4,1,1,50,0,0
124665,-200,4,1,0,50,0,0
126094,-100,4,1,1,40,0,0
143237,-100,4,1,1,45,0,0
146094,-100,4,1,1,50,0,0
148594,-100,4,1,1,25,0,0
148951,-100,4,1,1,70,0,1
170379,-200,4,1,1,60,0,0
171808,-100,4,1,1,60,0,1
171897,-100,4,1,1,60,0,0
191808,-100,4,1,1,40,0,0
193237,-100,4,1,0,40,0,0
193951,-200,4,1,0,30,0,0
194665,-181.818181818182,4,1,2,30,0,0
194754,-181.818181818182,4,2,1,30,0,0
197522,-181.818181818182,4,2,1,50,0,1
197612,-181.818181818182,4,2,1,30,0,0
199487,-181.818181818182,4,1,0,25,0,0
200379,-181.818181818182,4,2,1,20,0,0
203594,-181.818181818182,4,2,1,30,0,0
203951,-181.818181818182,4,1,1,20,0,0
204308,-181.818181818182,4,1,1,30,0,0
204665,-181.818181818182,4,1,2,35,0,0
205379,-100,4,1,1,40,0,0
205647,-100,4,1,1,30,0,0
205826,-100,4,1,1,40,0,0
206094,-100,4,1,1,50,0,0
210915,-100,4,1,0,40,0,0
211808,-100,4,1,1,50,0,0
216629,-100,4,1,0,40,0,0
217522,-100,4,1,1,40,0,0
236094,-100,4,1,1,45,0,0
237522,-100,4,1,1,50,0,0
240022,-100,4,1,1,30,0,0
240379,-100,4,1,1,70,0,1
251808,-100,4,1,2,80,0,1
251897,-100,4,1,1,70,0,1
261808,-200,4,1,1,70,0,0
263237,-100,4,1,1,70,0,1
263415,-100,4,2,1,30,0,0
274665,-200,4,1,2,30,0,0
274754,-200,4,2,1,20,0,0
286094,-200,4,1,2,30,0,0
286183,-200,4,2,1,20,0,0
291808,-200,4,1,2,30,0,0
291897,-200,4,2,1,20,0,0
297522,-181.818181818182,4,2,1,25,0,0
304487,-181.818181818182,4,1,0,30,0,0
307522,-100,4,1,1,30,0,0
307701,-100,4,1,1,35,0,0
307879,-100,4,1,1,40,0,0
308058,-100,4,1,1,45,0,0
308237,-100,4,1,1,50,0,0
308594,-100,4,1,1,80,0,0
308951,-100,4,1,0,50,0,1
309129,-100,4,1,0,50,0,0
320379,-100,4,1,0,50,0,1
320558,-100,4,1,0,50,0,0
326094,-100,4,1,1,50,0,1
326183,-100,4,1,1,50,0,0
327522,-100,4,1,1,55,0,1
327612,-100,4,1,1,55,0,0
328951,-100,4,1,1,60,0,1
329040,-100,4,1,1,60,0,0
329665,-100,4,1,1,60,0,1
329754,-100,4,1,1,60,0,0
330379,-83.3333333333333,4,1,1,65,0,1
330469,-83.3333333333333,4,1,1,65,0,0
331451,-83.3333333333333,4,1,1,30,0,0
331808,-100,4,1,1,70,0,1
342879,-100,4,1,1,70,0,0
343237,-100,4,1,2,80,0,1
343594,-100,4,1,1,40,0,1
343683,-100,4,1,1,70,0,1
354308,-100,4,1,1,70,0,0
354665,-100,4,1,1,75,0,1
365737,-100,4,1,1,75,0,0
366094,-100,4,1,1,75,0,1
376094,-200,4,1,1,75,0,0
377612,-100,4,2,1,30,0,0

[Colours]
Combo1 : 232,231,174
Combo2 : 164,137,184
Combo3 : 213,102,135
Combo4 : 191,197,202

[HitObjects]
224,160,11808,5,4,0:0:0:0:
256,192,11897,12,0,14665,2:0:0:0:
144,340,16094,6,0,B|116:304|140:268|140:268|124:208|320:156|152:276|24:152,1,360,2|2,0:0|0:0,0:0:0:0:
112,112,18951,2,0,P|172:132|296:128,2,180,2|2|2,0:0|0:0|0:0,0:0:0:0:
400,80,21808,2,0,B|416:136|392:168|392:168|396:228|308:300|304:216|408:280,1,270,2|2,0:0|0:0,0:0:0:0:
288,160,23237,5,4,1:0:0:0:
256,192,23326,12,0,26094,2:0:0:0:
152,152,27522,6,0,B|200:140|240:152|240:152|280:132|328:144,1,180,2|2,0:0|0:0,0:0:0:0:
288,224,28951,5,4,0:0:0:0:
256,192,29040,12,2,31808,0:0:0:0:
256,192,33237,12,0,34308,0:0:0:0:
88,280,34665,6,0,L|152:272,1,49.5000015106202,4|0,1:0|2:0,0:0:0:0:
152,184,35022,2,0,L|102:190,1,49.5000015106202,0|0,0:0|2:0,0:0:0:0:
324,216,35379,2,0,P|272:216|228:232,1,99.0000030212403,2|0,0:0|0:0,0:0:0:0:
152,184,35915,1,0,0:0:0:0:
152,184,36094,2,0,L|160:64,1,99.0000030212403,2|0,0:0|0:0,0:0:0:0:
256,40,36629,2,0,L|249:138,1,99.0000030212403,2|2,0:0|0:0,0:0:0:0:
324,216,37165,2,0,L|388:204,1,49.5000015106202,0|0,0:0|0:0,0:0:0:0:
512,296,37522,6,0,B|476:288|476:288|404:304,1,99.0000030212403,4|2,1:0|0:0,0:0:0:0:
272,328,38058,1,0,0:0:0:0:
272,328,38237,2,0,L|208:320,1,49.5000015106202
208,232,38594,2,0,L|257:238,1,49.5000015106202,2|0,0:0|0:0,0:0:0:0:
128,296,38951,2,0,P|112:252|120:192,1,99.0000030212403,0|2,0:0|0:0,0:0:0:0:
216,96,39487,1,0,0:0:0:0:
216,96,39665,5,0,0:0:0:0:
296,172,39844,1,0,0:0:0:0:
344,60,40022,1,0,0:0:0:0:
176,196,40201,1,0,0:0:0:0:
404,232,40379,6,0,P|420:184|412:136,1,99.0000030212403,4|2,1:0|0:0,0:0:0:0:
344,60,40915,1,0,0:0:0:0:
344,60,41094,2,0,L|288:64,1,49.5000015106202,0|0,0:0|0:0,0:0:0:0:
108,112,41451,2,0,L|157:115,1,49.5000015106202,0|4,0:0|2:0,0:0:0:0:
292,180,41808,6,0,L|392:172,1,99.0000030212403,4|0,1:0|0:0,0:0:0:0:
352,272,42344,2,0,L|253:283,1,99.0000030212403,2|0,0:0|0:0,0:0:0:0:
104,328,42879,2,0,P|140:332|156:336,1,49.5000015106202,2|4,0:0|2:0,0:0:0:0:
168,252,43237,6,0,P|116:240|56:240,1,99.0000030212403,4|2,1:0|0:0,0:0:0:0:
16,136,43772,1,0,0:0:0:0:
16,136,43951,2,0,P|68:124|128:124,1,99.0000030212403,4|2,2:0|0:0,0:0:0:0:
252,136,44487,1,0,0:0:0:0:
400,164,44665,5,6,2:0:0:0:
408,148,44754,1,0,0:0:0:0:
412,132,44844,1,2,0:0:0:0:
416,116,44933,1,0,0:0:0:0:
416,100,45022,1,2,0:0:0:0:
416,84,45112,1,0,0:0:0:0:
412,68,45201,1,2,0:0:0:0:
408,52,45290,1,0,0:0:0:0:
400,36,45379,1,2,0:0:0:0:
160,96,45558,1,2,0:0:0:0:
252,136,45737,1,8,0:0:0:0:
256,140,46094,6,0,L|252:320,1,180,4|8,1:2|0:0,0:0:0:0:
132,344,46629,1,0,2:0:0:0:
132,344,46808,2,0,L|136:244,1,90,2|2,2:0|0:0,0:0:0:0:
372,200,47165,2,0,L|368:289,1,90,8|0,0:0|2:0,0:0:0:0:
188,80,47522,2,0,B|244:56|244:56|372:72,1,180,2|8,2:0|0:0,0:0:0:0:
412,280,48058,1,0,2:0:0:0:
412,280,48237,2,0,P|364:288|312:272,1,90,2|2,2:0|0:0,0:0:0:0:
152,320,48594,2,0,P|144:264|160:216,1,90,8|0,0:0|2:0,0:0:0:0:
280,28,48951,6,0,P|304:100|268:204,2,180,6|8|2,0:0|0:0|2:0,0:0:0:0:
68,76,49844,1,2,0:0:0:0:
184,104,50022,1,8,0:0:0:0:
280,28,50201,1,0,2:0:0:0:
68,76,50379,2,0,B|48:144|48:144|76:264,1,180,2|8,0:0|0:0,0:0:0:0:
276,288,50915,5,0,0:0:0:0:
276,288,51004,1,8,0:0:0:0:
276,288,51094,1,2,2:0:0:0:
376,284,51272,1,2,0:0:0:0:
472,280,51451,1,8,0:0:0:0:
344,100,51629,1,2,0:0:0:0:
344,100,51808,6,0,P|280:60|172:76,1,180,4|8,0:0|0:0,0:0:0:0:
40,172,52344,1,0,2:0:0:0:
40,172,52522,2,0,P|88:188|140:180,1,90,2|0,2:0|0:0,0:0:0:0:
344,100,52879,2,0,P|304:132|280:184,1,90,8|0,0:0|2:0,0:0:0:0:
228,356,53237,2,0,P|244:280|204:184,1,180,2|8,2:0|0:0,0:0:0:0:
240,32,53772,1,0,2:0:0:0:
240,32,53951,2,0,L|336:24,1,90,2|0,2:0|0:0,0:0:0:0:
208,188,54308,2,0,L|304:180,1,90,8|0,0:0|2:0,0:0:0:0:
504,280,54665,6,0,B|452:260|452:260|328:272,2,180,6|8|2,0:0|0:0|2:0,0:0:0:0:
468,84,55558,1,2,0:0:0:0:
364,172,55737,1,8,0:0:0:0:
512,184,55915,1,0,2:0:0:0:
352,56,56094,2,0,L|256:48,1,90,4|0,0:0|2:0,0:0:0:0:
274,164,56451,2,0,L|364:172,1,90,8|0,0:0|2:0,0:0:0:0:
380,188,56719,2,0,P|360:248|376:324,1,135,8|0,0:0|0:0,0:0:0:0:
500,268,57165,1,0,0:0:0:0:
260,336,57344,1,2,0:0:0:0:
260,336,57522,6,0,P|184:316|88:360,1,180,4|8,0:0|0:0,0:0:0:0:
88,360,58237,2,0,L|80:264,1,90,2|2,2:0|0:0,0:0:0:0:
192,84,58594,2,0,L|184:173,1,90,8|0,0:0|2:0,0:0:0:0:
288,44,58951,2,0,L|272:228,1,180,2|8,2:0|0:0,0:0:0:0:
272,223,59487,1,0,2:0:0:0:
404,316,59665,1,2,2:0:0:0:
404,316,59844,1,2,0:0:0:0:
248,328,60022,2,0,L|132:320,1,90,8|0,0:0|2:0,0:0:0:0:
404,316,60379,6,0,L|208:300,2,180,4|8|2,0:0|0:0|2:0,0:0:0:0:
480,168,61272,1,2,0:0:0:0:
480,168,61451,2,0,P|500:104|480:36,1,135,8|0,0:0|2:0,0:0:0:0:
496,24,61808,2,0,L|400:28,1,90,2|0,0:0|2:0,0:0:0:0:
180,104,62165,2,0,L|336:100,1,135,8|0,0:0|2:0,0:0:0:0:
332,116,62522,1,0,0:0:0:0:
332,300,62701,1,2,0:0:0:0:
448,144,62879,1,8,0:0:0:0:
232,236,63058,1,2,2:0:0:0:
512,216,63237,6,0,B|456:212|456:212|400:232|400:232|332:228,1,180,4|8,0:0|0:0,0:0:0:0:
76,292,63772,1,0,2:0:0:0:
76,292,63951,2,0,P|132:284|180:296,1,90,2|2,2:0|0:0,0:0:0:0:
272,168,64308,2,0,L|264:68,1,90,8|0,0:0|2:0,0:0:0:0:
168,296,64665,2,0,L|156:112,2,180,2|8|2,2:0|0:0|2:0,0:0:0:0:
348,256,65558,1,2,0:0:0:0:
424,180,65737,1,8,0:0:0:0:
500,256,65915,1,2,2:0:0:0:
428,336,66094,6,0,P|368:308|260:340,1,180,4|8,2:0|0:0,0:0:0:0:
72,260,66629,1,0,2:0:0:0:
72,260,66808,2,0,L|176:244,1,90,4|2,2:0|0:0,0:0:0:0:
316,128,67165,1,8,0:0:0:0:
408,140,67344,1,2,2:0:0:0:
496,152,67522,5,2,0:0:0:0:
76,120,67879,1,2,0:0:0:0:
252,352,68237,2,2,B|264:276|220:244|220:244|244:224|240:188,1,180,0|6,2:0|0:0,0:0:0:0:
184,60,69129,5,0,2:0:0:0:
184,60,69308,2,0,L|84:56,1,90,8|0,0:0|2:0,0:0:0:0:
284,112,69665,2,0,L|380:104,1,90,0|2,3:0|0:0,0:0:0:0:
504,196,70022,2,0,P|432:184|336:240,2,180,8|2|8,0:0|0:0|0:0,0:0:0:0:
256,280,70915,1,0,2:0:0:0:
256,280,71094,2,0,P|244:244|256:192,1,90,0|2,0:0|0:0,0:0:0:0:
124,36,71451,2,0,P|136:72|124:124,1,90,8|0,0:0|2:0,0:0:0:0:
140,292,71808,6,0,L|208:116,1,180,4|8,2:0|0:0,0:0:0:0:
320,40,72344,1,0,2:0:0:0:
320,40,72522,2,0,P|368:44|408:32,1,90,0|2,0:0|0:0,0:0:0:0:
472,128,72879,2,0,P|388:156|288:152,2,180,8|0|8,0:0|0:0|0:0,0:0:0:0:
180,52,73772,1,2,0:0:0:0:
180,52,73862,1,0,0:0:0:0:
180,52,73951,2,0,P|168:100|184:140,1,90,0|2,0:0|0:0,0:0:0:0:
300,240,74308,2,0,P|312:192|296:151,1,90,0|2,0:0|0:0,0:0:0:0:
180,52,74665,6,0,L|-4:60,1,180,4|8,0:0|0:0,0:0:0:0:
32,212,75201,2,0,L|211:204,1,180,0|2,0:0|0:0,0:0:0:0:
388,256,75737,1,8,0:0:0:0:
388,256,75915,1,0,0:0:0:0:
232,172,76094,2,0,L|128:176,1,90,0|0,0:0|2:0,0:0:0:0:
284,72,76451,2,0,L|388:68,2,90,8|0|0,0:0|2:0|0:0,0:0:0:0:
232,172,76987,1,2,0:0:0:0:
332,224,77165,1,8,0:0:0:0:
384,124,77344,1,0,2:0:0:0:
80,128,77522,6,0,B|64:184|64:184|96:304,1,180,4|8,2:0|0:0,0:0:0:0:
236,352,78058,1,0,0:0:0:0:
236,352,78147,1,0,0:0:0:0:
236,352,78237,2,0,L|212:256,1,90,0|2,0:0|0:0,0:0:0:0:
332,224,78594,2,0,L|356:312,1,90,8|0,0:0|2:0,0:0:0:0:
492,336,78951,6,2,L|444:160,1,180,6|2,0:0|0:0,0:0:0:0:
312,40,79487,1,2,0:0:0:0:
288,44,79576,1,0,0:0:0:0:
268,48,79665,1,4,0:0:0:0:
88,112,79844,1,2,0:0:0:0:
240,132,80022,1,0,0:0:0:0:
88,112,80201,1,2,0:0:0:0:
316,204,80379,6,0,P|328:248|316:296,1,90,4|0,0:0|2:0,0:0:0:0:
44,260,80737,1,8,0:0:0:0:
44,260,80915,2,0,P|108:232|224:252,1,180,0|2,0:0|0:0,0:0:0:0:
372,172,81451,2,0,L|468:160,1,90,8|0,0:0|2:0,0:0:0:0:
284,200,81808,2,0,P|264:124|288:20,2,180,0|8|0,0:0|0:0|0:0,0:0:0:0:
460,160,82701,1,2,0:0:0:0:
440,256,82879,1,8,0:0:0:0:
416,352,83058,1,0,2:0:0:0:
416,352,83237,6,0,L|316:348,1,90,4|0,2:0|0:0,0:0:0:0:
216,284,83594,1,8,0:0:0:0:
216,284,83772,1,0,2:0:0:0:
440,256,83951,2,0,L|340:252,1,90,0|2,0:0|0:0,0:0:0:0:
240,188,84308,1,8,0:0:0:0:
240,188,84486,1,0,2:0:0:0:
460,164,84665,2,0,L|360:160,1,90
260,96,85022,1,8,0:0:0:0:
160,32,85201,5,2,0:0:0:0:
136,36,85290,1,0,0:0:0:0:
112,40,85379,1,0,0:0:0:0:
24,140,85558,1,2,0:0:0:0:
168,232,85737,1,0,0:0:0:0:
140,120,85915,1,2,0:0:0:0:
48,252,86094,6,0,P|96:336|184:344,1,180,4|8,0:0|0:0,0:0:0:0:
328,356,86629,2,0,B|292:268|360:268|324:180,1,180,0|2,0:0|0:0,0:0:0:0:
229,110,87165,2,0,L|140:120,1,90,8|0,0:0|0:0,0:0:0:0:
424,192,87522,2,0,B|448:144|448:144|432:0,1,180,2|8,0:0|0:0,0:0:0:0:
320,168,88058,1,0,2:0:0:0:
320,168,88237,2,0,B|308:212|308:212|328:264,1,90,0|2,0:0|0:0,0:0:0:0:
172,352,88594,2,0,B|184:312|184:312|164:260,1,90,8|0,0:0|2:0,0:0:0:0:
208,152,88951,6,0,L|276:332,2,180,4|8|0,2:0|0:0|0:0,0:0:0:0:
208,152,89844,1,2,0:0:0:0:
112,84,90022,2,0,L|16:76,1,90,8|0,0:0|2:0,0:0:0:0:
208,152,90379,5,6,0:0:0:0:
312,140,90558,1,2,0:0:0:0:
440,240,90737,1,8,2:0:0:0:
336,252,90916,1,2,0:0:0:0:
336,252,91004,1,0,0:0:0:0:
336,252,91094,1,6,0:0:0:0:
420,124,91272,1,2,0:0:0:0:
153,42,91451,1,0,0:0:0:0:
176,46,91540,1,0,0:0:0:0:
200,51,91629,1,2,0:0:0:0:
224,56,91719,1,0,0:0:0:0:
247,60,91808,6,0,L|240:160,1,90,4|0,0:0|2:0,0:0:0:0:
336,252,92165,2,0,L|348:64,1,180,8|2,0:0|2:0,0:0:0:0:
460,24,92701,1,0,0:0:0:0:
420,152,92879,2,0,L|320:144,1,90,8|0,0:0|2:0,0:0:0:0:
336,252,93237,2,0,L|144:236,1,180,2|8,2:0|0:0,0:0:0:0:
28,132,93772,1,0,2:0:0:0:
28,132,93951,2,0,B|72:116|72:116|120:132,1,90,2|0,2:0|0:0,0:0:0:0:
156,236,94308,2,0,B|112:252|112:252|64:236,1,90,8|0,0:0|2:0,0:0:0:0:
248,160,94665,6,0,B|272:220|272:220|244:344,2,180,4|8|2,0:0|0:0|2:0,0:0:0:0:
340,48,95558,1,0,0:0:0:0:
340,48,95737,2,0,L|444:40,1,90,8|0,0:0|2:0,0:0:0:0:
248,160,96094,2,0,L|356:152,1,90,2|0,2:0|2:0,0:0:0:0:
480,316,96451,2,0,P|496:256|476:180,1,135,8|0,0:0|2:0,0:0:0:0:
496,172,96808,1,2,2:0:0:0:
368,168,96987,1,0,0:0:0:0:
248,160,97165,1,8,0:0:0:0:
128,156,97344,1,2,2:0:0:0:
128,156,97522,6,0,P|111:91|127:26,1,135,4|0,0:0|2:0,0:0:0:0:
128,28,97879,2,0,L|225:38,1,90,8|0,0:0|2:0,0:0:0:0:
248,160,98237,2,0,L|240:264,1,90,2|0,2:0|0:0,0:0:0:0:
112,332,98594,2,0,L|128:152,2,180,8|2|8,0:0|2:0|0:0,0:0:0:0:
320,300,99487,1,0,0:0:0:0:
324,280,99576,1,0,0:0:0:0:
328,256,99665,1,2,2:0:0:0:
292,80,99844,1,0,0:0:0:0:
232,180,100022,1,8,0:0:0:0:
392,148,100201,1,2,2:0:0:0:
164,96,100379,6,0,P|104:96|8:120,1,135,4|0,2:0|2:0,0:0:0:0:
12,96,100737,2,0,L|24:188,1,90,0|0,0:0|2:0,0:0:0:0:
243,269,101094,2,0,L|232:180,1,90,6|0,2:0|0:0,0:0:0:0:
312,32,101451,1,0,0:0:0:0:
396,60,101629,1,0,0:0:0:0:
480,92,101808,5,2,0:0:0:0:
96,200,102165,1,2,0:0:0:0:
484,224,102522,2,2,B|444:200|380:216|404:220|404:220|400:208|356:208|312:236,1,180,0|6,0:0|0:0,0:0:0:0:
188,288,103415,5,0,2:0:0:0:
188,288,103594,2,0,L|76:280,1,90,8|0,0:0|2:0,0:0:0:0:
16,176,103951,2,0,P|8:116|24:76,1,90,0|2,0:0|0:0,0:0:0:0:
132,140,104308,2,0,L|320:152,1,180,8|0,0:0|0:0,0:0:0:0:
380,264,104844,1,0,2:0:0:0:
312,152,105022,1,8,0:0:0:0:
380,264,105201,1,0,2:0:0:0:
336,116,105379,2,0,L|236:108,1,90,0|2,0:0|0:0,0:0:0:0:
40,128,105737,6,0,P|60:188|32:276,1,135,8|0,0:0|2:0,0:0:0:0:
45,256,106094,2,0,P|32:304|52:352,2,90,4|0|8,0:2|0:0|0:0,0:0:0:0:
184,216,106629,1,0,2:0:0:0:
184,216,106808,2,0,P|197:168|177:120,1,90,0|2,0:0|0:0,0:0:0:0:
308,20,107165,2,0,P|296:84|324:152,1,135,8|0,0:0|2:0,0:0:0:0:
312,168,107522,2,0,L|408:164,1,90,0|2,0:0|0:0,0:0:0:0:
496,268,107879,2,0,L|348:276,1,135,8|0,0:0|0:0,0:0:0:0:
348,292,108237,2,0,L|248:280,1,90,2|2,0:0|0:0,0:0:0:0:
136,336,108594,1,0,0:0:0:0:
68,232,108772,5,2,0:0:0:0:
64,208,108862,1,0,0:0:0:0:
60,184,108951,2,0,P|48:136|60:88,1,90,4|0,0:0|2:0,0:0:0:0:
224,32,109308,1,8,0:0:0:0:
224,32,109487,2,0,P|256:96|216:204,1,180,0|2,0:0|0:0,0:0:0:0:
88,88,110022,2,0,P|131:92|172:116,1,90,8|0,0:0|2:0,0:0:0:0:
268,288,110379,2,0,P|176:284|124:208,1,180,0|8,0:0|0:0,0:0:0:0:
220,204,110915,1,0,2:0:0:0:
420,200,111094,2,0,L|524:192,1,90,0|2,0:0|0:0,0:0:0:0:
368,284,111451,6,0,P|332:204|372:116,2,180,8|4|8,0:0|2:0|0:0,0:0:0:0:
396,36,112344,1,0,2:0:0:0:
396,36,112522,2,0,P|340:36|292:60,1,90,0|2,0:0|0:0,0:0:0:0:
104,120,112879,2,0,P|160:119|208:95,1,90,8|0,0:0|2:0,0:0:0:0:
400,204,113237,6,2,P|344:192|260:208,1,135,6|2,0:0|0:0,0:0:0:0:
248,196,113594,1,0,0:0:0:0:
116,260,113772,1,2,0:0:0:0:
116,260,113862,1,0,0:0:0:0:
116,260,113951,1,4,0:0:0:0:
236,320,114129,1,2,0:0:0:0:
104,120,114308,1,4,0:0:0:0:
0,192,114487,1,2,0:0:0:0:
248,196,114665,6,0,L|428:192,1,180,4|8,0:0|0:0,0:0:0:0:
444,324,115201,2,0,L|264:328,1,180,0|2,0:0|0:0,0:0:0:0:
152,212,115737,2,0,L|48:200,1,90,8|0,0:0|0:0,0:0:0:0:
40,212,116004,1,0,0:0:0:0:
20,224,116094,2,0,P|8:176|28:116,1,90,0|0,0:0|2:0,0:0:0:0:
208,32,116451,2,0,P|220:80|200:140,1,90,8|0,0:0|2:0,0:0:0:0:
152,212,116808,1,0,0:0:0:0:
284,308,116987,1,2,0:0:0:0:
284,308,117165,2,0,L|392:304,1,90,0|0,0:0|2:0,0:0:0:0:
472,200,117522,6,0,L|288:208,1,180,4|8,2:0|0:0,0:0:0:0:
152,212,118058,1,0,0:0:0:0:
128,208,118147,1,0,0:0:0:0:
104,204,118237,1,0,0:0:0:0:
40,72,118415,1,2,0:0:0:0:
40,72,118594,1,8,0:0:0:0:
184,88,118772,5,0,0:0:0:0:
208,92,118862,1,0,0:0:0:0:
232,96,118951,2,0,L|336:92,1,90,0|0,0:0|0:0,0:0:0:0:
464,200,119308,2,0,L|374:203,1,90,8|2,0:0|0:0,0:0:0:0:
356,192,119576,1,0,0:0:0:0:
336,180,119665,2,0,P|324:224|336:272,1,90,2|0,0:0|0:0,0:0:0:0:
184,356,120022,2,0,P|196:312|184:264,1,90,2|0,0:0|0:0,0:0:0:0:
56,128,120379,6,0,P|40:216|92:304,1,180,4|8,0:0|0:0,0:0:0:0:
312,176,120915,2,0,P|232:160|144:200,1,180,0|2,0:0|0:0,0:0:0:0:
56,128,121451,2,0,L|44:28,1,90,8|0,0:0|0:0,0:0:0:0:
184,212,121808,2,0,L|160:32,1,180,2|8,0:0|0:0,0:0:0:0:
160,33,122344,1,0,2:0:0:0:
296,208,122522,2,0,P|292:256|272:304,1,90,0|2,0:0|0:0,0:0:0:0:
184,212,122879,2,0,P|188:164|208:116,1,90,8|0,0:0|2:0,0:0:0:0:
296,208,123237,6,0,L|488:200,1,180,4|8,2:0|0:0,0:0:0:0:
268,324,123772,1,0,2:0:0:0:
268,324,123862,1,0,0:0:0:0:
268,324,123951,2,0,L|164:328,1,90,0|2,0:0|0:0,0:0:0:0:
0,232,124308,2,0,L|104:236,1,90,8|0,0:0|0:0,0:0:0:0:
208,164,124665,6,0,L|304:160,1,90,6|2,0:0|0:0,0:0:0:0:
152,284,125201,5,0,0:0:0:0:
152,284,125290,1,0,0:0:0:0:
152,284,125380,1,2,0:0:0:0:
36,228,125558,1,0,0:0:0:0:
96,116,125737,1,2,0:0:0:0:
208,164,125915,5,0,0:0:0:0:
208,164,126004,1,0,0:0:0:0:
208,164,126094,2,0,L|404:156,1,180,4|8,0:0|0:0,0:0:0:0:
484,236,126629,1,2,0:0:0:0:
484,236,126808,2,0,P|488:292|484:336,1,90,0|2,0:0|0:0,0:0:0:0:
320,244,127165,2,0,P|304:160|320:60,2,180,8|2|8,0:0|0:0|0:0,0:0:0:0:
180,248,128058,1,0,2:0:0:0:
180,248,128237,2,0,P|184:304|180:348,1,90,0|2,0:0|0:0,0:0:0:0:
112,168,128594,2,0,P|60:156|16:140,1,90,8|0,0:0|2:0,0:0:0:0:
224,152,128951,6,0,P|320:124|400:132,1,180,4|8,0:0|0:0,0:0:0:0:
424,256,129487,2,0,P|328:284|248:276,1,180,0|2,0:0|0:0,0:0:0:0:
224,152,130022,1,8,0:0:0:0:
224,152,130201,1,0,0:0:0:0:
104,192,130379,2,0,P|72:136|100:24,1,180,0|12,0:0|0:0,0:0:0:0:
268,40,130915,1,0,2:0:0:0:
268,40,131004,1,8,0:0:0:0:
268,40,131094,2,0,L|384:32,1,90,0|2,0:0|0:0,0:0:0:0:
314,146,131451,2,0,L|224:152,1,90,12|2,0:0|0:0,0:0:0:0:
448,288,131808,6,0,P|476:205|441:125,2,180,4|8|0,0:0|0:0|0:0,0:0:0:0:
328,328,132701,1,2,0:0:0:0:
416,216,132879,2,0,P|464:212|504:228,1,90,8|0,0:0|2:0,0:0:0:0:
328,328,133237,2,0,P|232:324|160:280,1,180,0|8,0:0|0:0,0:0:0:0:
148,160,133772,1,0,2:0:0:0:
148,160,133951,2,0,P|200:164|236:188,1,90,0|2,0:0|0:0,0:0:0:0:
40,192,134308,2,0,P|32:144|44:104,1,90,8|0,0:0|2:0,0:0:0:0:
156,48,134665,6,0,P|240:68|324:128,1,180,4|8,0:0|0:0,0:0:0:0:
440,112,135201,2,0,P|356:132|272:192,1,180,0|2,0:0|0:0,0:0:0:0:
392,320,135737,2,0,P|408:276|392:228,1,90,8|0,0:0|2:0,0:0:0:0:
280,184,136094,2,0,L|100:172,1,180,0|4,0:0|0:0,0:0:0:0:
40,272,136629,1,0,2:0:0:0:
40,272,136719,1,8,0:0:0:0:
40,272,136808,1,4,0:0:0:0:
100,172,136987,1,2,0:0:0:0:
52,68,137165,1,12,0:0:0:0:
0,176,137344,1,2,0:0:0:0:
176,240,137522,6,0,L|355:251,1,180,4|8,0:0|0:0,0:0:0:0:
460,320,138058,1,0,2:0:0:0:
460,320,138237,2,0,P|472:272|464:232,1,90,0|2,0:0|0:0,0:0:0:0:
395,36,138594,2,0,P|388:80|400:124,1,90,8|0,1:0|2:0,0:0:0:0:
504,76,138951,2,0,L|304:80,1,180,0|8,0:0|0:0,0:0:0:0:
216,140,139487,1,0,2:0:0:0:
216,140,139665,2,0,L|120:136,1,90,0|2,0:0|0:0,0:0:0:0:
80,256,140022,2,0,L|169:259,1,90,8|0,0:0|2:0,0:0:0:0:
280,324,140379,6,0,P|352:312|432:316,1,135,4|0,0:0|2:0,0:0:0:0:
432,328,140737,2,0,L|442:214,1,90,8|0,0:0|2:0,0:0:0:0:
316,208,141094,2,0,P|288:116|320:36,1,180,0|8,0:0|0:0,0:0:0:0:
316,40,141629,1,0,2:0:0:0:
316,40,141808,6,0,L|212:36,1,90,0|0,0:0|2:0,0:0:0:0:
8,108,142165,2,0,L|112:103,1,90,12|0,0:0|0:0,0:0:0:0:
120,116,142433,2,0,P|100:180|124:248,1,135,8|2,0:0|0:0,0:0:0:0:
232,304,142879,2,0,P|240:252|224:208,1,90,4|2,0:0|0:0,0:0:0:0:
229,217,143147,1,0,0:0:0:0:
229,216,143237,6,0,L|428:211,1,180,4|8,2:0|0:0,0:0:0:0:
500,128,143772,1,0,2:0:0:0:
500,128,143951,2,0,P|512:80|504:40,1,90,0|2,0:0|0:0,0:0:0:0:
380,40,144308,2,0,P|372:84|384:127,1,90,8|0,0:0|2:0,0:0:0:0:
500,128,144665,2,0,P|424:128|336:184,1,180,4|8,2:0|0:0,0:0:0:0:
212,196,145201,1,0,2:0:0:0:
212,196,145379,2,0,L|100:188,1,90,0|2,0:0|0:0,0:0:0:0:
120,64,145737,2,0,L|209:70,1,90,8|0,0:0|2:0,0:0:0:0:
324,128,146094,5,4,2:0:0:0:
328,132,146451,1,8,0:0:0:0:
432,204,146629,2,0,P|368:188|272:252,1,180,4|2,2:0|0:0,0:0:0:0:
312,364,147165,2,0,P|376:380|472:316,2,180,4|4|4,2:0|0:0|2:0,0:0:0:0:
296,232,148147,5,8,0:0:0:0:
296,232,148237,1,4,2:0:0:0:
164,240,148415,1,0,0:2:0:0:
30,250,148594,1,10,0:0:0:0:
32,228,148683,1,0,0:0:0:0:
34,207,148772,1,0,0:0:0:0:
36,185,148862,1,0,0:0:0:0:
20,168,148951,6,0,L|4:72,1,90,4|0,0:0|2:0,0:0:0:0:
120,180,149308,2,0,L|104:84,1,90,8|0,0:0|2:0,0:0:0:0:
216,196,149665,2,0,L|200:92,1,90,4|2,2:0|0:0,0:0:0:0:
328,24,150022,2,0,P|316:88|368:172,1,135,8|0,0:0|2:0,0:0:0:0:
356,168,150379,6,0,L|468:156,1,90,4|0,0:0|2:0,0:0:0:0:
328,264,150737,2,0,L|440:252,1,90,8|0,0:0|2:0,0:0:0:0:
304,360,151094,2,0,L|416:348,1,90,4|2,2:0|0:0,0:0:0:0:
232,288,151451,5,8,0:0:0:0:
232,288,151629,1,2,0:0:0:0:
48,324,151808,2,0,P|12:252|36:152,2,180,4|8|4,0:0|0:0|2:0,0:0:0:0:
232,288,152701,1,2,0:0:0:0:
184,208,152879,1,8,0:0:0:0:
116,272,153058,1,2,0:0:0:0:
288,200,153237,6,0,P|308:114|280:24,1,180,4|8,0:0|0:0,0:0:0:0:
108,64,153772,1,8,0:0:0:0:
108,64,153862,1,0,2:0:0:0:
108,64,153951,2,0,L|8:56,1,90,0|2,0:0|0:0,0:0:0:0:
300,108,154308,1,8,0:0:0:0:
108,64,154487,1,2,0:0:0:0:
211,116,154665,6,0,L|300:108,1,90,4|0,0:0|2:0,0:0:0:0:
204,208,155022,2,0,L|304:196,1,90,8|0,0:0|2:0,0:0:0:0:
440,348,155379,2,0,P|460:280|432:200,1,135,4|0,2:0|2:0,0:0:0:0:
444,219,155737,2,0,P|432:172|440:128,1,90,8|2,0:0|0:0,0:0:0:0:
328,56,156094,2,0,P|304:128|316:232,2,180,4|8|4,0:0|0:0|2:0,0:0:0:0:
328,56,157165,1,8,0:0:0:0:
132,100,157344,1,2,0:0:0:0:
212,36,157522,6,0,P|232:72|228:128,1,90,4|0,0:0|2:0,0:0:0:0:
44,160,157879,2,0,P|24:124|28:68,1,90,8|0,0:0|2:0,0:0:0:0:
132,100,158237,2,0,B|132:164|132:164|160:200|160:200|160:276,1,180,4|8,2:0|0:0,0:0:0:0:
60,348,158772,1,0,2:0:0:0:
60,348,158951,2,0,L|60:252,1,90,0|0,0:0|2:0,0:0:0:0:
256,204,159308,2,0,L|256:294,1,90,8|0,0:0|2:0,0:0:0:0:
240,312,159576,1,8,0:0:0:0:
224,328,159665,2,0,P|276:324|332:332,1,90,0|2,0:0|0:0,0:0:0:0:
512,248,160022,1,8,0:0:0:0:
332,220,160201,1,10,0:0:0:0:
512,248,160379,6,0,P|520:192|520:148,1,90,4|0,0:0|2:0,0:0:0:0:
332,220,160737,2,0,P|384:224|428:212,1,90,8|0,0:0|2:0,0:0:0:0:
368,76,161094,2,0,P|312:76|272:88,1,90,4|2,2:0|0:0,0:0:0:0:
192,284,161451,2,0,P|216:216|196:160,1,135,8|0,0:0|2:0,0:0:0:0:
216,148,161808,6,0,L|120:144,1,90,4|0,0:0|2:0,0:0:0:0:
0,264,162165,2,0,L|89:267,1,90,8|0,0:0|2:0,0:0:0:0:
292,356,162522,2,0,P|304:308|296:264,1,90,4|2,2:0|0:0,0:0:0:0:
298,268,162879,2,0,P|348:272|402:256,1,90,8|8,0:0|0:0,0:0:0:0:
500,156,163237,6,0,P|408:136|336:180,2,180,4|8|4,0:0|0:0|2:0,0:0:0:0:
388,260,164129,1,2,0:0:0:0:
228,236,164308,1,8,0:0:0:0:
84,212,164487,1,0,0:0:0:0:
84,212,164665,2,0,P|60:124|88:40,1,180,0|8,0:0|0:0,0:0:0:0:
224,32,165201,1,0,0:0:0:0:
224,32,165290,1,8,0:0:0:0:
224,32,165379,2,0,L|316:28,1,90,4|2,2:0|0:0,0:0:0:0:
512,108,165737,1,8,0:0:0:0:
412,116,165915,1,0,0:0:0:0:
304,124,166094,6,0,L|214:127,1,90,4|0,0:0|2:0,0:0:0:0:
32,212,166451,2,0,L|121:215,1,90,8|0,0:0|2:0,0:0:0:0:
312,296,166808,2,0,L|222:299,1,90,4|2,2:0|0:0,0:0:0:0:
128,360,167165,1,8,0:0:0:0:
128,360,167344,1,0,0:0:0:0:
312,296,167522,2,0,P|284:236|308:128,1,180,4|8,0:0|0:0,0:0:0:0:
424,48,168058,1,0,2:0:0:0:
424,48,168237,2,0,P|445:110|418:176,1,135,4|0,2:0|2:0,0:0:0:0:
401,182,168594,2,0,P|453:179|503:204,1,90,8|2,0:0|0:0,0:0:0:0:
312,296,168951,6,0,P|260:303|208:284,1,90,4|0,0:0|2:0,0:0:0:0:
84,320,169308,2,0,L|80:224,1,90,0|0,0:0|2:0,0:0:0:0:
32,120,169665,1,4,0:0:0:0:
32,120,169844,1,0,0:0:0:0:
284,120,170022,1,0,0:0:0:0:
284,120,170379,6,0,P|248:224|296:328,1,225,4|0,0:0|0:0,0:0:0:0:
480,268,171451,1,12,0:0:0:0:
480,268,171808,6,0,P|504:176|480:96,1,180,0|8,0:0|0:0,0:0:0:0:
256,80,172522,1,2,2:0:0:0:
272,176,172701,1,2,0:0:0:0:
372,164,172879,1,8,0:0:0:0:
356,68,173058,1,0,2:0:0:0:
256,80,173237,2,0,L|72:72,1,180,2|8,2:0|0:0,0:0:0:0:
12,180,173772,1,0,2:0:0:0:
12,180,173951,2,0,L|120:184,1,90,2|2,2:0|0:0,0:0:0:0:
272,176,174308,2,0,P|260:220|280:276,1,90,8|0,0:0|2:0,0:0:0:0:
361,332,174665,6,0,P|393:249|372:164,1,180,4|8,0:0|0:0,0:0:0:0:
296,48,175201,1,0,2:0:0:0:
296,48,175379,2,0,L|196:56,1,90,2|2,2:0|0:0,0:0:0:0:
12,180,175737,2,0,L|112:188,1,90,8|0,0:0|2:0,0:0:0:0:
180,292,176094,1,2,2:0:0:0:
180,292,176272,1,0,2:0:0:0:
296,224,176451,2,0,L|396:232,1,90,8|0,0:0|2:0,0:0:0:0:
404,244,176719,2,0,P|396:176|420:112,1,135,8|0,0:0|0:0,0:0:0:0:
512,244,177165,2,0,P|512:292|496:336,1,90,8|2,0:0|2:0,0:0:0:0:
312,344,177522,6,0,P|240:328|136:360,1,180,4|8,0:0|0:0,0:0:0:0:
28,324,178058,1,0,2:0:0:0:
60,228,178237,1,2,2:0:0:0:
172,260,178415,1,2,0:0:0:0:
140,356,178594,1,8,0:0:0:0:
136,144,178772,1,0,2:0:0:0:
136,144,178951,2,0,B|196:124|196:124|320:144,1,180,2|8,2:0|0:0,0:0:0:0:
484,184,179487,1,0,2:0:0:0:
484,184,179665,2,0,P|492:136|488:88,1,90,2|2,2:0|0:0,0:0:0:0:
336,144,180022,2,0,P|328:192|332:240,1,90,8|0,0:0|2:0,0:0:0:0:
466,363,180379,6,0,P|472:273|484:184,2,180,4|8|2,0:0|0:0|2:0,0:0:0:0:
466,363,181272,1,2,0:0:0:0:
368,308,181451,1,8,0:0:0:0:
252,312,181629,1,0,2:0:0:0:
152,356,181808,2,0,P|80:344|36:348,1,90,4|0,0:0|2:0,0:0:0:0:
0,216,182165,2,0,P|48:212|92:212,1,90,8|0,0:0|2:0,0:0:0:0:
104,228,182433,2,0,P|124:176|112:100,1,135,8|4,0:0|0:0,0:0:0:0:
4,40,182879,1,8,0:0:0:0:
4,40,183058,1,2,2:0:0:0:
224,64,183237,6,0,P|340:56|412:56,1,180,4|8,0:0|0:0,0:0:0:0:
512,184,183772,1,0,2:0:0:0:
512,184,183951,2,0,P|460:180|404:184,1,90,2|2,2:0|0:0,0:0:0:0:
256,252,184308,1,8,0:0:0:0:
256,252,184665,2,0,P|188:244|68:236,1,180,2|8,2:0|0:0,0:0:0:0:
28,116,185201,1,0,2:0:0:0:
76,236,185379,1,2,2:0:0:0:
28,116,185558,1,2,0:0:0:0:
172,128,185737,2,0,P|196:84|212:32,1,90,8|0,0:0|2:0,0:0:0:0:
360,44,186094,6,8,P|336:88|300:220,1,180,4|8,0:0|0:0,0:0:0:0:
392,352,186629,1,0,2:0:0:0:
392,352,186808,2,0,P|404:300|408:256,1,90,2|2,2:0|0:0,0:0:0:0:
172,128,187165,2,0,P|160:180|156:224,1,90,8|0,0:0|2:0,0:0:0:0:
256,276,187522,2,0,P|172:256|80:296,1,180,4|8,0:0|0:0,0:0:0:0:
308,380,188058,1,0,2:0:0:0:
420,340,188237,1,0,0:0:0:0:
368,236,188415,1,4,0:0:0:0:
256,276,188594,1,8,0:0:0:0:
256,276,188772,1,2,2:0:0:0:
464,248,188951,6,0,B|488:184|488:184|468:72,1,180,4|8,0:0|0:0,0:0:0:0:
468,74,189487,1,0,2:0:0:0:
236,80,189665,2,0,L|352:72,1,90,2|2,2:0|0:0,0:0:0:0:
80,68,190022,2,0,L|264:56,2,180,8|2|8,0:0|2:0|0:0,0:0:0:0:
36,200,190915,1,0,2:0:0:0:
140,244,191094,2,0,P|148:196|140:152,1,90,2|2,2:0|0:0,0:0:0:0:
36,200,191451,1,8,0:0:0:0:
36,200,191629,1,0,2:0:0:0:
240,280,191808,6,0,P|252:192|236:96,1,180,4|8,2:0|0:0,0:0:0:0:
340,36,192344,1,0,2:0:0:0:
340,36,192522,2,0,L|444:32,1,90,4|2,2:0|0:0,0:0:0:0:
272,140,192879,2,0,L|376:136,1,90,8|2,0:0|2:0,0:0:0:0:
472,188,193237,5,2,0:0:0:0:
84,224,193594,1,2,0:0:0:0:
376,320,193951,2,2,B|340:308|324:304|320:284|280:264|288:284|288:284|288:240|232:224,1,180,0|6,0:0|0:0,0:0:0:0:
240,104,194844,5,2,0:0:0:0:
240,104,195201,2,0,L|248:4,1,99.0000030212403
384,132,195737,2,0,P|380:180|372:200,1,49.5000015106202,2|0,0:0|0:0,0:0:0:0:
229,200,196094,2,0,P|226:151|240:104,1,99.0000030212403,0|0,0:0|0:0,0:0:0:0:
224,320,196629,1,0,0:0:0:0:
224,320,196808,2,0,P|184:320|164:316,1,49.5000015106202,2|0,0:0|0:0,0:0:0:0:
228,199,197165,2,0,P|252:198|277:201,1,49.5000015106202
168,248,197522,6,0,P|87:245|8:236,1,148.50000453186,6|0,0:0|0:0,0:0:0:0:
144,88,198237,2,0,P|224:90|304:100,1,148.50000453186,2|0,0:0|0:0,0:0:0:0:
504,176,198951,2,0,P|423:178|344:188,1,148.50000453186,2|2,0:0|2:1,0:0:0:0:
212,268,199665,5,0,0:0:0:0:
128,136,199844,1,2,0:0:0:0:
108,240,200022,1,0,0:0:0:0:
232,168,200201,1,2,0:0:0:0:
128,136,200379,6,0,P|80:120|24:128,1,99.0000030212403,6|0,0:0|0:0,0:0:0:0:
248,96,200915,2,0,P|296:112|352:104,1,99.0000030212403
492,128,201451,2,0,P|460:128|432:132,1,49.5000015106202,2|0,0:0|0:0,0:0:0:0:
460,324,201808,2,0,P|468:280|472:208,2,99.0000030212403,2|0|2,0:0|0:0|0:0,0:0:0:0:
460,324,202879,1,0,0:0:0:0:
328,284,203058,1,0,0:0:0:0:
196,324,203237,5,6,0:0:0:0:
180,316,203326,1,0,0:0:0:0:
164,312,203415,1,0,0:0:0:0:
148,312,203504,1,0,0:0:0:0:
132,312,203594,1,0,0:0:0:0:
116,316,203683,1,0,0:0:0:0:
116,300,203772,1,0,0:0:0:0:
120,284,203862,1,0,0:0:0:0:
120,268,203951,1,0,0:0:0:0:
120,252,204040,1,0,0:0:0:0:
116,236,204129,1,0,0:0:0:0:
112,220,204219,1,0,0:0:0:0:
104,204,204308,1,0,0:0:0:0:
92,192,204397,1,0,0:0:0:0:
80,180,204487,1,0,0:0:0:0:
64,172,204576,1,0,0:0:0:0:
48,180,204665,5,2,0:0:0:0:
40,196,204754,1,0,0:0:0:0:
36,212,204844,1,0,0:0:0:0:
32,228,204933,1,0,0:0:0:0:
32,244,205022,1,0,0:0:0:0:
32,260,205112,1,0,0:0:0:0:
32,276,205201,1,0,0:0:0:0:
36,292,205290,1,0,0:0:0:0:
40,308,205379,5,0,0:0:0:0:
220,288,205558,1,2,0:0:0:0:
320,280,205737,1,4,1:2:0:0:
424,268,205915,1,0,0:0:0:0:
424,268,206094,6,0,P|440:184|436:80,1,180,4|8,2:0|0:0,0:0:0:0:
276,24,206629,2,0,P|260:108|264:212,1,180,0|2,0:0|0:0,0:0:0:0:
384,352,207165,1,8,0:0:0:0:
384,352,207344,1,0,2:0:0:0:
200,308,207522,2,0,P|156:296|96:288,1,90,2|0,0:0|2:0,0:0:0:0:
152,108,207879,2,0,P|196:120|256:128,1,90,8|0,0:0|2:0,0:0:0:0:
368,140,208237,1,0,0:0:0:0:
484,104,208415,1,2,0:0:0:0:
368,140,208594,2,0,P|360:200|368:240,1,90,8|0,0:0|2:0,0:0:0:0:
475,281,208951,6,0,P|492:193|484:104,1,180,4|8,0:2|0:0,0:0:0:0:
368,36,209487,1,0,0:0:0:0:
368,36,209576,1,0,0:0:0:0:
368,36,209665,2,0,L|272:44,1,90,0|2,0:0|0:0,0:0:0:0:
168,108,210022,1,8,0:0:0:0:
168,108,210201,1,0,2:0:0:0:
368,140,210379,2,0,L|272:148,1,90,0|2,0:2|0:0,0:0:0:0:
168,212,210737,1,8,0:0:0:0:
168,212,210915,5,2,0:0:0:0:
168,212,211004,1,0,0:0:0:0:
168,212,211094,1,0,0:0:0:0:
60,272,211272,1,2,0:0:0:0:
232,320,211451,1,0,0:0:0:0:
72,188,211629,1,2,0:0:0:0:
264,244,211808,6,0,L|448:240,1,180,4|8,0:0|0:0,0:0:0:0:
443,240,212344,2,0,P|472:164|444:72,1,180,0|2,0:0|0:0,0:0:0:0:
152,56,212879,2,0,L|248:60,1,90,8|0,0:0|2:0,0:0:0:0:
353,38,213237,2,0,L|168:32,2,180,2|8|0,0:0|0:0|0:0,0:0:0:0:
464,168,214129,1,2,0:0:0:0:
464,168,214308,2,0,L|374:164,1,90,8|0,0:0|2:0,0:0:0:0:
268,248,214665,2,0,P|204:224|88:272,1,180,4|0,0:2|0:0,0:0:0:0:
176,328,215201,2,0,P|192:232|156:152,1,180,0|2,0:0|0:0,0:0:0:0:
104,60,215737,2,0,L|0:52,1,90,8|0,0:0|2:0,0:0:0:0:
212,44,216094,5,4,0:0:0:0:
192,184,216272,1,0,2:0:0:0:
88,104,216451,1,8,0:0:0:0:
192,184,216629,1,2,0:0:0:0:
188,208,216719,1,0,0:0:0:0:
184,232,216808,1,4,0:0:0:0:
256,352,216987,1,2,0:0:0:0:
320,232,217165,1,0,0:0:0:0:
424,152,217343,1,2,0:0:0:0:
420,128,217433,1,0,0:0:0:0:
416,103,217522,1,4,0:0:0:0:
172,36,217879,6,0,P|172:84|188:148,1,90,8|0,0:0|2:0,2:0:0:0:
320,232,218237,2,0,P|320:184|304:120,1,90,0|2,0:0|0:0,0:0:0:0:
228,288,218594,2,0,P|264:324|392:312,2,180,8|2|8,0:0|0:0|0:0,0:0:0:0:
216,124,219487,1,0,2:0:0:0:
312,204,219665,1,0,0:0:0:0:
228,288,219844,1,2,0:0:0:0:
132,168,220022,2,0,P|120:120|136:68,1,90,8|0,0:0|2:0,0:0:0:0:
312,34,220379,6,0,P|337:119|312:204,1,180,6|8,0:0|0:0,0:0:0:0:
228,288,220915,2,0,L|40:280,1,180,0|2,0:0|0:0,0:0:0:0:
42,164,221451,2,0,L|132:168,1,90,8|0,0:0|2:0,0:0:0:0:
296,204,221808,2,0,P|320:112|296:32,1,180,2|12,0:0|0:0,0:0:0:0:
124,84,222344,1,0,0:0:0:0:
124,84,222433,1,8,0:0:0:0:
124,84,222522,2,0,P|172:92|220:80,1,90,0|2,0:0|0:0,0:0:0:0:
484,92,222879,2,0,P|436:84|388:96,1,90,12|2,0:0|0:0,0:0:0:0:
304,176,223237,6,0,P|284:252|324:352,1,180,4|8,0:0|0:0,0:0:0:0:
384,268,223772,2,0,P|300:256|216:304,1,180,0|2,0:0|0:0,0:0:0:0:
100,336,224308,2,0,L|4:328,1,90,8|0,0:0|2:0,0:0:0:0:
0,188,224665,2,0,L|89:195,1,90,2|0,0:0|2:0,0:0:0:0:
308,260,225022,1,8,0:0:0:0:
308,260,225379,2,0,B|328:204|328:204|312:80,1,180,0|8,0:0|0:0,0:0:0:0:
416,20,225915,1,0,2:0:0:0:
416,20,226094,6,0,L|448:208,1,180,4|8,0:0|0:0,0:0:0:0:
308,260,226629,2,0,P|244:252|136:308,1,180,0|2,0:0|0:0,0:0:0:0:
56,200,227165,2,0,L|64:96,1,90,8|0,0:0|2:0,0:0:0:0:
208,32,227522,2,0,P|184:116|224:212,1,180,0|12,0:0|0:0,0:0:0:0:
352,148,228058,1,0,0:0:0:0:
352,148,228147,1,8,0:0:0:0:
352,148,228237,2,0,L|358:58,1,90,0|4,0:0|0:0,0:0:0:0:
272,240,228594,1,8,0:0:0:0:
392,272,228772,1,2,0:0:0:0:
352,148,228951,6,0,P|292:116|180:160,1,180,4|8,0:2|0:0,0:0:0:0:
92,252,229487,1,0,2:0:0:0:
92,252,229665,2,0,L|-4:244,1,90,0|2,0:0|0:0,0:0:0:0:
168,312,230022,2,0,L|264:304,1,90,8|0,0:0|2:0,0:0:0:0:
392,272,230379,2,0,B|416:216|416:216|400:92,1,180,0|8,0:0|0:0,0:0:0:0:
264,32,230915,1,0,2:0:0:0:
264,32,231094,2,0,L|160:40,1,90,0|2,0:0|0:0,0:0:0:0:
174,38,231451,2,0,P|188:80|180:132,1,90,8|0,0:0|2:0,0:0:0:0:
182,125,231808,6,0,P|96:108|8:148,1,180,4|8,0:0|0:0,0:0:0:0:
24,268,232344,2,0,P|110:285|198:245,1,180,0|2,0:0|0:0,0:0:0:0:
312,288,232879,2,0,P|324:244|324:192,1,90,8|0,0:0|2:0,0:0:0:0:
448,228,233237,2,0,P|448:136|424:48,1,180,2|0,0:0|0:0,0:0:0:0:
300,32,233772,1,0,0:0:0:0:
278,36,233862,1,8,0:0:0:0:
257,40,233951,1,4,0:0:0:0:
100,108,234129,1,2,0:0:0:0:
100,108,234308,1,12,0:0:0:0:
240,200,234487,1,2,0:0:0:0:
240,200,234665,6,0,P|220:252|252:368,1,180,4|0,2:0|0:0,0:0:0:0:
296,144,235201,1,0,2:0:0:0:
296,144,235379,2,0,P|252:124|204:128,1,90,0|2,0:0|0:0,0:0:0:0:
184,256,235737,2,0,P|228:276|276:272,1,90,8|0,0:0|2:0,0:0:0:0:
388,228,236094,2,0,P|420:144|392:60,1,180,4|8,2:0|0:0,0:0:0:0:
232,24,236629,1,0,2:0:0:0:
312,164,236808,1,0,0:0:0:0:
344,52,236987,1,2,0:0:0:0:
200,132,237165,1,8,0:0:0:0:
456,176,237344,1,0,2:0:0:0:
456,176,237522,6,0,P|368:168|284:212,1,180,4|0,2:0|0:0,0:0:0:0:
80,160,238058,2,0,P|168:168|252:124,1,180,4|2,2:0|0:0,0:0:0:0:
12,108,238594,2,0,P|-4:152|4:200,1,90,4|0,2:0|2:0,0:0:0:0:
60,328,238951,5,0,0:0:0:0:
64,332,239308,1,8,0:0:0:0:
340,320,239576,1,0,0:0:0:0:
340,320,239665,1,4,2:0:0:0:
320,192,239844,1,0,0:0:0:0:
184,200,240022,1,0,0:0:0:0:
184,200,240112,1,0,0:0:0:0:
184,200,240201,1,0,0:0:0:0:
184,200,240290,1,0,0:0:0:0:
184,200,240379,6,0,L|84:196,1,90,4|0,0:0|2:0,0:0:0:0:
232,72,240737,2,0,L|321:75,1,90,8|0,0:0|2:0,0:0:0:0:
460,124,241094,2,0,P|492:196|456:288,1,180,4|8,2:0|0:0,0:0:0:0:
340,320,241629,1,0,2:0:0:0:
340,320,241808,2,0,L|244:312,1,90,4|0,0:0|2:0,0:0:0:0:
104,352,242165,2,0,P|72:279|108:187,2,180,8|4|8,0:0|2:0|0:0,0:0:0:0:
184,100,243058,1,8,0:0:0:0:
184,100,243237,6,0,P|144:76|96:76,1,90,4|0,0:0|2:0,0:0:0:0:
106,189,243594,2,0,P|145:212|194:212,1,90,8|0,0:0|2:0,0:0:0:0:
480,168,243951,2,0,P|428:156|332:196,1,135,4|0,2:0|2:0,0:0:0:0:
332,172,244308,2,0,P|344:124|332:80,1,90,8|8,0:0|0:0,0:0:0:0:
160,40,244665,2,0,P|136:128|172:216,1,180,4|8,0:0|0:0,0:0:0:0:
308,316,245201,1,0,0:0:0:0:
332,312,245290,1,0,0:0:0:0:
356,308,245379,1,0,0:0:0:0:
332,172,245558,1,2,0:0:0:0:
192,236,245737,1,8,0:0:0:0:
280,240,245915,1,2,0:0:0:0:
488,248,246094,6,0,P|496:200|496:152,1,90,4|0,0:0|2:0,0:0:0:0:
340,82,246451,2,0,P|332:127|332:172,1,90,8|0,0:0|2:0,0:0:0:0:
192,236,246808,2,0,P|132:216|20:248,1,180,4|8,2:0|0:0,0:0:0:0:
256,300,247344,1,0,2:0:0:0:
256,300,247522,2,0,P|276:236|256:172,1,135,4|0,0:0|2:0,0:0:0:0:
256,172,247879,2,0,L|364:164,1,90,8|0,0:0|2:0,0:0:0:0:
228,64,248237,2,0,L|36:72,1,180,4|8,2:0|0:0,0:0:0:0:
48,71,248772,1,2,0:0:0:0:
48,71,248951,5,4,0:0:0:0:
256,300,249308,2,0,L|352:296,1,90,8|0,0:0|2:0,0:0:0:0:
452,344,249665,2,0,P|480:272|460:172,1,180,4|8,2:0|0:0,0:0:0:0:
388,68,250201,1,0,0:0:0:0:
264,76,250379,1,4,0:0:0:0:
136,84,250558,1,0,2:0:0:0:
8,92,250737,1,8,0:0:0:0:
188,212,250915,2,0,L|124:204,2,45,0|8|0,0:0|0:0|0:0,0:0:0:0:
352,200,251272,1,2,0:0:0:0:
188,212,251451,2,0,L|92:200,1,90,4|2,2:0|0:0,0:0:0:0:
24,336,251808,6,0,L|113:347,1,90,2|0,0:0|2:0,0:0:0:0:
280,348,252165,2,0,P|292:308|280:260,1,90,8|0,0:0|2:0,0:0:0:0:
176,42,252522,2,0,P|157:128|188:212,1,180,4|8,2:0|0:0,0:0:0:0:
352,200,253058,1,0,0:0:0:0:
352,200,253237,2,0,L|456:192,1,90,4|0,0:0|2:0,0:0:0:0:
200,232,253594,2,0,L|96:224,1,90,8|0,0:0|2:0,0:0:0:0:
12,304,253951,2,0,L|192:320,1,180,4|8,2:0|0:0,0:0:0:0:
192,320,254487,1,0,0:0:0:0:
441,192,254665,6,0,L|352:200,1,90,4|0,0:0|2:0,0:0:0:0:
228,144,255022,1,8,0:0:0:0:
228,144,255379,2,0,P|172:132|104:140,1,90,0|2,0:0|0:0,0:0:0:0:
16,64,255737,2,0,P|-4:156|36:240,2,180,8|4|8,0:0|0:0|0:0,0:0:0:0:
220,44,256629,1,0,0:0:0:0:
220,44,256719,1,8,0:0:0:0:
220,44,256808,1,4,0:0:0:0:
172,188,256987,1,2,0:0:0:0:
124,12,257165,1,8,0:0:0:0:
272,188,257344,1,2,0:0:0:0:
32,120,257522,6,0,P|88:112|140:124,1,90,4|0,0:0|2:0,0:0:0:0:
360,185,257879,2,0,P|316:193|272:188,1,90,8|0,0:0|2:0,0:0:0:0:
436,108,258237,2,0,P|460:176|432:248,1,135,4|0,2:0|2:0,0:0:0:0:
442,234,258594,2,0,P|432:280|440:328,1,90,8|0,0:0|0:0,0:0:0:0:
268,356,258951,2,0,P|256:280|276:176,2,180,4|4|0,0:0|2:0|0:0,0:0:0:0:
268,356,259844,1,2,0:0:0:0:
76,328,260022,1,8,0:0:0:0:
268,356,260201,1,2,0:0:0:0:
76,328,260379,6,0,L|72:236,1,90,4|0,0:0|2:0,0:0:0:0:
188,84,260737,2,0,L|184:173,1,90,8|0,0:0|2:0,0:0:0:0:
268,356,261094,2,0,L|264:264,1,90,4|8,0:0|0:0,0:0:0:0:
380,112,261452,2,0,L|376:201,1,90,8|0,0:0|2:0,0:0:0:0:
376,201,261808,6,0,P|264:180|160:224,1,225,4|0,0:0|0:0,0:0:0:0:
40,176,262879,1,0,0:0:0:0:
376,200,263237,5,4,0:0:0:0:
256,192,263326,12,0,264665,0:0:0:0:
104,60,274665,6,0,B|32:140|100:236|100:236|204:200|248:292,1,360,2|2,0:0|0:0,0:0:0:0:
152,316,276808,1,2,0:0:0:0:
280,104,277522,2,0,B|328:84|396:124|348:128|408:84|460:96,2,180,4|0|2,1:0|0:0|0:0,0:0:0:0:
312,192,279665,1,2,0:0:0:0:
312,192,280379,6,0,B|228:372|360:384|428:284|176:252,1,360,2|2,0:0|0:0,0:0:0:0:
12,100,282522,1,2,0:0:0:0:
12,100,283237,2,0,B|148:88|56:116|200:100,2,180,4|0|2,1:0|0:0|0:0,0:0:0:0:
264,156,285379,2,0,P|272:120|276:56,1,90,2|0,0:0|0:0,0:0:0:0:
192,224,286094,6,0,B|280:272|372:212|372:212|452:160|532:216,1,360,6|2,0:0|0:0,0:0:0:0:
368,336,288237,2,0,P|288:360|192:344,2,180,2|4|0,0:0|1:0|0:0,0:0:0:0:
92,272,290379,1,2,0:0:0:0:
196,344,291094,1,2,0:0:0:0:
208,220,291808,5,6,0:0:0:0:
208,220,293237,2,0,B|266:122|196:128|268:236|368:204|368:204|440:172|504:200,1,360,2|2,0:0|0:0,0:0:0:0:
500,200,295737,1,2,0:0:0:0:
256,192,296094,12,0,297165,0:0:0:0:
280,284,297522,6,2,B|312:344|224:364|136:288|312:212|244:116,1,297.000009063721,4|2,1:0|0:0,0:0:0:0:
88,192,298951,1,0,0:0:0:0:
212,40,299665,5,2,0:0:0:0:
212,40,299754,1,0,0:0:0:0:
212,40,299844,1,0,0:0:0:0:
296,52,300022,1,2,0:0:0:0:
380,64,300201,1,2,0:0:0:0:
452,136,300379,6,2,P|404:128|352:156,1,99.0000030212403,4|0,1:0|0:0,0:0:0:0:
384,272,300915,2,2,P|432:280|484:252,1,99.0000030212403,2|0,0:0|2:0,0:0:0:0:
416,204,301451,2,2,B|336:192|336:192|256:212|256:212|152:192,1,247.500007553101,4|0,0:0|2:0,0:0:0:0:
56,320,302522,2,2,B|104:300|104:300|200:320,1,148.50000453186,2|0,0:0|2:0,0:0:0:0:
198,319,303237,6,2,B|248:336|248:336|304:320,1,99.0000030212403,4|0,1:0|0:0,0:0:0:0:
436,332,303772,2,2,P|456:272|440:184,1,148.50000453186
332,48,304665,5,4,0:0:0:0:
80,108,305915,1,2,2:0:0:0:
80,108,306094,1,4,0:0:0:0:
256,324,306808,1,4,0:0:0:0:
475,174,307523,1,4,0:0:0:0:
460,176,307612,1,0,0:0:0:0:
444,177,307701,1,0,0:0:0:0:
428,178,307790,1,0,0:0:0:0:
412,180,307880,1,0,0:0:0:0:
396,181,307969,1,0,0:0:0:0:
380,182,308058,1,0,0:0:0:0:
364,183,308148,1,0,0:0:0:0:
348,185,308237,5,4,0:0:0:0:
216,172,308415,1,0,0:0:0:0:
84,152,308594,1,4,0:2:0:0:
84,152,308951,6,0,L|80:44,1,90,6|0,0:0|0:0,0:0:0:0:
216,172,309308,2,2,L|212:64,1,90,2|0,0:0|0:0,0:0:0:0:
296,260,309665,2,0,P|280:284|256:300,2,45,2|2|0,0:0|0:0|0:0,0:0:0:0:
216,172,310022,1,0,0:0:0:0:
388,332,310201,1,2,0:0:0:0:
488,152,310379,2,2,P|440:148|396:156,1,90,2|0,0:0|0:0,0:0:0:0:
128,168,310737,2,2,P|176:164|220:172,1,90,2|0,0:0|0:0,0:0:0:0:
296,260,311094,1,2,0:0:0:0:
96,276,311272,1,0,0:0:0:0:
172,64,311451,1,2,0:0:0:0:
196,192,311629,1,0,0:0:0:0:
12,88,311808,6,2,P|48:56|172:64,1,180,6|2,0:0|0:0,0:0:0:0:
388,96,312344,1,2,0:0:0:0:
388,96,312522,2,0,P|365:113|337:121,2,45,2|2|0,0:0|0:0|0:0,0:0:0:0:
196,192,312879,2,2,P|196:240|216:288,1,90,2|0,0:0|0:0,0:0:0:0:
392,344,313237,2,2,P|392:296|372:248,1,90,2|0,0:0|0:0,0:0:0:0:
196,192,313594,2,0,L|100:188,1,90,0|0,0:0|0:0,0:0:0:0:
88,200,313862,2,2,P|108:136|88:68,1,135,2|0,0:0|0:0,0:0:0:0:
44,304,314308,1,2,0:0:0:0:
168,288,314487,1,0,0:0:0:0:
296,276,314665,6,0,L|304:172,1,90,2|0,0:0|0:0,0:0:0:0:
392,344,315022,2,0,L|404:160,1,180,2|0,0:0|0:0,0:0:0:0:
264,84,315558,1,0,0:0:0:0:
264,84,315737,2,2,P|152:64|80:112,1,180,2|0,0:0|0:0,0:0:0:0:
8,240,316272,1,0,2:0:0:0:
8,240,316451,2,0,P|64:240|100:220,1,90
16,104,316808,5,0,0:0:0:0:
56,228,316987,1,0,0:0:0:0:
92,352,317165,1,2,0:0:0:0:
92,352,317344,1,0,0:0:0:0:
260,324,317522,6,2,L|460:312,1,180
480,188,318058,1,0,0:0:0:0:
480,188,318237,2,0,B|496:140|496:140|476:92,1,90
292,144,318594,2,0,B|280:192|280:192|300:240,1,90,2|0,0:0|0:0,0:0:0:0:
384,292,318951,2,2,B|392:228|392:228|376:188|376:188|392:96,1,180
200,56,319487,1,2,0:0:0:0:
200,56,319576,1,0,0:0:0:0:
200,56,319665,1,4,0:0:0:0:
96,116,319844,1,2,0:0:0:0:
164,224,320022,1,4,0:0:0:0:
268,164,320201,1,2,0:0:0:0:
40,224,320379,6,2,P|36:276|48:320,1,90,6|0,0:0|0:0,0:0:0:0:
272,252,320737,2,2,P|277:207|268:164,1,90,2|0,0:0|0:0,0:0:0:0:
96,116,321094,2,0,L|40:112,2,45,2|2|0,0:0|0:0|0:0,0:0:0:0:
268,164,321451,1,0,0:0:0:0:
392,156,321629,1,2,0:0:0:0:
508,144,321808,1,2,0:0:0:0:
504,148,321987,1,0,0:0:0:0:
364,296,322165,1,2,0:0:0:0:
368,300,322344,1,0,0:0:0:0:
392,156,322522,6,2,P|392:104|380:60,1,90,2|0,0:0|0:0,0:0:0:0:
176,32,322879,2,2,P|176:84|188:128,1,90,2|0,0:0|0:0,0:0:0:0:
260,348,323237,2,2,P|280:264|252:176,1,180,6|2,0:0|0:0,0:0:0:0:
88,192,323772,1,0,0:0:0:0:
88,192,323951,2,0,L|32:188,2,45,2|2|0,0:0|0:0|0:0,0:0:0:0:
284,192,324308,1,2,0:0:0:0:
184,88,324487,1,0,0:0:0:0:
188,288,324665,2,2,P|288:312|360:280,1,180
456,76,325201,5,0,0:0:0:0:
456,76,325290,1,0,0:0:0:0:
456,76,325379,1,0,0:0:0:0:
320,88,325558,1,2,0:0:0:0:
184,88,325737,1,0,0:0:0:0:
160,85,325826,1,0,0:0:0:0:
136,82,325915,1,0,0:0:0:0:
112,80,326004,1,0,0:0:0:0:
88,77,326094,5,4,0:0:0:0:
168,340,326451,2,0,L|272:332,1,90,8|0,0:0|2:0,0:0:0:0:
424,220,326808,2,0,L|320:212,1,90,8|0,0:0|0:0,0:0:0:0:
80,272,327165,1,8,0:0:0:0:
168,340,327344,1,8,0:0:0:0:
176,232,327522,5,4,0:0:0:0:
424,220,327879,2,0,L|420:128,1,90,8|0,0:0|2:0,0:0:0:0:
280,36,328237,2,0,L|283:125,1,90,8|0,0:0|0:0,0:0:0:0:
368,324,328594,1,8,0:0:0:0:
500,320,328772,1,8,0:0:0:0:
284,252,328951,6,0,P|264:292|264:344,1,90,4|0,0:0|2:0,0:0:0:0:
336,132,329308,2,0,P|280:116|188:164,1,135,0|0,0:0|2:0,0:0:0:0:
196,160,329665,2,0,L|188:64,1,90,12|0,0:0|0:0,0:0:0:0:
32,40,330022,2,0,L|39:129,1,90,8|12,0:0|0:0,0:0:0:0:
160,328,330379,5,4,1:2:0:0:
272,264,330558,1,0,2:0:0:0:
196,160,330737,2,0,P|112:148|40:216,1,161.999995056153,8|8,0:0|0:0,0:0:0:0:
272,264,331094,2,0,P|336:268|376:232,1,107.999996704102,4|0,0:2|0:0,0:0:0:0:
300,24,331451,5,4,0:0:0:0:
296,44,331540,1,0,0:0:0:0:
296,64,331629,1,0,0:0:0:0:
296,84,331719,1,0,0:0:0:0:
300,104,331808,2,0,P|312:160|304:200,1,90,4|0,0:0|2:0,0:0:0:0:
176,332,332165,2,0,P|164:276|172:236,1,90,8|0,0:0|2:0,0:0:0:0:
169,244,332522,2,0,P|268:256|351:295,1,180,4|8,2:0|0:0,0:0:0:0:
496,172,333058,1,0,2:0:0:0:
496,172,333237,6,0,P|448:160|408:144,1,90,4|0,0:0|2:0,0:0:0:0:
180,108,333594,2,0,P|224:108|272:100,1,90,8|0,0:0|2:0,0:0:0:0:
56,56,333951,2,0,P|40:148|80:220,1,180,4|8,2:0|0:0,0:0:0:0:
220,272,334487,1,8,0:0:0:0:
220,272,334665,2,0,L|320:268,1,90,4|0,0:0|2:0,0:0:0:0:
512,332,335022,2,0,P|452:316|384:340,1,135,8|0,0:0|2:0,0:0:0:0:
384,340,335379,1,4,2:0:0:0:
244,348,335558,1,0,0:0:0:0:
276,136,335737,1,8,0:0:0:0:
296,248,335915,1,0,0:0:0:0:
188,96,336094,6,0,P|268:52|348:76,1,180,4|8,0:0|0:0,0:0:0:0:
72,180,336629,1,0,0:0:0:0:
72,180,336719,1,8,0:0:0:0:
72,180,336808,2,0,P|60:136|76:68,1,90
276,136,337165,2,0,P|288:179|272:247,1,90,8|0,0:0|0:0,0:0:0:0:
85,341,337522,6,0,P|45:263|72:180,2,180,4|8|4,0:0|0:0|2:0,0:0:0:0:
212,332,338415,1,0,0:0:0:0:
340,324,338594,1,8,0:0:0:0:
460,312,338772,1,0,0:0:0:0:
464,184,338951,6,0,L|472:88,1,90,4|0,0:0|2:0,0:0:0:0:
344,208,339308,2,0,L|352:112,1,90,8|0,0:0|2:0,0:0:0:0:
216,236,339665,2,0,L|236:36,1,180,4|8,2:0|0:0,0:0:0:0:
233,56,340201,1,8,0:0:0:0:
52,140,340379,1,4,0:0:0:0:
52,140,340558,1,0,2:0:0:0:
216,236,340737,2,0,L|336:228,1,90,8|0,0:0|2:0,0:0:0:0:
472,296,341094,2,0,B|496:248|496:248|476:112,1,180,4|8,2:0|0:0,0:0:0:0:
312,60,341629,1,0,2:0:0:0:
312,60,341808,6,0,P|248:40|128:96,1,180,4|8,0:0|0:0,0:0:0:0:
216,236,342344,1,0,0:0:0:0:
216,236,342433,1,0,0:0:0:0:
216,236,342522,1,0,0:0:0:0:
145,76,342701,1,0,0:0:0:0:
32,212,342879,1,4,0:0:0:0:
136,172,343058,1,4,2:0:0:0:
312,60,343237,6,0,L|412:52,1,90,2|0,0:0|2:0,0:0:0:0:
305,243,343594,2,0,L|216:236,1,90,4|0,2:0|2:0,0:0:0:0:
392,332,343951,2,0,P|424:244|388:164,1,180,4|8,2:0|0:0,0:0:0:0:
136,172,344487,1,0,2:0:0:0:
136,172,344665,2,0,P|103:90|136:8,2,180,4|8|4,0:0|0:0|2:0,0:0:0:0:
272,248,345558,1,0,2:0:0:0:
136,172,345737,1,8,0:0:0:0:
48,288,345915,1,8,0:0:0:0:
276,144,346094,6,0,P|284:96|276:48,1,90,4|0,0:0|2:0,0:0:0:0:
278,55,346451,2,0,P|332:56|376:44,1,90,8|0,0:0|2:0,0:0:0:0:
512,204,346808,2,0,P|464:188|344:228,1,180,4|8,2:0|0:0,0:0:0:0:
108,164,347344,1,0,2:0:0:0:
108,164,347522,2,0,P|164:180|284:140,1,180,4|8,0:0|0:0,0:0:0:0:
16,220,348058,1,8,0:0:0:0:
16,220,348147,1,0,0:0:0:0:
16,220,348237,2,0,P|12:268|24:308,1,90
220,312,348594,2,0,P|224:264|212:223,1,90,8|2,0:0|0:0,0:0:0:0:
212,224,348951,6,0,P|188:136|216:48,2,180,4|8|4,0:0|0:0|2:0,0:0:0:0:
412,196,349844,1,0,0:0:0:0:
240,124,350022,1,8,0:0:0:0:
352,288,350201,1,0,2:0:0:0:
356,104,350379,2,0,P|368:56|360:8,1,90,4|0,0:0|2:0,0:0:0:0:
240,124,350737,2,0,P|192:116|140:128,1,90,8|0,0:0|2:0,0:0:0:0:
12,248,351094,2,0,P|96:268|196:248,1,180,4|8,2:0|0:0,0:0:0:0:
352,288,351629,1,0,0:0:0:0:
352,288,351808,6,0,P|416:268|484:276,1,135,4|0,0:0|2:0,0:0:0:0:
482,275,352165,2,0,L|488:176,1,90,8|0,0:0|2:0,0:0:0:0:
236,24,352522,2,0,P|228:104|248:204,1,180,4|8,2:0|0:0,0:0:0:0:
352,288,353058,1,0,2:0:0:0:
352,288,353237,5,4,2:0:0:0:
88,120,353594,1,4,0:2:0:0:
348,36,353862,1,0,2:0:0:0:
348,36,353951,1,4,0:0:0:0:
288,120,354129,1,0,0:0:0:0:
376,180,354308,1,4,2:0:0:0:
436,96,354486,1,0,0:0:0:0:
88,120,354665,6,0,L|188:124,1,90,4|0,0:0|2:0,0:0:0:0:
396,236,355022,2,0,L|296:240,1,90,4|0,2:0|2:0,0:0:0:0:
188,328,355379,1,4,2:0:0:0:
188,328,355558,1,0,0:0:0:0:
460,308,355737,2,0,P|484:252|471:170,1,135,8|0,0:0|2:0,0:0:0:0:
476,180,356094,2,0,P|464:132|476:88,1,90,4|0,0:0|2:0,0:0:0:0:
352,40,356451,2,0,P|295:31|251:39,1,90,4|0,2:0|2:0,0:0:0:0:
164,160,356808,2,0,P|220:168|264:160,1,90,4|0,2:0|0:0,0:0:0:0:
252,164,357165,2,0,P|244:216|256:264,1,90,8|0,0:0|2:0,0:0:0:0:
380,312,357522,6,0,P|404:227|380:135,2,180,4|4|4,0:0|2:0|2:0,0:0:0:0:
160,224,358415,1,0,0:0:0:0:
16,192,358594,1,8,0:0:0:0:
52,324,358772,1,0,2:0:0:0:
52,324,358951,2,0,P|136:348|226:322,1,180,4|4,0:0|2:0,0:0:0:0:
360,256,359487,1,0,2:0:0:0:
360,256,359576,1,0,0:0:0:0:
360,256,359665,2,0,P|372:208|368:168,1,90,4|0,2:0|0:0,0:0:0:0:
148,32,360022,2,0,P|136:79|140:120,1,90,8|8,0:0|0:0,0:0:0:0:
424,36,360379,6,0,L|328:44,1,90,4|0,0:0|2:0,0:0:0:0:
392,144,360737,2,0,L|296:152,1,90,4|0,2:0|2:0,0:0:0:0:
360,256,361094,2,0,L|264:264,1,90,4|0,2:0|0:0,0:0:0:0:
25,310,361451,2,0,P|85:294|169:314,1,135,8|0,0:0|2:0,0:0:0:0:
156,308,361808,2,0,P|145:258|157:218,1,90,4|0,0:0|2:0,0:0:0:0:
280,32,362165,1,4,2:0:0:0:
308,192,362344,1,0,2:0:0:0:
208,124,362522,1,4,2:0:0:0:
208,124,362701,1,0,2:0:0:0:
392,88,362879,2,0,P|444:80|500:84,1,90,8|8,0:0|0:0,0:0:0:0:
456,340,363237,6,0,P|436:292|456:200,1,135,4|0,0:0|2:0,0:0:0:0:
448,211,363594,2,0,L|340:204,1,90,4|0,2:0|2:0,0:0:0:0:
72,240,363951,2,0,P|168:240|236:192,1,180,4|8,2:0|0:0,0:0:0:0:
196,52,364487,1,0,2:0:0:0:
196,52,364665,2,0,P|100:52|32:100,1,180,4|4,0:0|2:0,0:0:0:0:
320,112,365201,6,0,P|348:108|376:92,2,45,0|0|0,2:0|0:0|0:0,0:0:0:0:
136,144,365558,1,0,0:0:0:0:
136,144,365737,1,4,2:0:0:0:
320,112,365915,1,4,0:0:0:0:
208,252,366094,6,0,L|200:360,1,90,4|0,0:0|2:0,0:0:0:0:
376,308,366451,2,0,L|382:218,1,90,4|0,2:0|2:0,0:0:0:0:
220,28,366808,2,0,P|216:88|232:132,1,90,4|0,2:0|0:0,0:0:0:0:
448,160,367165,2,0,P|464:88|440:24,1,135,8|0,0:0|2:0,0:0:0:0:
452,20,367522,2,0,L|354:28,1,90,4|0,0:0|2:0,0:0:0:0:
120,116,367879,2,0,L|217:124,1,90,4|0,2:0|2:0,0:0:0:0:
448,160,368237,2,0,P|396:168|344:192,1,90,4|8,2:0|0:0,0:0:0:0:
360,348,368594,6,0,P|392:260|360:180,2,180,8|4|8,0:0|0:0|0:0,0:0:0:0:
188,264,369487,1,0,2:0:0:0:
188,264,369576,1,0,2:0:0:0:
188,264,369665,2,0,P|236:252|280:256,1,90,4|0,2:0|0:0,0:0:0:0:
104,320,370022,2,0,P|56:332|12:328,1,90,4|0,2:0|2:0,0:0:0:0:
56,84,370379,2,0,P|76:140|60:212,1,135,4|0,0:0|2:0,0:0:0:0:
60,211,370737,1,4,2:0:0:0:
272,44,371004,1,0,2:0:0:0:
272,44,371094,2,0,L|372:36,1,90,0|2,0:0|0:0,0:0:0:0:
145,91,371451,2,0,L|56:84,1,90,8|8,0:0|0:0,0:0:0:0:
240,160,371808,6,0,B|300:136|300:136|424:152,2,180,4|8|4,0:0|0:0|2:0,0:0:0:0:
32,216,372701,1,0,0:0:0:0:
32,216,372879,1,4,2:0:0:0:
248,284,373058,1,0,0:0:0:0:
248,284,373237,2,0,P|188:288|144:304,1,90,4|0,0:0|2:0,0:0:0:0:
360,344,373594,2,0,P|420:340|464:324,1,90,8|0,0:0|2:0,0:0:0:0:
512,160,373951,2,0,P|428:160|340:220,1,180,4|8,2:0|0:0,0:0:0:0:
348,209,374487,1,8,0:0:0:0:
204,120,374665,6,0,L|96:124,1,90,4|0,0:0|2:0,0:0:0:0:
128,240,375022,2,0,L|224:236,1,90,0|0,0:0|2:0,0:0:0:0:
396,96,375379,1,4,0:0:0:0:
396,96,375558,1,8,0:0:0:0:
204,120,375736,1,0,0:0:0:0:
436,292,376094,6,0,P|330:261|228:314,1,225,4|0,0:0|0:0,0:0:0:0:
76,264,377165,1,4,2:0:0:0:
312,176,377522,5,4,0:0:0:0:
256,192,377612,12,2,380379,0:0:0:0:
