osu file format v6

[General]
AudioFilename: East Rockerz - Sound Of My Dreams (DJ Splash Remix).mp3
AudioLeadIn: 0
PreviewTime: 88601
Countdown: 0
SampleSet: Soft
StackLeniency: 0.7
Mode: 0
LetterboxInBreaks: 1

[Editor]
DistanceSpacing: 1
BeatDivisor: 4
GridSize: 8

[Metadata]
Title:Sound Of My Dreams (DJ Splash Remix)
Artist:East Rockerz
Creator:osuplayer111
Version:Sky
Source:
Tags:Techno Trance Jak64 xxheroxx jericho2442 lthefuryl

[Difficulty]
HPDrainRate:7
CircleSize:4
OverallDifficulty:7
SliderMultiplier:1.6
SliderTickRate:1

[Events]
//Background and Video events
0,0,"Sky BG.jpg"
//Break Periods
//Storyboard Layer 0 (Background)
Sprite,Background,Centre,"Sky BG.jpg",320,240 S,0,-53,,0.811202 F,0,-53,877,0,0.1358422 F,0,877,1705,0.1358422,0.2545399 F,0,1705,2532,0.2545399,0.4492115 F,0,2532,3360,0.4492115,0.616901 F,0,3360,4187,0.616901,0.7577775 F,0,4187,5015,0.7577775,0.8976288 F,0,5015,5842,0.8976288,1 F,0,5842,115498,1,0.9744 F,0,115498,115601,0.9744,0.9029257 F,0,115601,115705,0.9029257,0.7859598 F,0,115705,115808,0.7859598,0.6904284 F,0,115808,115911,0.6904284,0.5905783 F,0,115911,116015,0.5905783,0.5325716 F,0,116015,116118,0.5325716,0.4392064 F,0,116118,116222,0.4392064,0.367189 F,0,116222,116325,0.367189,0.2855397 F,0,116325,116429,0.2855397,0.2098179 F,0,116429,116532,0.2098179,0.1347465 F,0,116532,116636,0.1347465,0.07582478 F,0,116636,116739,0.07582478,0 F,0,116739,128222,0 F,0,128222,128313,0,1 F,0,128313,128325,1,0
//Storyboard Layer 1 (Fail)
//Storyboard Layer 2 (Pass)
//Storyboard Layer 3 (Foreground)
Sprite,Foreground,Centre,"Sky BG.jpg",320,240 M,0,19084,,320,240 F,0,19084,19291,1,0 S,0,19084,19291,0.813597,0.8523197 F,0,19291,25601,0 S,0,19291,25705,0.8523197,0.809639 F,0,25601,25705,0,1 S,0,25601,25911,0.816345,0.8519238 F,0,25705,25911,1,0 S,0,25705,25911,0.809639,0.8519238 F,0,25911,,0 F,0,25911,36360,0 S,0,25911,36360,0.8519238,0.805662 F,0,36360,36463,0,1 S,0,36360,36463,0.805662 F,0,36463,36670,1,0 S,0,36463,36670,0.805662,0.8515261 F,0,36670,38015,0 S,0,36670,38015,0.8515261,0.806084 F,0,38015,38118,0,1 S,0,38015,38118,0.806084 F,0,38118,38325,1,0 S,0,38118,38325,0.806084,0.8513284 F,0,38325,41325,0 S,0,38325,41325,0.8513284,0.803684 F,0,41325,41429,0,1 S,0,41325,41429,0.803684 F,0,41429,41636,1,0 S,0,41429,41636,0.803684,0.8513283 F,0,41636,42980,0 S,0,41636,42980,0.8513283,0.803683 F,0,42980,43084,0,1 S,0,42980,43084,0.803683 F,0,43084,43291,1,0 S,0,43084,43291,0.803683,0.8513282 F,0,43291,44636,0 S,0,43291,44636,0.8513282,0.803682 F,0,44636,44739,0,1 S,0,44636,44739,0.803682 F,0,44739,44946,1,0 S,0,44739,44946,0.803682,0.8513281 F,0,44946,47118,0 S,0,44946,47118,0.8513281,0.803682 F,0,47118,47222,0,1 S,0,47118,47222,0.803682 F,0,47222,47429,1,0 S,0,47222,47429,0.803682,0.851328 F,0,47429,49601,0 S,0,47429,49601,0.851328,0.803681 F,0,49601,49705,0,1 S,0,49601,49705,0.803681 F,0,49705,49911,1,0 S,0,49705,49911,0.803681,0.851328 F,0,49911,51256,0 S,0,49911,51256,0.851328,0.803681 F,0,51256,51360,0,1 S,0,51256,51360,0.803681 F,0,51360,51567,1,0 S,0,51360,51567,0.803681,0.8513278 F,0,51567,54567,0 S,0,51567,54567,0.8513278,0.803678 F,0,54567,54670,0,1 S,0,54567,54670,0.803678 F,0,54670,54877,1,0 S,0,54670,54877,0.803678,0.8513278 F,0,54877,56222,0 S,0,54877,56222,0.8513278,0.803678 F,0,56222,56325,0,1 S,0,56222,56325,0.803678 F,0,56325,56532,1,0 S,0,56325,56532,0.803678,0.8513279 F,0,56532,57877,0 S,0,56532,57877,0.8513279,0.899722 F,0,57877,57980,0,1 S,0,57877,57980,0.899722 F,0,57980,58187,1,0 S,0,57980,58187,0.899722,0.8509322 F,0,58187,75256,0 S,0,58187,75256,0.8509322,0.899722 F,0,75256,75360,0,1 S,0,75256,75360,0.899722 F,0,75360,75567,1,0 S,0,75360,75567,0.899722,0.8509322 F,0,75567,88498,0 S,0,75567,88498,0.8509322,0.869054 F,0,88498,88601,0,1 S,0,88498,88601,0.869054 F,0,88601,88808,1,0 S,0,88601,88808,0.869054,0.8578654 F,0,88808,90980,0 S,0,88808,90980,0.8578654,0.869053 F,0,90980,91084,0,1 S,0,90980,91084,0.869053 F,0,91084,91291,1,0 S,0,91084,91291,0.869053,0.8578654 F,0,91291,92636,0 S,0,91291,92636,0.8578654,0.867074 F,0,92636,92739,0,1 S,0,92636,92739,0.867074 F,0,92739,92946,1,0 S,0,92739,92946,0.867074,0.8576674 F,0,92946,95946,0 S,0,92946,95946,0.8576674,0.867074 F,0,95946,96049,0,1 S,0,95946,96049,0.867074 F,0,96049,96256,1,0 S,0,96049,96256,0.867074,0.8576674 F,0,96256,97601,0 S,0,96256,97601,0.8576674,0.867074 F,0,97601,97705,0,1 S,0,97601,97705,0.867074 F,0,97705,97911,1,0 S,0,97705,97911,0.867074,0.8576674 F,0,97911,99256,0 S,0,97911,99256,0.8576674,0.867074 F,0,99256,99360,0,1 S,0,99256,99360,0.867074 F,0,99360,99567,1,0 S,0,99360,99567,0.867074,0.8576674 F,0,99567,100911,0 S,0,99567,100911,0.8576674,0.867073 F,0,100911,101015,0,1 S,0,100911,101015,0.867073 F,0,101015,101222,1,0 S,0,101015,101222,0.867073,0.8576674 F,0,101222,102567,0 S,0,101222,102567,0.8576674,0.863117 F,0,102567,102670,0,1 S,0,102567,102670,0.863117 F,0,102670,102877,1,0 S,0,102670,102877,0.863117,0.8572717 F,0,102877,104222,0 S,0,102877,104222,0.8572717,0.863118 F,0,104222,104325,0,1 S,0,104222,104325,0.863118 F,0,104325,104532,1,0 S,0,104325,104532,0.863118,0.8572719 F,0,104532,105877,0 S,0,104532,105877,0.8572719,0.863118 F,0,105877,105980,0,1 S,0,105877,105980,0.863118 F,0,105980,106187,1,0 S,0,105980,106187,0.863118,0.8572718 F,0,106187,107532,0 S,0,106187,107532,0.8572718,0.863117 F,0,107532,107636,0,1 S,0,107532,107636,0.863117 F,0,107636,107843,1,0 S,0,107636,107843,0.863117,0.8572717 F,0,107843,109187,0 S,0,107843,109187,0.8572717,0.863116 F,0,109187,109291,0,1 S,0,109187,109291,0.863116 F,0,109291,109498,1,0 S,0,109291,109498,0.863116,0.8572716 F,0,109498,110843,0 S,0,109498,110843,0.8572716,0.863115 F,0,110843,110946,0,1 S,0,110843,110946,0.863115 F,0,110946,111153,1,0 S,0,110946,111153,0.863115,0.8572714 F,0,111153,112498,0 S,0,111153,112498,0.8572714,0.863115 F,0,112498,112601,0,1 S,0,112498,112601,0.863115 F,0,112601,112808,1,0 S,0,112601,112808,0.863115,0.8572715
//Storyboard Sound Samples
Sample,18175,3,"soft-hitclap.wav",100
Sample,18382,3,"soft-hitclap.wav",100
Sample,22002,3,"soft-hitclap.wav",100
Sample,28623,3,"soft-hitclap.wav",100
Sample,30278,3,"soft-hitclap.wav",100
Sample,31416,3,"soft-hitclap.wav",100
Sample,31623,3,"soft-hitclap.wav",100
Sample,38554,3,"normal-hitclap.wav",100
Sample,39382,3,"normal-hitclap.wav",100
Sample,45175,3,"normal-hitclap.wav",100
Sample,51796,3,"normal-hitclap.wav",100
Sample,52623,3,"normal-hitclap.wav",100
Sample,56761,3,"normal-hitclap.wav",100
Sample,58416,3,"normal-hitclap.wav",100
Sample,72485,3,"normal-hitclap.wav",100
Sample,74140,3,"normal-hitclap.wav",100
Sample,75796,3,"normal-hitclap.wav",100
Sample,77451,3,"normal-hitclap.wav",100
Sample,84071,3,"normal-hitclap.wav",100
Sample,85727,3,"normal-hitclap.wav",100
Sample,89865,3,"normal-hitclap.wav",100
Sample,91520,3,"normal-hitclap.wav",100
Sample,93175,3,"normal-hitclap.wav",100
Sample,94002,3,"normal-hitclap.wav",100
Sample,98140,3,"normal-hitclap.wav",100
Sample,106416,3,"normal-hitclap.wav",100
Sample,107244,3,"normal-hitclap.wav",100
Sample,109727,3,"normal-hitclap.wav",100
Sample,111382,3,"normal-hitclap.wav",100
Sample,113037,3,"normal-hitclap.wav",100
//Background Colour Transformations
3,100,163,162,255

[TimingPoints]
5865,413.793103448276,4,2,1,70,1,0
16498,-200,4,2,1,70,0,0
17118,-100,4,2,1,70,0,0
17325,-100,4,2,1,85,0,0
19291,-100,4,2,1,100,0,0
30360,-200,4,2,1,100,0,0
30980,-100,4,2,1,100,0,0
33980,-100,4,1,1,100,0,0
35739,-100,4,2,1,100,0,0
36360,-100,4,1,1,100,0,0
37394,-100,4,2,1,100,0,0
38118,-100,4,1,1,100,0,0
40705,-100,4,2,1,100,0,0
40911,-100,4,1,1,100,0,0
41118,-100,4,2,1,100,0,0
41325,-100,4,1,1,100,0,0
42360,-100,4,2,1,100,0,0
42670,-100,4,1,1,100,0,0
42774,-100,4,2,1,100,0,0
42980,-100,4,1,1,100,0,0
44015,-100,4,2,1,100,0,0
44222,-100,4,1,1,100,0,0
44429,-100,4,2,1,100,0,0
44636,-100,4,1,1,100,0,0
48980,-100,4,2,1,100,0,0
49187,-100,4,1,1,100,0,0
49394,-100,4,2,1,100,0,0
49601,-100,4,1,1,100,0,0
50636,-100,4,2,1,100,0,0
50946,-100,4,1,1,100,0,0
51049,-100,4,2,1,100,0,0
51360,-100,4,1,1,100,0,0
53946,-100,4,2,1,100,0,0
54256,-100,4,1,1,100,0,0
54360,-100,4,2,1,100,0,0
54567,-100,4,1,1,100,0,0
55601,-100,4,2,1,100,0,0
55808,-100,4,1,1,100,0,0
56015,-100,4,2,1,100,0,0
56222,-100,4,1,1,100,0,0
57256,-100,4,2,1,100,0,0
57463,-100,4,1,1,100,0,0
57670,-100,4,2,1,100,0,0
57877,-100,4,1,1,100,0,0
58808,-100,4,2,1,100,0,0
59118,-100,4,1,1,100,0,0
59325,-100,4,2,1,100,0,0
59946,-100,4,1,1,100,0,0
60153,-100,4,2,1,100,0,0
62118,-100,4,1,1,100,0,0
88601,-100,4,1,1,100,0,1
110015,-200,4,1,1,100,0,1
110636,-100,4,1,1,100,0,1
113015,-200,4,1,1,100,0,1
113532,-100,4,1,1,0,0,1
113843,-100,4,1,1,100,0,0
115084,-100,4,1,1,100,0,1
115498,-100,4,1,1,100,0,0

[Colours]
Combo1 : 0,0,255
Combo2 : 0,128,255
Combo3 : 0,128,192
Combo4 : 0,64,128

[HitObjects]
16,32,5864,1,2
96,32,6071,1,0
176,32,6278,1,2
256,32,6485,1,0
336,32,6692,1,2
416,32,6899,1,0
496,32,7106,1,2
496,112,7313,1,0
496,192,7520,1,2
496,352,7727,5,0
416,352,7933,1,2
336,352,8140,1,0
256,352,8347,1,2
176,352,8554,1,0
96,352,8761,1,2
16,352,8968,1,0
16,272,9175,1,2
16,192,9382,1,0
184,136,9589,6,0,B|157:95|191:44,1,80,2|0
256,32,10002,1,2
328,64,10209,2,0,B|355:105|321:156,1,80,0|2
184,240,10623,2,0,B|211:281|177:332,1,80,0|2
256,352,11037,1,0
336,312,11244,2,0,B|309:271|343:220,1,80,2|0
256,192,11658,1,2
16,32,12071,1,0
496,32,12485,1,2
416,144,12692,6,0,B|312:144,1,80,0|2
96,240,13106,2,0,B|184:240,1,80,0|2
416,240,13520,2,0,B|320:240,1,80,0|2
96,144,13933,2,0,B|208:144,1,80,0|2
256,32,14347,5,0
256,32,14554,2,0,B|256:120,1,80,2|0
256,352,14968,1,2
256,352,15175,2,0,B|256:256,1,80,0|2
96,192,15589,1,0
96,192,15796,2,0,B|192:192,1,80,2|0
216,120,16209,1,2
256,192,16416,1,0
416,192,16623,6,0,B|320:192,1,80,2|0
256,192,17244,1,0
216,120,17451,1,2
96,120,17761,1,2
32,224,18071,1,0
32,304,18278,2,0,B|96:360,1,80,2|0
176,352,18692,1,2
216,352,18796,1,0
256,352,18899,2,0,B|320:352,2,40,0|0|2
256,192,19520,5,8
256,112,19727,1,0
320,64,19933,2,0,B|344:8|384:8|408:88,1,120,2|0
440,64,20347,1,8
480,136,20554,1,0
424,192,20761,1,2
424,272,20968,2,0,B|320:272,1,80,0|8
264,272,21382,6,0,B|220:352,1,80,0|2
104,344,21899,1,0
24,256,22209,2,0,B|24:160,1,80,0|2
96,152,22623,1,0
48,88,22830,1,8
128,72,23037,1,0
128,72,23244,6,0,B|176:144|232:144,1,120,2|0
256,160,23658,1,8
328,192,23864,1,0
256,240,24071,2,0,B|304:296|248:360,1,120,2|0
216,352,24485,1,8
136,352,24692,1,0
56,352,24899,2,0,B|56:264,1,80,2|0
56,192,25313,2,0,B|136:248|224:176,1,160,8|2
256,128,25933,1,0
256,128,26140,1,8
256,128,26347,1,0
312,192,26554,6,0,B|368:232|440:184,1,120,2|0
464,192,26968,1,8
464,272,27175,2,0,B|424:352,1,80,0|2
344,344,27589,2,0,B|256:344,1,80,0|8
184,344,28002,2,0,B|96:344,1,80,0|2
32,248,28520,1,0
72,136,28830,2,0,B|136:72,1,80,0|2
208,80,29244,1,0
256,16,29451,1,8
304,80,29658,6,0,B|368:136,1,80,0|2
256,184,30175,1,0
208,288,30485,2,0,B|144:232,1,80,2|0
152,152,31106,1,2
192,80,31313,1,0
256,128,31520,1,0
320,80,31727,1,0
352,152,31933,1,2
320,224,32140,1,0
256,272,32347,1,4
256,208,32451,12,2,34002
448,192,34416,5,8
384,144,34623,1,0
320,96,34830,2,0,B|264:16|152:32,1,160,2|8
104,32,35451,1,0
64,104,35658,1,2
32,176,35865,1,2
32,176,35968,1,0
32,176,36071,2,0,B|104:240,1,80,2|0
176,224,36485,6,0,B|240:168,1,80,2|0
256,96,36899,1,8
304,32,37106,1,0
352,96,37313,1,2
400,32,37520,1,2
400,32,37623,1,0
400,32,37727,1,2
448,96,37933,6,0,B|417:132|453:176,1,80,0|2
488,280,38451,1,0
392,352,38761,1,0
352,280,38968,2,0,B|216:280,1,120,2|0
112,280,39589,1,0
80,256,39692,1,0
48,232,39796,1,2
40,152,40002,1,0
40,72,40209,2,0,B|112:24|200:80,1,160,2|2
256,120,40830,5,2
256,120,41037,1,8
256,120,41244,1,2
256,120,41451,2,0,B|424:120,1,160,2|8
456,192,42071,1,0
408,256,42278,1,2
352,312,42485,2,0,B|256:312,1,80,2|8
192,312,42899,1,2
112,312,43106,6,0,B|48:304|24:232,1,120,2|0
24,200,43520,1,8
72,136,43727,1,0
16,80,43933,1,2
72,24,44140,1,2
128,80,44347,1,8
208,80,44554,1,2
208,80,44761,5,2
256,192,45071,1,0
304,304,45382,1,0
304,304,45589,2,0,B|360:336|400:272|464:312,1,160,2|8
480,232,46209,1,0
408,192,46416,1,2
480,152,46623,1,0
480,112,46727,1,0
480,72,46830,1,2
480,32,46933,1,0
440,32,47037,2,0,B|392:32,2,40,0|0|2
408,192,47658,5,8
256,136,48071,2,0,B|224:72|224:72|128:72,1,160,2|8
88,136,48692,1,0
32,192,48899,1,2
32,272,49106,1,2
88,328,49313,1,8
168,336,49520,1,2
248,336,49727,6,0,B|296:328|328:272|320:200,1,160,2|8
256,160,50347,1,0
216,96,50554,1,2
256,24,50761,2,0,B|344:24,1,80,2|8
472,88,51175,6,0,B|384:88,1,80,2|2
256,160,51692,1,0
256,280,52002,1,0
320,224,52209,2,0,B|456:224,2,120,2|0|0
256,280,53037,1,2
104,224,53451,1,8
256,160,53865,1,2
256,80,54071,5,2
256,80,54175,1,0
256,80,54278,1,8
184,40,54485,1,2
184,40,54692,2,0,B|56:40,1,120,2|0
32,64,55106,1,8
96,120,55313,1,0
32,176,55520,1,2
96,232,55727,5,2
32,288,55933,1,8
96,344,56140,1,2
160,288,56347,2,0,B|288:288,2,120,2|0|0
152,208,57175,1,2
184,136,57382,1,2
256,104,57589,1,8
328,136,57796,1,2
360,208,58002,6,0,B|504:208,2,120,2|0|2
256,328,59037,1,2
184,288,59244,1,8
160,216,59451,1,2
184,144,59658,1,0
256,104,59865,1,2
328,144,60071,1,8
360,216,60278,1,2
328,288,60485,1,4
256,208,60589,12,6,62140
192,192,62347,5,0
256,144,62554,1,8
320,192,62761,1,0
256,240,62968,1,0
256,320,63175,1,0
256,320,63278,1,0
256,320,63382,1,8
328,280,63589,5,2
408,280,63796,2,0,B|488:136,1,160,2|8
448,64,64416,1,2
448,64,64520,1,0
368,40,64727,1,0
368,40,64830,1,0
288,64,65037,1,8
288,64,65140,1,0
288,64,65244,1,2
256,136,65451,5,2
200,192,65658,2,0,B|144:192,2,40,0|0|8
256,248,66071,1,2
312,192,66278,1,2
312,192,66382,1,0
392,192,66589,1,2
424,216,66692,1,8
424,256,66796,1,0
392,280,66899,1,2
336,336,67106,6,0,B|264:376|176:336,1,160,2|8
112,296,67727,1,2
112,296,67830,1,0
112,296,67933,2,0,B|112:128,1,160,2|8
160,72,68554,1,2
160,72,68658,1,0
160,72,68761,6,0,B|240:128|312:64,1,160,2|8
384,40,69382,1,2
424,40,69485,1,0
464,40,69589,1,0
488,120,69796,1,0
448,120,69899,1,0
408,120,70002,1,8
368,192,70209,5,0
312,120,70416,2,0,B|257:96|190:120,1,120,2|0
152,120,70830,1,8
112,192,71037,1,0
112,192,71140,1,0
112,192,71244,1,0
112,192,71347,1,0
72,264,71554,2,0,B|104:304,1,40,0|8
160,344,71865,1,0
224,296,72071,6,0,B|328:296,1,80,2|0
344,296,72382,2,0,B|432:200,1,120,2|0
480,144,72899,1,0
480,144,73002,1,0
432,80,73209,1,0
432,80,73313,1,8
376,24,73520,1,0
296,24,73727,5,2
296,24,73830,1,0
256,88,74037,2,0,B|128:88,1,120,0|2
72,136,74554,1,0
32,208,74761,1,0
16,248,74865,1,2
32,288,74968,1,8
96,336,75175,1,2
176,336,75382,5,4
256,248,75692,1,0
256,128,76002,1,0
360,192,76313,1,0
480,192,76623,1,8
480,192,76830,6,0,B|480:104,1,80,2|0
360,112,77347,1,0
256,176,77658,1,0
152,112,77968,1,0
256,176,78278,1,8
256,256,78485,1,0
256,176,78692,6,0,B|256:8,1,160,2|8
176,32,79313,1,0
152,112,79520,2,0,B|56:248,1,160,2|8
112,304,80140,1,0
176,256,80347,2,0,B|344:256,1,160,2|8
392,192,80968,5,0
464,160,81175,2,0,B|496:120|424:88|472:40,1,120,2|0
424,48,81589,1,8
344,48,81796,1,0
264,48,82002,2,0,B|224:100|272:168,1,120,2|0
288,192,82416,1,8
256,264,82623,5,0
176,352,82933,1,0
96,264,83244,2,0,B|8:264,2,80,8|0|2
176,176,83968,1,0
256,88,84278,1,0
344,176,84589,1,0
344,256,84796,1,0
344,256,84899,6,0,B|344:344,2,80,8|0|2
424,176,85623,1,0
344,88,85933,1,0
272,176,86244,1,0
176,256,86554,1,8
128,192,86761,1,0
128,192,86865,1,0
128,192,86968,2,0,B|72:112|128:32,2,160,2|0|0
256,112,88209,5,0
256,152,88313,1,0
256,192,88416,1,0
256,232,88520,1,0
256,272,88623,1,2
176,272,88830,1,0
128,336,89037,1,8
80,272,89244,1,0
56,192,89451,6,0,B|96:208|128:160|184:200,2,120,2|0|0
72,112,90278,1,2
128,56,90485,1,0
184,112,90692,1,8
256,80,90899,1,0
328,112,91106,5,2
416,192,91416,1,0
328,272,91727,2,0,B|232:272,1,80,0|2
208,344,92140,2,0,B|120:344,1,80,0|8
80,280,92554,6,0,B|80:184,1,80,0|2
80,80,93071,2,0,B|136:40|200:80,1,120,2|0
256,128,93589,2,0,B|296:184|256:248,1,120,2|0
368,296,94209,1,0
448,272,94416,2,0,B|424:208|480:160|448:104,1,160,2|8
392,64,95037,1,0
312,48,95244,2,0,B|248:72|200:16|144:48,1,160,2|8
88,88,95865,1,0
80,168,96071,6,0,B|120:224|88:296,1,120,2|0
80,320,96485,1,8
160,320,96692,1,0
216,264,96899,1,2
296,264,97106,1,0
352,320,97313,1,8
296,264,97520,1,0
256,192,97727,6,0,B|256:104,1,80,2|0
256,72,98037,2,0,B|392:72,1,120
456,96,98554,2,0,B|416:168|472:272,1,160,2|8
432,328,99175,1,0
352,320,99382,2,0,B|184:320,1,160,2|8
128,272,100002,1,0
64,224,100209,2,0,B|64:56,1,160,2|8
144,80,100830,1,0
216,40,101037,5,2
256,192,101451,1,8
304,344,101865,1,2
384,344,102071,1,0
384,344,102175,1,0
384,344,102278,1,8
440,288,102485,1,0
368,248,102692,6,0,B|304:200|368:150,1,120,2|0
408,136,103106,1,8
480,96,103313,1,0
408,56,103520,1,2
328,56,103727,1,0
328,56,103830,1,0
328,56,103933,1,8
256,96,104140,1,0
256,176,104347,6,0,B|208:240|158:176,1,120,2|0
144,136,104761,1,8
64,136,104968,2,0,B|32:224,1,80,0|2
64,288,105382,1,0
136,320,105589,1,8
136,320,105796,1,0
136,320,106002,6,0,B|192:272|256:320,2,120,2|0|0
64,288,106830,1,2
136,192,107140,1,0
256,192,107451,1,0
256,192,107658,1,2
256,32,108071,1,8
416,32,108485,1,2
480,88,108692,1,0
480,88,108796,1,0
480,88,108899,1,8
480,168,109106,1,0
472,248,109313,6,0,B|376:248,1,80,2|0
352,248,109623,2,0,B|279:246|247:174,1,120
256,104,110140,2,0,B|168:104,1,80,2|8
112,48,110761,1,0
56,104,110968,5,2
112,208,111278,1,0
64,320,111589,2,0,B|160:320,1,80,0|2
224,320,112002,2,0,B|224:232,1,80,0|8
256,168,112416,6,0,B|320:112,1,80,0|2
440,112,112933,1,0
440,232,113244,2,0,B|440:320,1,80,2|0
256,208,113865,12,4,115106
