osu file format v6

[General]
AudioFilename: East Rockerz - Sound Of My Dreams (DJ Splash Remix).mp3
AudioLeadIn: 0
PreviewTime: 88601
Countdown: 0
SampleSet: Soft
StackLeniency: 0.7
Mode: 0
LetterboxInBreaks: 1

[Editor]
DistanceSpacing: 1.20000004768372
BeatDivisor: 4
GridSize: 8

[Metadata]
Title:Sound Of My Dreams (DJ Splash Remix)
Artist:East Rockerz
Creator:osuplayer111
Version:Heaven
Source:
Tags:Techno Trance Jak64 xxheroxx jericho2442 lthefuryl

[Difficulty]
HPDrainRate:8
CircleSize:5
OverallDifficulty:8
SliderMultiplier:1.6
SliderTickRate:1

[Events]
//Background and Video events
0,0,"Heaven BG.jpg"
//Break Periods
//Storyboard Layer 0 (Background)
Sprite,Background,Centre,"Heaven BG.jpg",320,240 S,0,-53,,0.811202 F,0,-53,877,0,0.1358422 F,0,877,1705,0.1358422,0.2545399 F,0,1705,2532,0.2545399,0.4492115 F,0,2532,3360,0.4492115,0.616901 F,0,3360,4187,0.616901,0.7577775 F,0,4187,5015,0.7577775,0.8976288 F,0,5015,5842,0.8976288,1 F,0,5842,115498,1,0.9744 F,0,115498,115601,0.9744,0.9029257 F,0,115601,115705,0.9029257,0.7859598 F,0,115705,115808,0.7859598,0.6904284 F,0,115808,115911,0.6904284,0.5905783 F,0,115911,116015,0.5905783,0.5325716 F,0,116015,116118,0.5325716,0.4392064 F,0,116118,116222,0.4392064,0.367189 F,0,116222,116325,0.367189,0.2855397 F,0,116325,116429,0.2855397,0.2098179 F,0,116429,116532,0.2098179,0.1347465 F,0,116532,116636,0.1347465,0.07582478 F,0,116636,116739,0.07582478,0 F,0,116739,128222,0 F,0,128222,128313,0,1 F,0,128313,128325,1,0
//Storyboard Layer 1 (Fail)
//Storyboard Layer 2 (Pass)
//Storyboard Layer 3 (Foreground)
Sprite,Foreground,Centre,"Heaven BG.jpg",320,240 M,0,19084,,320,240 F,0,19084,19291,1,0 S,0,19084,19291,0.813597,0.8523197 F,0,19291,25601,0 S,0,19291,25705,0.8523197,0.809639 F,0,25601,25705,0,1 S,0,25601,25911,0.816345,0.8519238 F,0,25705,25911,1,0 S,0,25705,25911,0.809639,0.8519238 F,0,25911,,0 F,0,25911,36360,0 S,0,25911,36360,0.8519238,0.805662 F,0,36360,36463,0,1 S,0,36360,36463,0.805662 F,0,36463,36670,1,0 S,0,36463,36670,0.805662,0.8515261 F,0,36670,38015,0 S,0,36670,38015,0.8515261,0.806084 F,0,38015,38118,0,1 S,0,38015,38118,0.806084 F,0,38118,38325,1,0 S,0,38118,38325,0.806084,0.8513284 F,0,38325,41325,0 S,0,38325,41325,0.8513284,0.803684 F,0,41325,41429,0,1 S,0,41325,41429,0.803684 F,0,41429,41636,1,0 S,0,41429,41636,0.803684,0.8513283 F,0,41636,42980,0 S,0,41636,42980,0.8513283,0.803683 F,0,42980,43084,0,1 S,0,42980,43084,0.803683 F,0,43084,43291,1,0 S,0,43084,43291,0.803683,0.8513282 F,0,43291,44636,0 S,0,43291,44636,0.8513282,0.803682 F,0,44636,44739,0,1 S,0,44636,44739,0.803682 F,0,44739,44946,1,0 S,0,44739,44946,0.803682,0.8513281 F,0,44946,47118,0 S,0,44946,47118,0.8513281,0.803682 F,0,47118,47222,0,1 S,0,47118,47222,0.803682 F,0,47222,47429,1,0 S,0,47222,47429,0.803682,0.851328 F,0,47429,49601,0 S,0,47429,49601,0.851328,0.803681 F,0,49601,49705,0,1 S,0,49601,49705,0.803681 F,0,49705,49911,1,0 S,0,49705,49911,0.803681,0.851328 F,0,49911,51256,0 S,0,49911,51256,0.851328,0.803681 F,0,51256,51360,0,1 S,0,51256,51360,0.803681 F,0,51360,51567,1,0 S,0,51360,51567,0.803681,0.8513278 F,0,51567,54567,0 S,0,51567,54567,0.8513278,0.803678 F,0,54567,54670,0,1 S,0,54567,54670,0.803678 F,0,54670,54877,1,0 S,0,54670,54877,0.803678,0.8513278 F,0,54877,56222,0 S,0,54877,56222,0.8513278,0.803678 F,0,56222,56325,0,1 S,0,56222,56325,0.803678 F,0,56325,56532,1,0 S,0,56325,56532,0.803678,0.8513279 F,0,56532,57877,0 S,0,56532,57877,0.8513279,0.899722 F,0,57877,57980,0,1 S,0,57877,57980,0.899722 F,0,57980,58187,1,0 S,0,57980,58187,0.899722,0.8509322 F,0,58187,75256,0 S,0,58187,75256,0.8509322,0.899722 F,0,75256,75360,0,1 S,0,75256,75360,0.899722 F,0,75360,75567,1,0 S,0,75360,75567,0.899722,0.8509322 F,0,75567,88498,0 S,0,75567,88498,0.8509322,0.869054 F,0,88498,88601,0,1 S,0,88498,88601,0.869054 F,0,88601,88808,1,0 S,0,88601,88808,0.869054,0.8578654 F,0,88808,90980,0 S,0,88808,90980,0.8578654,0.869053 F,0,90980,91084,0,1 S,0,90980,91084,0.869053 F,0,91084,91291,1,0 S,0,91084,91291,0.869053,0.8578654 F,0,91291,92636,0 S,0,91291,92636,0.8578654,0.867074 F,0,92636,92739,0,1 S,0,92636,92739,0.867074 F,0,92739,92946,1,0 S,0,92739,92946,0.867074,0.8576674 F,0,92946,95946,0 S,0,92946,95946,0.8576674,0.867074 F,0,95946,96049,0,1 S,0,95946,96049,0.867074 F,0,96049,96256,1,0 S,0,96049,96256,0.867074,0.8576674 F,0,96256,97601,0 S,0,96256,97601,0.8576674,0.867074 F,0,97601,97705,0,1 S,0,97601,97705,0.867074 F,0,97705,97911,1,0 S,0,97705,97911,0.867074,0.8576674 F,0,97911,99256,0 S,0,97911,99256,0.8576674,0.867074 F,0,99256,99360,0,1 S,0,99256,99360,0.867074 F,0,99360,99567,1,0 S,0,99360,99567,0.867074,0.8576674 F,0,99567,100911,0 S,0,99567,100911,0.8576674,0.867073 F,0,100911,101015,0,1 S,0,100911,101015,0.867073 F,0,101015,101222,1,0 S,0,101015,101222,0.867073,0.8576674 F,0,101222,102567,0 S,0,101222,102567,0.8576674,0.863117 F,0,102567,102670,0,1 S,0,102567,102670,0.863117 F,0,102670,102877,1,0 S,0,102670,102877,0.863117,0.8572717 F,0,102877,104222,0 S,0,102877,104222,0.8572717,0.863118 F,0,104222,104325,0,1 S,0,104222,104325,0.863118 F,0,104325,104532,1,0 S,0,104325,104532,0.863118,0.8572719 F,0,104532,105877,0 S,0,104532,105877,0.8572719,0.863118 F,0,105877,105980,0,1 S,0,105877,105980,0.863118 F,0,105980,106187,1,0 S,0,105980,106187,0.863118,0.8572718 F,0,106187,107532,0 S,0,106187,107532,0.8572718,0.863117 F,0,107532,107636,0,1 S,0,107532,107636,0.863117 F,0,107636,107843,1,0 S,0,107636,107843,0.863117,0.8572717 F,0,107843,109187,0 S,0,107843,109187,0.8572717,0.863116 F,0,109187,109291,0,1 S,0,109187,109291,0.863116 F,0,109291,109498,1,0 S,0,109291,109498,0.863116,0.8572716 F,0,109498,110843,0 S,0,109498,110843,0.8572716,0.863115 F,0,110843,110946,0,1 S,0,110843,110946,0.863115 F,0,110946,111153,1,0 S,0,110946,111153,0.863115,0.8572714 F,0,111153,112498,0 S,0,111153,112498,0.8572714,0.863115 F,0,112498,112601,0,1 S,0,112498,112601,0.863115 F,0,112601,112808,1,0 S,0,112601,112808,0.863115,0.8572715
//Storyboard Sound Samples
Sample,18175,3,"soft-hitclap.wav",100
Sample,18382,3,"soft-hitclap.wav",100
Sample,22002,3,"soft-hitclap.wav",100
Sample,28623,3,"soft-hitclap.wav",100
Sample,30278,3,"soft-hitclap.wav",100
Sample,31416,3,"soft-hitclap.wav",100
Sample,31623,3,"soft-hitclap.wav",100
Sample,38554,3,"normal-hitclap.wav",100
Sample,39382,3,"normal-hitclap.wav",100
Sample,45175,3,"normal-hitclap.wav",100
Sample,51796,3,"normal-hitclap.wav",100
Sample,52623,3,"normal-hitclap.wav",100
Sample,56761,3,"normal-hitclap.wav",100
Sample,58416,3,"normal-hitclap.wav",100
Sample,72485,3,"normal-hitclap.wav",100
Sample,74140,3,"normal-hitclap.wav",100
Sample,75796,3,"normal-hitclap.wav",100
Sample,77451,3,"normal-hitclap.wav",100
Sample,84071,3,"normal-hitclap.wav",100
Sample,85727,3,"normal-hitclap.wav",100
Sample,89865,3,"normal-hitclap.wav",100
Sample,91520,3,"normal-hitclap.wav",100
Sample,93175,3,"normal-hitclap.wav",100
Sample,94002,3,"normal-hitclap.wav",100
Sample,98140,3,"normal-hitclap.wav",100
Sample,106416,3,"normal-hitclap.wav",100
Sample,107244,3,"normal-hitclap.wav",100
Sample,109727,3,"normal-hitclap.wav",100
Sample,111382,3,"normal-hitclap.wav",100
Sample,113037,3,"normal-hitclap.wav",100
//Background Colour Transformations
3,100,163,162,255

[TimingPoints]
5865,413.793103448276,4,2,1,70,1,0
16498,-200,4,2,1,70,0,0
17118,-100,4,2,1,70,0,0
17325,-100,4,2,1,85,0,0
19291,-100,4,2,1,100,0,0
30360,-200,4,2,1,100,0,0
30980,-100,4,2,1,100,0,0
33980,-100,4,1,1,100,0,0
35739,-100,4,2,1,100,0,0
36360,-100,4,1,1,100,0,0
37394,-100,4,2,1,100,0,0
38118,-100,4,1,1,100,0,0
40705,-100,4,2,1,100,0,0
40911,-100,4,1,1,100,0,0
41118,-100,4,2,1,100,0,0
41325,-100,4,1,1,100,0,0
42360,-100,4,2,1,100,0,0
42670,-100,4,1,1,100,0,0
42774,-100,4,2,1,100,0,0
42980,-100,4,1,1,100,0,0
44015,-100,4,2,1,100,0,0
44222,-100,4,1,1,100,0,0
44429,-100,4,2,1,100,0,0
44636,-100,4,1,1,100,0,0
48980,-100,4,2,1,100,0,0
49187,-100,4,1,1,100,0,0
49394,-100,4,2,1,100,0,0
49601,-100,4,1,1,100,0,0
50636,-100,4,2,1,100,0,0
50946,-100,4,1,1,100,0,0
51049,-100,4,2,1,100,0,0
51360,-100,4,1,1,100,0,0
53946,-100,4,2,1,100,0,0
54256,-100,4,1,1,100,0,0
54360,-100,4,2,1,100,0,0
54567,-100,4,1,1,100,0,0
55601,-100,4,2,1,100,0,0
55808,-100,4,1,1,100,0,0
56015,-100,4,2,1,100,0,0
56222,-100,4,1,1,100,0,0
57256,-100,4,2,1,100,0,0
57463,-100,4,1,1,100,0,0
57670,-100,4,2,1,100,0,0
57877,-100,4,1,1,100,0,0
58808,-100,4,2,1,100,0,0
59118,-100,4,1,1,100,0,0
59325,-100,4,2,1,100,0,0
59946,-100,4,1,1,100,0,0
60153,-100,4,2,1,100,0,0
62118,-100,4,1,1,100,0,0
74118,-100,4,1,1,0,0,0
74325,-100,4,1,1,100,0,0
88601,-100,4,1,1,100,0,1
110015,-200,4,1,1,100,0,1
110636,-100,4,1,1,100,0,1
113015,-200,4,1,1,100,0,1
113532,-100,4,1,1,0,0,1
113843,-100,4,1,1,100,0,0
115084,-100,4,1,1,100,0,1
115498,-100,4,1,1,100,0,0

[Colours]
Combo1 : 0,0,255
Combo2 : 0,128,255
Combo3 : 0,128,192
Combo4 : 0,64,128

[HitObjects]
56,128,5864,1,2
104,80,6071,1,0
152,128,6278,1,2
200,80,6485,1,0
256,128,6692,1,2
304,80,6899,1,0
360,128,7106,1,2
408,80,7313,1,0
456,128,7520,1,2
456,256,7727,5,0
408,304,7933,1,2
360,256,8140,1,0
312,304,8347,1,2
256,256,8554,1,0
208,304,8761,1,2
152,256,8968,1,0
104,304,9175,1,2
56,256,9382,1,0
176,152,9589,6,0,B|149:111|183:60,1,80,2|0
256,192,10002,1,2
336,232,10209,2,0,B|363:273|329:324,1,80,0|2
176,312,10623,2,0,B|149:271|183:220,1,80,0|2
256,192,11037,1,0
336,72,11244,2,0,B|363:113|329:164,1,80,2|0
256,192,11658,1,2
32,192,12071,1,0
480,192,12485,1,2
416,144,12692,6,0,B|416:56,1,80,0|2
96,240,13106,2,0,B|96:328,1,80,0|2
352,144,13520,2,0,B|352:56,1,80,0|2
160,240,13933,2,0,B|160:328,1,80,0|2
256,344,14347,5,0
256,344,14554,2,0,B|256:256,1,80,2|0
256,40,14968,1,2
256,40,15175,2,0,B|256:136,1,80,0|2
104,192,15589,1,0
104,192,15796,2,0,B|200:192,1,80,2|0
256,232,16209,1,2
256,152,16416,1,0
408,192,16623,6,0,B|312:192,1,80,2|0
328,192,17244,1,0
256,152,17451,1,2
256,272,17761,1,2
160,336,18071,1,0
160,256,18278,2,0,B|64:256,1,80,2|0
32,192,18692,1,2
32,152,18796,1,0
32,112,18899,2,0,B|32:64,2,40,0|0|2
184,64,19520,5,8
256,104,19727,1,0
328,64,19933,2,0,B|384:96|384:128|312:176,1,120,2|0
338,156,20347,1,8
256,248,20554,1,0
176,248,20761,1,2
120,192,20968,2,0,B|80:112,1,80,0|8
84,120,21382,6,0,B|40:200,1,80,0|2
80,304,21899,1,0
192,344,22209,2,0,B|288:344,1,80,0|2
352,344,22623,1,0
432,264,22830,1,8
352,184,23037,1,0
352,184,23244,6,0,B|304:112|248:112,1,120,2|0
259,112,23658,1,8
152,56,23864,1,0
72,80,24071,2,0,B|120:136|64:200,1,120,2|0
72,189,24485,1,8
96,304,24692,1,0
168,344,24899,2,0,B|256:344,1,80,2|0
256,264,25313,2,0,B|312:184|232:96,1,160,8|2
336,48,25933,1,0
440,88,26140,1,8
488,192,26347,1,0
448,296,26554,6,0,B|392:336|320:288,1,120,2|0
335,297,26968,1,8
224,344,27175,2,0,B|136:344,1,80,0|2
16,288,27589,2,0,B|112:288,1,80,0|8
216,224,28002,2,0,B|128:224,1,80,0|2
24,192,28520,1,0
88,88,28830,2,0,B|152:24,1,80,0|2
216,72,29244,1,0
296,72,29451,1,8
368,32,29658,6,0,B|432:96,1,80,0|2
480,192,30175,1,0
432,304,30485,2,0,B|320:304,1,80,2|0
256,304,31106,1,2
144,192,31313,1,0
256,80,31520,1,0
368,192,31727,1,0
256,192,31933,1,2
256,192,32140,1,0
256,192,32347,1,4
256,208,32451,12,2,34002
256,80,34416,5,8
184,144,34623,1,0
112,208,34830,2,0,B|40:240|80:320,1,120,2|0
73,306,35244,1,8
216,344,35451,1,0
296,272,35658,1,2
384,344,35865,1,2
432,344,35968,1,0
480,344,36071,2,0,B|480:248,1,80,2|0
480,40,36485,6,0,B|480:128,1,80,2|0
384,120,36899,1,8
304,64,37106,1,0
256,144,37313,1,2
208,64,37520,1,2
168,88,37623,1,0
136,120,37727,1,2
72,192,37933,6,0,B|41:228|77:272,1,80,0|2
200,336,38451,1,0
256,200,38761,1,0
256,200,38968,2,0,B|392:200,1,120,2|0
464,88,39589,1,0
448,80,39692,1,0
432,72,39796,1,2
336,48,40002,1,0
256,104,40209,2,0,B|184:152|96:96,1,160,2|2
40,192,40830,5,2
72,296,41037,1,8
168,360,41244,1,2
256,328,41451,2,0,B|256:192,1,120,2|0
256,208,41865,1,8
256,64,42071,1,0
352,40,42278,1,2
448,16,42485,2,0,B|496:88,1,80,2|8
464,176,42899,1,2
384,232,43106,6,0,B|376:296|304:320,1,120,2|0
309,317,43520,1,8
256,184,43727,1,0
184,120,43933,1,2
184,120,44140,1,2
112,32,44347,1,8
48,120,44554,1,2
48,120,44761,5,2
48,264,45071,1,0
176,336,45382,1,0
256,280,45589,2,0,B|288:224|224:200|264:152,1,120,2|0
255,164,46002,1,8
336,48,46209,1,0
432,48,46416,1,2
448,144,46623,1,0
456,160,46727,1,0
464,176,46830,1,2
472,192,46933,1,0
480,208,47037,2,0,B|504:256,2,40,0|0|2
320,320,47658,5,8
256,136,48071,2,0,B|232:80|232:80|168:80,1,120,2|0
172,80,48485,1,8
80,192,48692,1,0
32,272,48899,1,2
112,344,49106,1,2
192,264,49313,1,8
272,344,49520,1,2
368,344,49727,6,0,B|416:336|440:288|440:240,1,120,2|0
438,257,50140,1,8
312,192,50347,1,0
400,152,50554,1,2
408,56,50761,2,0,B|304:56,1,80,2|8
104,56,51175,6,0,B|208:56,1,80,2|2
256,184,51692,1,0
256,328,52002,1,0
256,328,52209,2,0,B|392:328,2,120,2|0|0
192,256,53037,1,2
256,72,53451,1,8
320,256,53865,1,2
392,192,54071,5,2
416,192,54175,1,0
440,192,54278,1,0
480,104,54485,1,2
408,40,54692,2,0,B|280:40,1,120,2|0
288,40,55106,1,8
144,64,55313,1,0
80,136,55520,1,2
80,136,55727,5,2
176,192,55933,1,8
88,256,56140,1,2
88,256,56347,2,0,B|0:360,2,120,2|0|0
176,304,57175,1,2
256,360,57382,1,2
336,304,57589,1,8
256,248,57796,1,2
256,152,58002,6,0,B|256:24,2,120,2|0|2
32,192,59037,1,2
32,192,59244,1,8
72,312,59451,1,2
192,352,59658,1,0
320,352,59865,1,2
440,312,60071,1,8
488,192,60278,1,2
256,192,60485,1,4
256,208,60589,12,6,62140
56,120,62347,5,0
64,216,62554,1,8
32,256,62658,1,0
64,296,62761,1,0
160,304,62968,1,0
256,280,63175,1,0
256,232,63278,1,0
256,184,63382,1,8
256,88,63589,5,2
328,24,63796,2,0,B|456:24,1,120,2|0
448,24,64209,1,8
480,112,64416,1,2
480,160,64520,1,0
392,192,64727,1,0
344,192,64830,1,0
256,160,65037,1,8
224,128,65140,1,0
192,96,65244,1,2
96,88,65451,5,2
40,168,65658,2,0,B|-16:168,2,40,0|0|8
96,248,66071,1,2
168,192,66278,1,2
216,192,66382,1,0
256,280,66589,1,2
256,280,66692,1,8
256,280,66796,1,0
256,280,66899,1,2
352,280,67106,6,0,B|400:232|400:184|400:160,1,120,2|0
399,173,67520,1,8
360,88,67727,1,2
328,56,67830,1,0
296,24,67933,2,0,B|176:80,1,120,2|0
187,74,68347,1,8
96,104,68554,1,2
64,144,68658,1,0
96,176,68761,6,0,B|56:224|104:296,1,120,2|0
98,287,69175,1,8
192,320,69382,1,2
232,344,69485,1,0
272,320,69589,1,0
352,264,69796,1,0
384,232,69899,1,0
352,192,70002,1,8
256,168,70209,5,0
312,88,70416,2,0,B|257:64|190:88,1,120,2|0
194,86,70830,1,8
104,128,71037,1,0
72,160,71140,1,0
40,200,71244,1,0
8,240,71347,1,0
56,328,71554,1,0
56,328,71658,1,8
152,328,71865,1,0
216,256,72071,6,0,B|320:256,1,80,2|0
344,256,72382,2,0,B|432:160,1,120,2|0
344,112,72899,1,0
312,80,73002,1,0
224,48,73209,1,0
224,48,73313,1,8
384,24,73520,1,0
312,80,73727,5,2
280,112,73830,1,0
296,208,74037,2,0,B|208:208,1,80
216,208,74347,1,2
120,184,74554,1,0
24,208,74761,1,0
32,256,74865,1,2
40,304,74968,1,8
128,344,75175,1,2
256,344,75382,5,4
368,248,75692,1,0
368,104,76002,1,0
256,192,76313,1,0
256,48,76623,1,8
256,48,76830,1,0
168,80,77037,5,2
256,192,77347,1,0
112,192,77658,1,0
256,192,77968,1,0
256,336,78278,1,8
320,264,78485,1,0
256,192,78692,6,0,B|256:64,1,120,2|0
256,72,79106,1,8
176,192,79313,1,0
176,192,79520,2,0,B|48:192,1,120,2|0
56,192,79933,1,8
336,192,80140,1,0
336,192,80347,2,0,B|464:192,1,120,2|0
456,192,80761,1,8
456,48,80968,5,0
376,96,81175,2,0,B|336:64|304:136|256:88,1,120,2|0
263,94,81589,1,8
120,48,81796,1,0
72,128,82002,2,0,B|32:180|80:248,1,120,2|0
74,239,82416,1,8
208,184,82623,5,0
256,320,82933,1,0
304,184,83244,2,0,B|304:88,2,80,8|0|2
360,320,83968,1,0
400,184,84278,1,0
456,320,84589,1,0
504,184,84796,1,0
504,184,84899,6,0,B|504:96,2,80,8|0|2
360,184,85623,1,0
256,80,85933,1,0
160,184,86244,1,0
256,288,86554,1,8
256,184,86761,1,0
256,184,86865,1,0
256,184,86968,1,6
256,184,87382,1,0
256,184,87796,1,0
256,208,88209,5,0
256,208,88313,1,0
256,208,88416,1,0
256,208,88520,1,0
256,208,88623,1,2
176,160,88830,1,0
256,104,89037,1,8
336,160,89244,1,0
256,208,89451,6,0,B|240:248|288:280|248:336,2,120,2|0|0
176,256,90278,1,2
176,160,90485,1,0
256,104,90692,1,8
336,160,90899,1,0
336,256,91106,5,2
256,376,91416,1,0
176,256,91727,2,0,B|80:256,1,80,0|2
336,256,92140,2,0,B|432:256,1,80,0|8
256,192,92554,6,0,B|256:96,1,80,0|2
480,48,93071,2,0,B|520:104|480:168,1,120,2|0
488,336,93589,2,0,B|448:280|488:216,1,120,2|0
344,192,94209,1,0
256,240,94416,2,0,B|232:176|288:128|256:72,1,160,2|8
176,48,95037,1,0
88,88,95244,2,0,B|112:152|56:200|88:256,1,160,2|8
160,304,95865,1,0
256,328,96071,6,0,B|312:288|384:320,1,120,2|0
370,314,96485,1,8
456,272,96692,1,0
512,192,96899,1,2
448,120,97106,1,0
384,48,97313,1,8
288,48,97520,1,0
256,136,97727,6,0,B|168:136,1,80,2|0
128,136,98037,2,0,B|32:248,1,120
32,320,98554,2,0,B|112:352|208:312,1,160,2|8
256,256,99175,1,0
344,288,99382,2,0,B|472:288,1,120,2|0
464,288,99796,1,8
480,192,100002,1,0
464,96,100209,2,0,B|336:96,1,120,2|0
344,96,100623,1,8
256,48,100830,1,0
256,48,101037,5,2
256,336,101451,1,8
48,192,101865,1,2
144,192,102071,1,0
160,192,102175,1,0
176,192,102278,1,8
272,192,102485,1,0
360,144,102692,6,0,B|424:192|360:242,1,120,2|0
360,241,103106,1,8
328,336,103313,1,0
256,272,103520,1,2
184,336,103727,1,0
184,336,103830,1,0
184,336,103933,1,8
256,272,104140,1,0
152,240,104347,6,0,B|88:192|152:142,1,120,2|0
151,142,104761,1,8
216,72,104968,2,0,B|312:72,1,80,0|2
384,32,105382,1,0
472,72,105589,1,8
472,168,105796,1,0
456,264,106002,6,0,B|400:312|336:264,2,120,2|0|0
472,168,106830,1,2
384,48,107140,1,0
296,168,107451,1,0
256,240,107658,1,2
400,192,108071,1,8
112,192,108485,1,2
256,144,108692,1,0
256,144,108796,1,0
256,144,108899,1,8
256,48,109106,1,0
256,48,109313,6,0,B|344:48,1,80,2|0
384,48,109623,2,0,B|457:50|489:122,1,120
481,108,110140,2,0,B|481:195,1,80,2|8
416,264,110761,1,0
344,328,110968,5,2
256,192,111278,1,0
256,48,111589,2,0,B|168:48,1,80,0|2
256,192,112002,2,0,B|352:192,1,80,0|8
256,336,112416,6,0,B|168:336,1,80,0|2
32,336,112933,1,0
104,192,113244,2,0,B|104:104,1,80,2|0
256,208,113865,12,4,115106
