osu file format v11

[General]
AudioFilename: East New Sound- Necrofantasia (Instrumental) - YouTube.mp3
AudioLeadIn: 0
PreviewTime: -1
Countdown: 0
SampleSet: None
StackLeniency: 0.7
Mode: 1
LetterboxInBreaks: 1

[Editor]
DistanceSpacing: 1.2
BeatDivisor: 16
GridSize: 8

[Metadata]
Title:Necrofantasia
TitleUnicode:Necrofantasia
Artist:East New Sound
ArtistUnicode:East New Sound
Creator:Dark_Kanon
Version:Taiko
Source:Touhou
Tags:yukari touhou
BeatmapID:216161
BeatmapSetID:76841

[Difficulty]
HPDrainRate:10
CircleSize:5
OverallDifficulty:10
ApproachRate:10
SliderMultiplier:1.6
SliderTickRate:2

[Events]
//Background and Video events
0,0,"GOM 2013-01-31 17-12-27-699.jpg"
//Break Periods
2,273682,278062
//Storyboard Layer 0 (Background)
//Storyboard Layer 1 (Fail)
//Storyboard Layer 2 (Pass)
//Storyboard Layer 3 (Foreground)
//Storyboard Sound Samples
//Background Colour Transformations
3,100,163,162,255

[TimingPoints]
29228,206.896551724138,4,1,0,100,1,0
29288,-100,4,1,0,100,0,1
54593,-100,4,1,0,100,0,0
67583,-100,4,1,0,100,0,1
80433,-100,4,1,0,100,0,0
80813,-100,4,1,0,100,0,1
92973,-100,4,1,0,100,0,0
118583,-100,4,1,0,100,0,1
144263,-100,4,1,0,100,0,0
144718,-100,4,1,0,100,0,1
156998,-100,4,1,0,100,0,0
157278,-100,4,1,0,100,0,1
169738,-100,4,1,0,100,0,0
195468,-100,4,1,0,100,0,1
220888,-100,4,1,0,100,0,0
246668,-100,4,1,0,100,0,1
272158,-100,4,1,0,100,0,0
272528,-100,4,1,0,100,0,1
298128,-100,4,1,0,100,0,0
298438,-100,4,1,0,100,0,1
323398,-100,4,1,0,100,0,0

[Colours]
Combo1 : 255,255,0
Combo2 : 5,240,5
Combo3 : 5,5,240
Combo4 : 240,5,5

[HitObjects]
264,192,728,1,0,0:0:0
264,192,1917,1,0,0:0:0
264,192,3081,1,0,0:0:0
264,192,3546,1,0,0:0:0
264,192,3766,1,0,0:0:0
264,192,4529,1,0,0:0:0
264,192,5370,1,0,0:0:0
264,192,5732,1,0,0:0:0
264,192,6081,1,0,0:0:0
264,192,6288,1,0,0:0:0
264,192,6844,1,0,0:0:0
264,192,7775,1,0,0:0:0
264,192,8525,1,0,0:0:0
264,192,8900,1,0,0:0:0
264,192,9275,1,0,0:0:0
264,192,9495,1,0,0:0:0
264,192,10141,1,8,0:0:0
264,192,10465,1,8,0:0:0
264,192,10878,1,8,0:0:0
264,192,11085,1,8,0:0:0
264,192,11745,1,0,0:0:0
264,192,12081,1,0,0:0:0
264,192,12495,1,0,0:0:0
264,192,12702,1,0,0:0:0
264,192,13271,1,8,0:0:0
264,192,13697,1,8,0:0:0
264,192,14059,1,8,0:0:0
264,192,14266,1,8,0:0:0
264,192,14822,1,0,0:0:0
264,192,14939,1,0,0:0:0
264,192,15042,1,0,0:0:0
264,192,15236,1,0,0:0:0
264,192,15353,1,0,0:0:0
264,192,15482,1,0,0:0:0
264,192,15572,1,0,0:0:0
264,192,15663,1,0,0:0:0
264,192,15740,1,0,0:0:0
264,192,15986,1,0,0:0:0
264,192,17421,1,0,0:0:0
264,192,18197,1,0,0:0:0
264,192,18559,1,0,0:0:0
264,192,18870,1,0,0:0:0
264,192,19115,1,0,0:0:0
264,192,19646,1,0,0:0:0
264,192,20085,1,0,0:0:0
264,192,20486,1,0,0:0:0
264,192,20693,1,0,0:0:0
264,192,21184,1,8,0:0:0
264,192,21353,1,8,0:0:0
264,192,21456,1,8,0:0:0
264,192,21585,1,8,0:0:0
264,192,21689,1,8,0:0:0
264,192,21779,1,8,0:0:0
264,192,21883,1,8,0:0:0
264,192,22348,1,0,0:0:0
264,192,22943,1,0,0:0:0
264,192,23266,1,0,0:0:0
264,192,23654,1,0,0:0:0
264,192,23887,1,0,0:0:0
264,192,24508,1,0,0:0:0
264,192,24870,1,0,0:0:0
264,192,25296,1,0,0:0:0
264,192,25503,1,0,0:0:0
264,192,25930,1,8,0:0:0
264,192,26021,1,8,0:0:0
264,192,26266,1,8,0:0:0
264,192,26344,1,8,0:0:0
264,192,26434,1,8,0:0:0
264,192,26499,1,8,0:0:0
264,192,26577,1,8,0:0:0
264,192,26654,1,8,0:0:0
264,192,26732,1,8,0:0:0
264,192,26822,1,8,0:0:0
264,192,26926,1,8,0:0:0
264,192,27133,1,8,0:0:0
264,192,27223,1,8,0:0:0
264,192,27327,1,8,0:0:0
264,192,27391,1,8,0:0:0
264,192,27456,1,8,0:0:0
264,192,27559,1,8,0:0:0
264,192,27637,1,8,0:0:0
264,192,27728,1,8,0:0:0
264,192,27818,1,8,0:0:0
264,192,27896,1,8,0:0:0
264,192,27973,1,8,0:0:0
264,192,28064,1,8,0:0:0
264,192,28141,1,8,0:0:0
264,192,28245,1,8,0:0:0
264,192,28684,1,0,0:0:0
264,192,28969,1,0,0:0:0
264,192,29189,1,0,0:0:0
264,192,29383,1,0,0:0:0
264,192,29628,1,0,0:0:0
264,192,29965,1,0,0:0:0
264,192,30197,1,0,0:0:0
264,192,30365,1,0,0:0:0
264,192,30676,1,0,0:0:0
264,192,30960,1,0,0:0:0
264,192,31180,1,0,0:0:0
264,192,31478,1,0,0:0:0
264,192,31736,1,0,0:0:0
264,192,31943,1,0,0:0:0
264,192,32137,1,0,0:0:0
264,192,32344,1,0,0:0:0
264,192,32538,1,0,0:0:0
264,192,32732,1,0,0:0:0
264,192,33094,1,0,0:0:0
264,192,33365,1,0,0:0:0
264,192,33598,1,0,0:0:0
264,192,33896,1,0,0:0:0
264,192,34167,1,0,0:0:0
264,192,34374,1,0,0:0:0
264,192,34594,1,8,0:0:0
264,192,34788,1,8,0:0:0
264,192,35059,1,0,0:0:0
264,192,35305,1,0,0:0:0
264,192,35525,1,0,0:0:0
264,192,35758,1,0,0:0:0
264,192,36029,1,0,0:0:0
264,192,36327,1,0,0:0:0
264,192,36559,1,0,0:0:0
264,192,36766,1,0,0:0:0
264,192,36934,1,0,0:0:0
264,192,37115,1,0,0:0:0
264,192,37322,1,0,0:0:0
264,192,37529,1,0,0:0:0
264,192,37697,1,0,0:0:0
264,192,37891,1,0,0:0:0
264,192,38072,1,0,0:0:0
264,192,38202,1,0,0:0:0
264,192,38370,1,0,0:0:0
264,192,38525,1,0,0:0:0
264,192,38628,1,0,0:0:0
264,192,38784,1,0,0:0:0
264,192,38926,1,0,0:0:0
264,192,39029,1,0,0:0:0
264,192,39184,1,0,0:0:0
264,192,39288,1,0,0:0:0
264,192,39378,1,0,0:0:0
264,192,39482,1,0,0:0:0
264,192,39585,1,0,0:0:0
264,192,39766,1,0,0:0:0
264,192,39921,1,0,0:0:0
264,192,39999,1,0,0:0:0
264,192,40103,1,0,0:0:0
264,192,40180,1,0,0:0:0
264,192,40801,1,0,0:0:0
264,192,41085,1,0,0:0:0
264,192,41344,1,0,0:0:0
264,192,41512,1,0,0:0:0
264,192,41680,1,0,0:0:0
264,192,41848,1,0,0:0:0
264,192,42120,1,0,0:0:0
264,192,42314,1,0,0:0:0
264,192,42546,1,0,0:0:0
264,192,42753,1,0,0:0:0
264,192,42986,1,0,0:0:0
264,192,43206,1,0,0:0:0
264,192,43400,1,0,0:0:0
264,192,43633,1,0,0:0:0
264,192,43865,1,0,0:0:0
264,192,44111,1,0,0:0:0
264,192,44370,1,0,0:0:0
264,192,44577,1,0,0:0:0
264,192,44796,1,0,0:0:0
264,192,45003,1,0,0:0:0
264,192,45223,1,0,0:0:0
264,192,45430,1,0,0:0:0
264,192,45637,1,0,0:0:0
264,192,45857,1,0,0:0:0
264,192,46090,1,0,0:0:0
264,192,46296,1,0,0:0:0
264,192,46516,1,0,0:0:0
264,192,46749,1,0,0:0:0
264,192,46930,1,0,0:0:0
264,192,47150,1,0,0:0:0
264,192,47370,1,8,0:0:0
264,192,47590,1,8,0:0:0
264,192,47758,1,8,0:0:0
264,192,48042,1,0,0:0:0
264,192,48288,1,0,0:0:0
264,192,48534,1,0,0:0:0
264,192,48792,1,0,0:0:0
264,192,49051,1,0,0:0:0
264,192,49271,1,0,0:0:0
264,192,49555,1,0,0:0:0
264,192,49749,1,0,0:0:0
264,192,50034,1,0,0:0:0
264,192,50279,1,0,0:0:0
264,192,50473,1,0,0:0:0
264,192,50706,1,0,0:0:0
264,192,50874,1,0,0:0:0
264,192,51081,1,0,0:0:0
264,192,51262,1,0,0:0:0
264,192,51482,1,0,0:0:0
264,192,51715,1,0,0:0:0
264,192,51934,1,0,0:0:0
264,192,52154,1,0,0:0:0
264,192,52374,1,0,0:0:0
264,192,52581,1,0,0:0:0
264,192,52827,1,8,0:0:0
264,192,53034,1,8,0:0:0
264,192,53240,1,8,0:0:0
264,192,53447,1,8,0:0:0
264,192,53641,1,8,0:0:0
264,192,53861,1,8,0:0:0
264,192,54068,1,8,0:0:0
264,192,54314,1,0,0:0:0
264,192,54546,1,0,0:0:0
264,192,54792,1,0,0:0:0
264,192,55115,1,0,0:0:0
264,192,55348,1,0,0:0:0
264,192,55581,1,0,0:0:0
264,192,55814,1,0,0:0:0
264,192,56034,1,0,0:0:0
264,192,56279,1,0,0:0:0
264,192,56590,1,0,0:0:0
264,192,56835,1,0,0:0:0
264,192,57107,1,0,0:0:0
264,192,57365,1,0,0:0:0
264,192,57572,1,0,0:0:0
264,192,57779,1,0,0:0:0
264,192,57986,1,0,0:0:0
264,192,58219,1,0,0:0:0
264,192,58413,1,0,0:0:0
264,192,58710,1,0,0:0:0
264,192,58982,1,0,0:0:0
264,192,59202,1,0,0:0:0
264,192,59473,1,0,0:0:0
264,192,59758,1,0,0:0:0
264,192,59965,1,0,0:0:0
264,192,60146,1,0,0:0:0
264,192,60314,1,0,0:0:0
264,192,60482,1,0,0:0:0
264,192,60676,1,0,0:0:0
264,192,60934,1,0,0:0:0
264,192,61141,1,0,0:0:0
264,192,61348,1,0,0:0:0
264,192,61568,1,0,0:0:0
264,192,61865,1,0,0:0:0
264,192,62124,1,0,0:0:0
264,192,62370,1,0,0:0:0
264,192,62641,1,0,0:0:0
264,192,62913,1,0,0:0:0
264,192,63159,1,0,0:0:0
264,192,63340,1,0,0:0:0
264,192,63559,1,0,0:0:0
264,192,63753,1,0,0:0:0
264,192,63973,1,0,0:0:0
264,192,64141,1,0,0:0:0
264,192,64361,1,0,0:0:0
264,192,64568,1,0,0:0:0
264,192,64853,1,0,0:0:0
264,192,65137,1,0,0:0:0
264,192,65357,1,0,0:0:0
264,192,65615,1,0,0:0:0
264,192,65887,1,0,0:0:0
264,192,66133,1,0,0:0:0
264,192,66430,1,0,0:0:0
264,192,66728,1,0,0:0:0
264,192,67012,1,0,0:0:0
264,192,67232,1,0,0:0:0
264,192,67426,1,0,0:0:0
264,192,67762,1,0,0:0:0
264,192,68124,1,0,0:0:0
264,192,68486,1,0,0:0:0
264,192,68887,1,0,0:0:0
264,192,69107,1,0,0:0:0
264,192,69340,1,0,0:0:0
264,192,69598,1,0,0:0:0
264,192,69831,1,0,0:0:0
264,192,70090,1,0,0:0:0
264,192,70516,1,0,0:0:0
264,192,70736,1,0,0:0:0
264,192,70904,1,0,0:0:0
264,192,71202,1,0,0:0:0
264,192,71421,1,0,0:0:0
264,192,71667,1,0,0:0:0
264,192,71887,1,0,0:0:0
264,192,72197,1,0,0:0:0
264,192,72572,1,0,0:0:0
264,192,72921,1,0,0:0:0
264,192,73115,1,0,0:0:0
264,192,73284,1,0,0:0:0
264,192,73465,1,0,0:0:0
264,192,73671,1,0,0:0:0
264,192,74098,1,0,0:0:0
264,192,74564,1,0,0:0:0
264,192,74771,1,0,0:0:0
264,192,74965,1,0,0:0:0
264,192,75301,1,0,0:0:0
264,192,75740,1,0,0:0:0
264,192,76128,1,0,0:0:0
264,192,76309,1,0,0:0:0
264,192,76516,1,0,0:0:0
264,192,76865,1,0,0:0:0
264,192,77266,1,0,0:0:0
264,192,77654,1,4,0:0:0
264,192,77990,1,0,0:0:0
264,192,78223,1,0,0:0:0
264,192,78598,1,0,0:0:0
264,192,79064,1,0,0:0:0
264,192,79348,1,0,0:0:0
264,192,79542,1,0,0:0:0
264,192,79736,1,0,0:0:0
264,192,80072,1,8,0:0:0
264,192,80305,1,8,0:0:0
264,192,80499,1,8,0:0:0
264,192,80745,1,0,0:0:0
264,192,81003,1,0,0:0:0
264,192,81223,1,0,0:0:0
264,192,81534,1,8,0:0:0
264,192,81818,1,8,0:0:0
264,192,82064,1,8,0:0:0
264,192,82271,1,8,0:0:0
264,192,82620,1,0,0:0:0
264,192,82853,1,0,0:0:0
264,192,83059,1,0,0:0:0
264,192,83266,1,0,0:0:0
264,192,83499,1,8,0:0:0
264,192,83680,1,8,0:0:0
264,192,83874,1,8,0:0:0
264,192,84042,1,8,0:0:0
264,192,84223,1,8,0:0:0
264,192,84430,1,0,0:0:0
264,192,84637,1,0,0:0:0
264,192,84857,1,0,0:0:0
264,192,85025,1,0,0:0:0
264,192,85452,1,0,0:0:0
264,192,85620,1,0,0:0:0
264,192,85827,1,0,0:0:0
264,192,86034,1,0,0:0:0
264,192,86189,1,0,0:0:0
264,192,86383,1,0,0:0:0
264,192,86628,1,0,0:0:0
264,192,86874,1,0,0:0:0
264,192,87107,1,0,0:0:0
264,192,87327,1,0,0:0:0
264,192,87546,1,0,0:0:0
264,192,87792,1,0,0:0:0
264,192,88025,1,0,0:0:0
264,192,88258,1,0,0:0:0
264,192,88516,1,0,0:0:0
264,192,88762,1,0,0:0:0
264,192,88995,1,0,0:0:0
264,192,89240,1,0,0:0:0
264,192,89460,1,0,0:0:0
264,192,89758,1,8,0:0:0
264,192,89965,1,8,0:0:0
264,192,90159,1,8,0:0:0
264,192,90378,1,8,0:0:0
264,192,90598,1,0,0:0:0
264,192,90831,1,0,0:0:0
264,192,91051,1,0,0:0:0
264,192,91309,1,0,0:0:0
264,192,91503,1,8,0:0:0
264,192,91762,1,0,0:0:0
264,192,91995,1,8,0:0:0
264,192,92240,1,0,0:0:0
264,192,92499,1,8,0:0:0
264,192,92952,1,0,0:0:0
264,192,93365,1,0,0:0:0
264,192,93702,1,0,0:0:0
264,192,94064,1,0,0:0:0
264,192,94400,1,0,0:0:0
264,192,94788,1,0,0:0:0
264,192,95137,1,0,0:0:0
264,192,95525,1,0,0:0:0
264,192,95874,1,0,0:0:0
264,192,96094,1,0,0:0:0
264,192,96378,1,0,0:0:0
264,192,96689,1,0,0:0:0
264,192,96986,1,0,0:0:0
264,192,97309,1,0,0:0:0
264,192,97581,1,0,0:0:0
264,192,97878,1,8,0:0:0
264,192,98072,1,8,0:0:0
264,192,98305,1,8,0:0:0
264,192,98512,1,8,0:0:0
264,192,98732,1,8,0:0:0
264,192,98965,1,8,0:0:0
264,192,99223,1,8,0:0:0
264,192,99521,1,0,0:0:0
264,192,99818,1,0,0:0:0
264,192,100141,1,0,0:0:0
264,192,100478,1,0,0:0:0
264,192,100775,1,0,0:0:0
264,192,101124,1,8,0:0:0
264,192,101383,1,8,0:0:0
264,192,101732,1,8,0:0:0
264,192,102055,1,8,0:0:0
264,192,102314,1,8,0:0:0
264,192,102663,1,0,0:0:0
264,192,103012,1,0,0:0:0
264,192,103335,1,0,0:0:0
264,192,103646,1,0,0:0:0
264,192,103956,1,0,0:0:0
264,192,104279,1,8,0:0:0
264,192,104603,1,8,0:0:0
264,192,104900,1,8,0:0:0
264,192,105210,1,8,0:0:0
264,192,105495,1,8,0:0:0
264,192,105947,1,0,0:0:0
264,192,106258,1,0,0:0:0
264,192,106503,1,0,0:0:0
264,192,106878,1,0,0:0:0
264,192,107150,1,0,0:0:0
264,192,107654,1,8,0:0:0
264,192,107900,1,8,0:0:0
264,192,108197,1,8,0:0:0
264,192,108482,1,8,0:0:0
264,192,108740,1,8,0:0:0
264,192,109115,1,0,0:0:0
264,192,109348,1,0,0:0:0
264,192,109671,1,0,0:0:0
264,192,109969,1,0,0:0:0
264,192,110279,1,0,0:0:0
264,192,110693,1,8,0:0:0
264,192,110965,1,8,0:0:0
264,192,111288,1,8,0:0:0
264,192,111715,1,8,0:0:0
264,192,112051,1,8,0:0:0
264,192,112400,1,0,0:0:0
264,192,112607,1,0,0:0:0
264,192,112865,1,0,0:0:0
264,192,113176,1,0,0:0:0
264,192,113447,1,0,0:0:0
264,192,113900,1,8,0:0:0
264,192,114146,1,8,0:0:0
264,192,114482,1,8,0:0:0
264,192,114883,1,8,0:0:0
264,192,115141,1,8,0:0:0
264,192,115568,1,0,0:0:0
264,192,115814,1,0,0:0:0
264,192,116111,1,0,0:0:0
264,192,116409,1,0,0:0:0
264,192,116680,1,0,0:0:0
264,192,117016,1,8,0:0:0
264,192,117365,1,8,0:0:0
264,192,117598,1,8,0:0:0
264,192,117818,1,8,0:0:0
264,192,118400,1,0,0:0:0
264,192,118568,1,0,0:0:0
264,192,118671,1,0,0:0:0
264,192,118801,1,0,0:0:0
264,192,119008,1,0,0:0:0
264,192,119266,1,0,0:0:0
264,192,119615,1,0,0:0:0
264,192,119784,1,0,0:0:0
264,192,119952,1,0,0:0:0
264,192,120197,1,0,0:0:0
264,192,120417,1,0,0:0:0
264,192,120508,1,0,0:0:0
264,192,120637,1,0,0:0:0
264,192,120766,1,0,0:0:0
264,192,120831,1,0,0:0:0
264,192,120921,1,0,0:0:0
264,192,120986,1,0,0:0:0
264,192,121077,1,0,0:0:0
264,192,121154,1,0,0:0:0
264,192,121232,1,0,0:0:0
264,192,121322,1,0,0:0:0
264,192,121426,1,0,0:0:0
264,192,121633,1,0,0:0:0
264,192,122137,1,0,0:0:0
264,192,122486,1,0,0:0:0
264,192,122874,1,0,0:0:0
264,192,123042,1,0,0:0:0
264,192,123456,1,0,0:0:0
264,192,123650,1,0,0:0:0
264,192,123779,1,0,0:0:0
264,192,123947,1,0,0:0:0
264,192,124245,1,0,0:0:0
264,192,124568,1,0,0:0:0
264,192,124788,1,0,0:0:0
264,192,125085,1,8,0:0:0
264,192,125331,1,8,0:0:0
264,192,125667,1,0,0:0:0
264,192,125926,1,0,0:0:0
264,192,126171,1,0,0:0:0
264,192,126378,1,0,0:0:0
264,192,126598,1,0,0:0:0
264,192,126857,1,8,0:0:0
264,192,127128,1,8,0:0:0
264,192,127490,1,0,0:0:0
264,192,127736,1,0,0:0:0
264,192,127969,1,0,0:0:0
264,192,128215,1,0,0:0:0
264,192,128460,1,0,0:0:0
264,192,128680,1,0,0:0:0
264,192,128900,1,0,0:0:0
264,192,129133,1,0,0:0:0
264,192,129340,1,0,0:0:0
264,192,129546,1,0,0:0:0
264,192,129779,1,0,0:0:0
264,192,129986,1,0,0:0:0
264,192,130219,1,0,0:0:0
264,192,130516,1,0,0:0:0
264,192,130594,1,0,0:0:0
264,192,130684,1,0,0:0:0
264,192,130749,1,0,0:0:0
264,192,130840,1,0,0:0:0
264,192,130904,1,8,0:0:0
264,192,131034,1,8,0:0:0
264,192,131305,1,8,0:0:0
264,192,131641,1,8,0:0:0
264,192,131874,1,8,0:0:0
264,192,132081,1,8,0:0:0
264,192,132223,1,8,0:0:0
264,192,132456,1,8,0:0:0
264,192,132689,1,8,0:0:0
264,192,132896,1,8,0:0:0
264,192,133167,1,8,0:0:0
264,192,133620,1,8,0:0:0
264,192,133904,1,8,0:0:0
264,192,134124,1,8,0:0:0
264,192,134370,1,8,0:0:0
264,192,134603,1,0,0:0:0
264,192,134952,1,0,0:0:0
264,192,135081,1,0,0:0:0
264,192,135327,1,0,0:0:0
264,192,135572,1,0,0:0:0
264,192,135792,1,0,0:0:0
264,192,136012,1,0,0:0:0
264,192,136258,1,0,0:0:0
264,192,136452,1,0,0:0:0
264,192,136671,1,0,0:0:0
264,192,136917,1,0,0:0:0
264,192,137163,1,0,0:0:0
264,192,137383,1,8,0:0:0
264,192,137654,1,0,0:0:0
264,192,138029,1,0,0:0:0
264,192,138378,1,0,0:0:0
264,192,138572,1,0,0:0:0
264,192,138779,1,0,0:0:0
264,192,139064,1,8,0:0:0
264,192,139245,1,8,0:0:0
264,192,139439,1,8,0:0:0
264,192,139723,1,0,0:0:0
264,192,139995,1,0,0:0:0
264,192,140215,1,0,0:0:0
264,192,140434,1,0,0:0:0
264,192,140680,1,8,0:0:0
264,192,140913,1,8,0:0:0
264,192,141094,1,8,0:0:0
264,192,141327,1,8,0:0:0
264,192,141534,1,8,0:0:0
264,192,141753,1,8,0:0:0
264,192,141960,1,8,0:0:0
264,192,142141,1,8,0:0:0
264,192,142335,1,8,0:0:0
264,192,142542,1,8,0:0:0
264,192,142723,1,8,0:0:0
264,192,142943,1,8,0:0:0
264,192,143124,1,8,0:0:0
264,192,143331,1,8,0:0:0
264,192,143525,1,8,0:0:0
264,192,143732,1,8,0:0:0
264,192,143952,1,0,0:0:0
264,192,144171,1,0,0:0:0
264,192,144417,1,0,0:0:0
264,192,144650,1,0,0:0:0
264,192,144883,1,0,0:0:0
264,192,145115,1,0,0:0:0
264,192,145374,1,0,0:0:0
264,192,145594,1,0,0:0:0
264,192,145840,1,0,0:0:0
264,192,146137,1,0,0:0:0
264,192,146331,1,0,0:0:0
264,192,146564,1,0,0:0:0
264,192,146758,1,0,0:0:0
264,192,146990,1,0,0:0:0
264,192,147197,1,0,0:0:0
264,192,147443,1,0,0:0:0
264,192,147650,1,0,0:0:0
264,192,147896,1,0,0:0:0
264,192,148180,1,0,0:0:0
264,192,148387,1,0,0:0:0
264,192,148594,1,0,0:0:0
264,192,148814,1,0,0:0:0
264,192,149008,1,0,0:0:0
264,192,149163,1,0,0:0:0
264,192,149383,1,0,0:0:0
264,192,149551,1,0,0:0:0
264,192,149745,1,0,0:0:0
264,192,149978,1,0,0:0:0
264,192,150210,1,8,0:0:0
264,192,150417,1,8,0:0:0
264,192,150585,1,8,0:0:0
264,192,150857,1,0,0:0:0
264,192,151077,1,0,0:0:0
264,192,151284,1,0,0:0:0
264,192,151516,1,0,0:0:0
264,192,151775,1,4,0:0:0
264,192,151982,1,4,0:0:0
264,192,152305,1,0,0:0:0
264,192,152512,1,0,0:0:0
264,192,152706,1,0,0:0:0
264,192,152913,1,0,0:0:0
264,192,153120,1,0,0:0:0
264,192,153365,1,8,0:0:0
264,192,153546,1,8,0:0:0
264,192,153728,1,8,0:0:0
264,192,153960,1,0,0:0:0
264,192,154180,1,0,0:0:0
264,192,154374,1,0,0:0:0
264,192,154581,1,0,0:0:0
264,192,155189,1,0,0:0:0
264,192,155396,1,0,0:0:0
264,192,155590,1,0,0:0:0
264,192,155796,1,0,0:0:0
264,192,155990,1,0,0:0:0
264,192,156146,1,0,0:0:0
264,192,156443,1,0,0:0:0
264,192,156521,1,0,0:0:0
264,192,156663,1,0,0:0:0
264,192,156766,1,0,0:0:0
264,192,156831,1,0,0:0:0
264,192,156947,1,0,0:0:0
264,192,157659,1,0,0:0:0
264,192,157788,1,0,0:0:0
264,192,157982,1,0,0:0:0
264,192,158176,1,0,0:0:0
264,192,158383,1,0,0:0:0
264,192,158577,1,0,0:0:0
264,192,158771,1,0,0:0:0
264,192,158926,1,0,0:0:0
264,192,159107,1,0,0:0:0
264,192,159301,1,0,0:0:0
264,192,159482,1,0,0:0:0
264,192,159702,1,0,0:0:0
264,192,159934,1,0,0:0:0
264,192,160128,1,0,0:0:0
264,192,160309,1,0,0:0:0
264,192,160503,1,0,0:0:0
264,192,160671,1,0,0:0:0
264,192,160878,1,0,0:0:0
264,192,161072,1,0,0:0:0
264,192,161253,1,0,0:0:0
264,192,161409,1,0,0:0:0
264,192,161615,1,0,0:0:0
264,192,161732,1,0,0:0:0
264,192,161952,1,0,0:0:0
264,192,162107,1,0,0:0:0
264,192,162262,1,0,0:0:0
264,192,162689,1,0,0:0:0
264,192,162921,1,0,0:0:0
264,192,163128,1,8,0:0:0
264,192,163322,1,8,0:0:0
264,192,163529,1,8,0:0:0
264,192,163775,1,0,0:0:0
264,192,164008,1,0,0:0:0
264,192,164202,1,0,0:0:0
264,192,164719,1,8,0:0:0
264,192,165029,1,8,0:0:0
264,192,165391,1,8,0:0:0
264,192,165689,1,8,0:0:0
264,192,166077,1,8,0:0:0
264,192,166452,1,8,0:0:0
264,192,166659,1,8,0:0:0
264,192,166853,1,8,0:0:0
264,192,167072,1,8,0:0:0
264,192,167266,1,8,0:0:0
264,192,167460,1,8,0:0:0
264,192,167641,1,8,0:0:0
264,192,167848,1,8,0:0:0
264,192,168029,1,8,0:0:0
264,192,168159,1,8,0:0:0
264,192,168275,1,8,0:0:0
264,192,168508,1,8,0:0:0
264,192,168585,1,8,0:0:0
264,192,168740,1,8,0:0:0
264,192,168844,1,8,0:0:0
264,192,168947,1,8,0:0:0
264,192,169064,1,8,0:0:0
264,192,169154,1,8,0:0:0
264,192,169232,1,8,0:0:0
264,192,169361,1,8,0:0:0
264,192,169465,1,8,0:0:0
264,192,169620,1,8,0:0:0
264,192,169710,1,8,0:0:0
264,192,170072,1,0,0:0:0
264,192,170473,1,0,0:0:0
264,192,171133,1,0,0:0:0
264,192,171766,1,0,0:0:0
264,192,172090,1,0,0:0:0
264,192,172478,1,0,0:0:0
264,192,172710,1,0,0:0:0
264,192,174301,1,0,0:0:0
264,192,174973,1,0,0:0:0
264,192,175309,1,0,0:0:0
264,192,175659,1,0,0:0:0
264,192,175904,1,0,0:0:0
264,192,176266,1,0,0:0:0
264,192,176784,1,0,0:0:0
264,192,177236,1,0,0:0:0
264,192,177456,1,0,0:0:0
264,192,178064,1,0,0:0:0
264,192,178465,1,0,0:0:0
264,192,178853,1,0,0:0:0
264,192,179111,1,0,0:0:0
264,192,179590,1,0,0:0:0
264,192,180003,1,0,0:0:0
264,192,180417,1,0,0:0:0
264,192,180637,1,0,0:0:0
264,192,181115,1,8,0:0:0
264,192,181245,1,8,0:0:0
264,192,181439,1,8,0:0:0
264,192,181529,1,8,0:0:0
264,192,181620,1,8,0:0:0
264,192,181697,1,8,0:0:0
264,192,181840,1,8,0:0:0
264,192,181995,1,8,0:0:0
264,192,182266,1,0,0:0:0
264,192,182460,1,0,0:0:0
264,192,183986,1,0,0:0:0
264,192,184581,1,0,0:0:0
264,192,184930,1,0,0:0:0
264,192,185318,1,0,0:0:0
264,192,185551,1,0,0:0:0
264,192,186184,1,0,0:0:0
264,192,186508,1,0,0:0:0
264,192,186883,1,0,0:0:0
264,192,187128,1,0,0:0:0
264,192,188021,1,8,0:0:0
264,192,188215,1,8,0:0:0
264,192,188344,1,8,0:0:0
264,192,188434,1,8,0:0:0
264,192,188538,1,8,0:0:0
264,192,188680,1,8,0:0:0
264,192,188784,1,8,0:0:0
264,192,188990,1,0,0:0:0
264,192,189314,1,0,0:0:0
264,192,189650,1,0,0:0:0
264,192,189973,1,0,0:0:0
264,192,190180,1,0,0:0:0
264,192,190374,1,0,0:0:0
264,192,190568,1,0,0:0:0
264,192,190762,1,0,0:0:0
264,192,190982,1,0,0:0:0
264,192,191150,1,0,0:0:0
264,192,191344,1,0,0:0:0
264,192,191538,1,0,0:0:0
264,192,191745,1,8,0:0:0
264,192,191990,1,8,0:0:0
264,192,192081,1,8,0:0:0
264,192,192262,1,8,0:0:0
264,192,192404,1,8,0:0:0
264,192,192508,1,8,0:0:0
264,192,192650,1,8,0:0:0
264,192,192818,1,8,0:0:0
264,192,192909,1,8,0:0:0
264,192,193064,1,8,0:0:0
264,192,193154,1,8,0:0:0
264,192,193245,1,8,0:0:0
264,192,193413,1,8,0:0:0
264,192,193581,1,8,0:0:0
264,192,193762,1,8,0:0:0
264,192,193840,1,8,0:0:0
264,192,193982,1,8,0:0:0
264,192,194085,1,8,0:0:0
264,192,194512,1,8,0:0:0
264,192,194603,1,8,0:0:0
264,192,194771,1,8,0:0:0
264,192,194861,1,8,0:0:0
264,192,194952,1,8,0:0:0
264,192,195042,1,8,0:0:0
264,192,195210,1,8,0:0:0
264,192,195301,1,8,0:0:0
264,192,195404,1,8,0:0:0
264,192,195702,1,8,0:0:0
264,192,195999,1,8,0:0:0
264,192,196245,1,8,0:0:0
264,192,196452,1,0,0:0:0
264,192,196697,1,0,0:0:0
264,192,196930,1,0,0:0:0
264,192,197150,1,0,0:0:0
264,192,197421,1,0,0:0:0
264,192,197732,1,0,0:0:0
264,192,197990,1,0,0:0:0
264,192,198184,1,0,0:0:0
264,192,198430,1,0,0:0:0
264,192,198637,1,0,0:0:0
264,192,198870,1,0,0:0:0
264,192,199064,1,0,0:0:0
264,192,199426,1,0,0:0:0
264,192,199736,1,0,0:0:0
264,192,199995,1,0,0:0:0
264,192,200266,1,0,0:0:0
264,192,200512,1,0,0:0:0
264,192,200719,1,0,0:0:0
264,192,200952,1,8,0:0:0
264,192,201171,1,8,0:0:0
264,192,201404,1,0,0:0:0
264,192,201676,1,0,0:0:0
264,192,201909,1,0,0:0:0
264,192,202115,1,0,0:0:0
264,192,202361,1,0,0:0:0
264,192,202723,1,0,0:0:0
264,192,202982,1,0,0:0:0
264,192,203228,1,0,0:0:0
264,192,203525,1,0,0:0:0
264,192,203758,1,0,0:0:0
264,192,203990,1,0,0:0:0
264,192,204210,1,0,0:0:0
264,192,204469,1,0,0:0:0
264,192,204689,1,0,0:0:0
264,192,204909,1,0,0:0:0
264,192,205258,1,0,0:0:0
264,192,205465,1,0,0:0:0
264,192,205814,1,0,0:0:0
264,192,206124,1,0,0:0:0
264,192,206370,1,0,0:0:0
264,192,206680,1,0,0:0:0
264,192,206978,1,0,0:0:0
264,192,207249,1,0,0:0:0
264,192,207521,1,0,0:0:0
264,192,207715,1,0,0:0:0
264,192,207934,1,0,0:0:0
264,192,208206,1,8,0:0:0
264,192,208439,1,8,0:0:0
264,192,208646,1,0,0:0:0
264,192,208878,1,0,0:0:0
264,192,209150,1,0,0:0:0
264,192,209396,1,0,0:0:0
264,192,209628,1,0,0:0:0
264,192,210042,1,0,0:0:0
264,192,210327,1,0,0:0:0
264,192,210572,1,0,0:0:0
264,192,210870,1,0,0:0:0
264,192,211128,1,0,0:0:0
264,192,211335,1,0,0:0:0
264,192,211529,1,0,0:0:0
264,192,211762,1,0,0:0:0
264,192,211995,1,0,0:0:0
264,192,212887,1,0,0:0:0
264,192,213146,1,0,0:0:0
264,192,213417,1,0,0:0:0
264,192,213637,1,0,0:0:0
264,192,214025,1,0,0:0:0
264,192,214309,1,0,0:0:0
264,192,214542,1,0,0:0:0
264,192,214775,1,0,0:0:0
264,192,214956,1,0,0:0:0
264,192,215137,1,0,0:0:0
264,192,215499,1,0,0:0:0
264,192,215784,1,0,0:0:0
264,192,216042,1,0,0:0:0
264,192,216365,1,0,0:0:0
264,192,216624,1,0,0:0:0
264,192,216831,1,0,0:0:0
264,192,217051,1,0,0:0:0
264,192,217296,1,0,0:0:0
264,192,217529,1,0,0:0:0
264,192,217775,1,8,0:0:0
264,192,218021,1,8,0:0:0
264,192,218253,1,8,0:0:0
264,192,218447,1,8,0:0:0
264,192,218693,1,8,0:0:0
264,192,218939,1,8,0:0:0
264,192,219340,1,0,0:0:0
264,192,219753,1,0,0:0:0
264,192,220090,1,0,0:0:0
264,192,220452,1,0,0:0:0
264,192,220827,1,0,0:0:0
264,192,221357,1,0,0:0:0
264,192,221719,1,0,0:0:0
264,192,221952,1,0,0:0:0
264,192,222120,1,0,0:0:0
264,192,222495,1,0,0:0:0
264,192,222728,1,0,0:0:0
264,192,222896,1,0,0:0:0
264,192,223232,1,0,0:0:0
264,192,223452,1,0,0:0:0
264,192,223684,1,0,0:0:0
264,192,224059,1,8,0:0:0
264,192,224266,1,8,0:0:0
264,192,224473,1,8,0:0:0
264,192,224848,1,0,0:0:0
264,192,225262,1,0,0:0:0
264,192,225663,1,0,0:0:0
264,192,225883,1,0,0:0:0
264,192,226090,1,0,0:0:0
264,192,226309,1,0,0:0:0
264,192,226503,1,0,0:0:0
264,192,226723,1,0,0:0:0
264,192,226943,1,0,0:0:0
264,192,227137,1,0,0:0:0
264,192,227396,1,0,0:0:0
264,192,227641,1,8,0:0:0
264,192,227861,1,8,0:0:0
264,192,228120,1,0,0:0:0
264,192,228353,1,0,0:0:0
264,192,228559,1,0,0:0:0
264,192,228779,1,0,0:0:0
264,192,229025,1,8,0:0:0
264,192,229271,1,8,0:0:0
264,192,229465,1,8,0:0:0
264,192,229671,1,8,0:0:0
264,192,229930,1,0,0:0:0
264,192,230228,1,0,0:0:0
264,192,230473,1,0,0:0:0
264,192,230693,1,0,0:0:0
264,192,230913,1,0,0:0:0
264,192,231171,1,0,0:0:0
264,192,231365,1,0,0:0:0
264,192,231521,1,8,0:0:0
264,192,231857,1,8,0:0:0
264,192,232064,1,8,0:0:0
264,192,232296,1,8,0:0:0
264,192,232710,1,8,0:0:0
264,192,233046,1,8,0:0:0
264,192,233331,1,8,0:0:0
264,192,233693,1,0,0:0:0
264,192,234042,1,0,0:0:0
264,192,234443,1,0,0:0:0
264,192,235258,1,0,0:0:0
264,192,235490,1,0,0:0:0
264,192,235749,1,0,0:0:0
264,192,236072,1,0,0:0:0
264,192,236318,1,0,0:0:0
264,192,236512,1,0,0:0:0
264,192,236887,1,0,0:0:0
264,192,237120,1,0,0:0:0
264,192,237314,1,0,0:0:0
264,192,237702,1,0,0:0:0
264,192,237909,1,0,0:0:0
264,192,238115,1,0,0:0:0
264,192,238529,1,0,0:0:0
264,192,238736,1,0,0:0:0
264,192,238943,1,0,0:0:0
264,192,239331,1,0,0:0:0
264,192,239564,1,0,0:0:0
264,192,239771,1,0,0:0:0
264,192,240081,1,0,0:0:0
264,192,240340,1,0,0:0:0
264,192,240559,1,0,0:0:0
264,192,240934,1,0,0:0:0
264,192,241154,1,0,0:0:0
264,192,241465,1,8,0:0:0
264,192,241775,1,0,0:0:0
264,192,242085,1,0,0:0:0
264,192,242305,1,0,0:0:0
264,192,242538,1,0,0:0:0
264,192,242784,1,0,0:0:0
264,192,243029,1,0,0:0:0
264,192,243430,1,8,0:0:0
264,192,243753,1,8,0:0:0
264,192,244090,1,8,0:0:0
264,192,244452,1,8,0:0:0
264,192,244801,1,8,0:0:0
264,192,245008,1,8,0:0:0
264,192,245215,1,8,0:0:0
264,192,245434,1,8,0:0:0
264,192,245654,1,8,0:0:0
264,192,245874,1,8,0:0:0
264,192,246107,1,8,0:0:0
264,192,246301,1,8,0:0:0
264,192,246521,1,8,0:0:0
264,192,246896,1,8,0:0:0
264,192,247271,1,8,0:0:0
264,192,247568,1,8,0:0:0
264,192,247853,1,8,0:0:0
264,192,248266,1,8,0:0:0
264,192,248577,1,8,0:0:0
264,192,248926,1,8,0:0:0
264,192,249262,1,8,0:0:0
264,192,249572,1,8,0:0:0
264,192,249896,1,8,0:0:0
264,192,250180,1,8,0:0:0
264,192,250503,1,8,0:0:0
264,192,250827,1,8,0:0:0
264,192,251124,1,8,0:0:0
264,192,251447,1,8,0:0:0
264,192,251784,1,8,0:0:0
264,192,252094,1,8,0:0:0
264,192,252378,1,8,0:0:0
264,192,252715,1,8,0:0:0
264,192,253064,1,8,0:0:0
264,192,253400,1,8,0:0:0
264,192,253697,1,8,0:0:0
264,192,253956,1,8,0:0:0
264,192,254292,1,8,0:0:0
264,192,254641,1,8,0:0:0
264,192,254990,1,8,0:0:0
264,192,255327,1,8,0:0:0
264,192,255689,1,8,0:0:0
264,192,255947,1,8,0:0:0
264,192,256296,1,8,0:0:0
264,192,256607,1,8,0:0:0
264,192,256930,1,8,0:0:0
264,192,257266,1,8,0:0:0
264,192,257551,1,8,0:0:0
264,192,257874,1,0,0:0:0
264,192,258197,1,0,0:0:0
264,192,258495,1,0,0:0:0
264,192,258818,1,0,0:0:0
264,192,259154,1,0,0:0:0
264,192,259503,1,8,0:0:0
264,192,259788,1,8,0:0:0
264,192,260124,1,8,0:0:0
264,192,261068,1,8,0:0:0
264,192,261391,1,8,0:0:0
264,192,261702,1,8,0:0:0
264,192,261999,1,8,0:0:0
264,192,262309,1,8,0:0:0
264,192,262659,1,0,0:0:0
264,192,262956,1,0,0:0:0
264,192,263266,1,0,0:0:0
264,192,263641,1,0,0:0:0
264,192,263926,1,0,0:0:0
264,192,264301,1,8,0:0:0
264,192,264650,1,8,0:0:0
264,192,264909,1,8,0:0:0
264,192,265219,1,8,0:0:0
264,192,265542,1,8,0:0:0
264,192,266021,1,0,0:0:0
264,192,266279,1,0,0:0:0
264,192,266538,1,0,0:0:0
264,192,266848,1,0,0:0:0
264,192,267159,1,0,0:0:0
264,192,267443,1,0,0:0:0
264,192,267740,1,0,0:0:0
264,192,268064,1,0,0:0:0
264,192,268387,1,0,0:0:0
264,192,268671,1,0,0:0:0
264,192,269059,1,0,0:0:0
264,192,269344,1,0,0:0:0
264,192,269706,1,0,0:0:0
264,192,269990,1,0,0:0:0
264,192,270288,1,0,0:0:0
264,192,270585,1,0,0:0:0
264,192,270702,1,0,0:0:0
264,192,270844,1,0,0:0:0
264,192,271051,1,0,0:0:0
264,192,271322,1,0,0:0:0
264,192,271542,1,0,0:0:0
264,192,271736,1,0,0:0:0
264,192,271853,1,0,0:0:0
264,192,272046,1,0,0:0:0
264,192,272628,1,0,0:0:0
264,192,273482,1,0,0:0:0
263,191,278512,5,4,0:0:0
263,191,280103,1,4,0:0:0
263,191,281654,1,4,0:0:0
263,191,283348,1,4,0:0:0
263,191,284900,1,4,0:0:0
263,191,285314,1,4,0:0:0
263,191,285728,1,4,0:0:0
263,191,286103,1,4,0:0:0
263,191,286490,1,4,0:0:0
263,191,286878,1,4,0:0:0
263,191,287266,1,4,0:0:0
263,191,287719,1,4,0:0:0
263,191,288133,1,4,0:0:0
263,191,288534,1,4,0:0:0
263,191,288973,1,4,0:0:0
263,191,289400,1,4,0:0:0
263,191,290434,1,4,0:0:0
263,191,290848,1,4,0:0:0
263,191,291197,1,4,0:0:0
263,191,291521,1,4,0:0:0
263,191,291844,1,4,0:0:0
263,191,292271,1,4,0:0:0
263,191,292529,1,4,0:0:0
263,191,292775,1,4,0:0:0
263,191,293034,1,4,0:0:0
263,191,293228,1,4,0:0:0
263,191,293486,1,4,0:0:0
263,191,293680,1,4,0:0:0
263,191,293939,1,4,0:0:0
263,191,294197,1,4,0:0:0
263,191,294391,1,4,0:0:0
263,191,294650,1,4,0:0:0
263,191,294934,1,4,0:0:0
263,191,295128,1,4,0:0:0
263,191,295387,1,4,0:0:0
263,191,295620,1,4,0:0:0
263,191,295814,1,4,0:0:0
263,191,296008,1,4,0:0:0
263,191,296202,1,4,0:0:0
263,191,296434,1,4,0:0:0
263,191,296628,1,4,0:0:0
263,191,296861,1,4,0:0:0
263,191,297029,1,4,0:0:0
263,191,297236,1,4,0:0:0
263,191,297495,1,4,0:0:0
263,191,298141,1,4,0:0:0
263,191,298426,1,4,0:0:0
263,191,298788,1,0,0:0:0
263,191,299072,1,0,0:0:0
263,191,299473,1,0,0:0:0
263,191,299680,1,0,0:0:0
263,191,299874,1,0,0:0:0
263,191,300029,1,0,0:0:0
263,191,300236,1,0,0:0:0
263,191,300404,1,0,0:0:0
263,191,300650,1,0,0:0:0
263,191,300921,1,0,0:0:0
263,191,301309,1,0,0:0:0
263,191,301697,1,0,0:0:0
263,191,302034,1,0,0:0:0
263,191,302253,1,0,0:0:0
263,191,302499,1,0,0:0:0
263,191,302693,1,0,0:0:0
263,191,303107,1,0,0:0:0
263,191,303611,1,0,0:0:0
263,191,304400,1,0,0:0:0
263,191,304827,1,0,0:0:0
263,191,305202,1,0,0:0:0
263,191,305512,1,0,0:0:0
263,191,305952,1,0,0:0:0
263,191,306159,1,0,0:0:0
263,191,306598,1,0,0:0:0
263,191,306792,1,0,0:0:0
263,191,306934,1,0,0:0:0
263,191,307103,1,0,0:0:0
263,191,307284,1,0,0:0:0
263,191,307465,1,0,0:0:0
263,191,307633,1,0,0:0:0
263,191,308111,1,0,0:0:0
263,191,308460,1,0,0:0:0
263,191,308654,1,0,0:0:0
263,191,309107,1,0,0:0:0
263,191,309288,1,0,0:0:0
263,191,309469,1,0,0:0:0
263,191,309740,1,0,0:0:0
263,191,309960,1,0,0:0:0
263,191,310154,1,0,0:0:0
263,191,310452,1,0,0:0:0
263,191,310827,1,0,0:0:0
263,191,311266,1,0,0:0:0
263,191,311628,1,0,0:0:0
263,191,311887,1,0,0:0:0
263,191,312275,1,0,0:0:0
263,191,312456,1,0,0:0:0
263,191,312805,1,0,0:0:0
263,191,313038,1,0,0:0:0
263,191,313387,1,0,0:0:0
263,191,313827,1,0,0:0:0
263,191,314124,1,0,0:0:0
263,191,314447,1,0,0:0:0
263,191,314745,1,0,0:0:0
263,191,315068,1,0,0:0:0
263,191,315534,1,0,0:0:0
263,191,315753,1,0,0:0:0
263,191,316115,1,0,0:0:0
263,191,316413,1,0,0:0:0
263,191,316684,1,0,0:0:0
263,191,317228,1,0,0:0:0
263,191,317564,1,0,0:0:0
263,191,318068,1,0,0:0:0
263,191,318417,1,0,0:0:0
264,192,320059,1,0,0:0:0
264,192,320486,1,0,0:0:0
264,192,320874,1,0,0:0:0
264,192,321275,1,0,0:0:0
264,192,321637,1,0,0:0:0
264,192,321909,1,0,0:0:0
264,192,322167,1,0,0:0:0
264,192,322426,1,0,0:0:0
264,192,322697,1,0,0:0:0
264,192,322956,1,0,0:0:0
264,192,323215,1,0,0:0:0
264,192,323628,1,0,0:0:0
264,192,324029,1,0,0:0:0
264,192,324353,1,0,0:0:0
264,192,324740,1,0,0:0:0
264,192,325154,1,0,0:0:0
264,192,325620,1,0,0:0:0
264,192,326021,1,0,0:0:0
264,192,326421,1,0,0:0:0
264,192,327689,1,0,0:0:0
264,192,328064,1,0,0:0:0
264,192,328801,1,0,0:0:0
264,192,329719,1,0,0:0:0
264,192,330482,1,0,0:0:0
264,192,331232,1,0,0:0:0
264,192,331633,1,0,0:0:0
264,192,331995,1,0,0:0:0
264,192,332822,1,0,0:0:0
264,192,333611,1,0,0:0:0
264,192,334426,1,0,0:0:0
264,192,334840,1,0,0:0:0
264,192,335228,1,0,0:0:0
264,192,335499,1,8,0:0:0
264,192,335809,1,8,0:0:0
264,192,336430,1,0,0:0:0
264,192,337193,1,0,0:0:0
264,192,337943,1,0,0:0:0
264,192,338590,1,0,0:0:0
264,192,339120,1,8,0:0:0
264,192,339650,1,8,0:0:0
264,192,340038,1,8,0:0:0
264,192,340633,1,0,0:0:0
264,192,340982,1,0,0:0:0
264,192,341421,1,0,0:0:0
264,192,341654,1,0,0:0:0
264,192,341887,1,0,0:0:0
264,192,342094,1,0,0:0:0
264,192,342314,1,0,0:0:0
264,192,342521,1,0,0:0:0
264,192,342740,1,0,0:0:0
264,192,342960,1,0,0:0:0
264,192,343193,1,0,0:0:0
264,192,343503,1,0,0:0:0
264,192,343775,1,0,0:0:0
264,192,344046,1,0,0:0:0
264,192,344305,1,0,0:0:0
264,192,345107,1,0,0:0:0
264,192,345314,1,0,0:0:0
264,192,345546,1,0,0:0:0
264,192,345779,1,0,0:0:0
264,192,345999,1,0,0:0:0
264,192,346206,1,0,0:0:0
264,192,346478,1,0,0:0:0
264,192,346814,1,0,0:0:0
264,192,347085,1,0,0:0:0
264,192,347796,1,8,0:0:0
264,192,348029,1,8,0:0:0
264,192,348249,1,8,0:0:0
264,192,348443,1,8,0:0:0
264,192,348650,1,8,0:0:0
264,192,348857,1,8,0:0:0
