osu file format v6

[General]
AudioFilename: East_Clubbers_-_To_The_Moon_And_Back.mp3
AudioLeadIn: 1004
PreviewTime: 73577
Countdown: 0
SampleSet: Soft
StackLeniency: 0.4
Mode: 0
LetterboxInBreaks: 1

[Editor]
DistanceSpacing: 0.800000011920929
BeatDivisor: 4
GridSize: 8

[Metadata]
Title:To The Moon And Back
Artist:East Clubbers
Creator:simplistiC
Version:Hard
Source:E-Quality
Tags:progressive hard trance techno Savage Garden

[Difficulty]
HPDrainRate:6
CircleSize:4
OverallDifficulty:7
SliderMultiplier:2
SliderTickRate:0.5

[Events]
//Background and Video events
0,0,"untitled2.jpg"
//Break Periods
//Storyboard Layer 0 (Background)
//Storyboard Layer 1 (Fail)
//Storyboard Layer 2 (Pass)
//Storyboard Layer 3 (Foreground)
//Storyboard Sound Samples
//Background Colour Transformations
3,100,163,162,255

[TimingPoints]
1337,428.571428571429,4,2,0,100,1,0
2095,-100,4,2,0,50,0,0
2737,-100,4,2,0,90,0,0
3827,-100,4,2,0,50,0,0
4470,-100,4,2,0,90,0,0
5755,-100,4,2,0,50,0,0
5970,-100,4,2,0,90,0,0
7255,-100,4,2,0,50,0,0
7452,-100,4,2,0,90,0,0
7666,-100,4,2,0,60,0,0
8095,-100,4,2,0,90,0,0
8952,-100,4,2,0,50,0,0
9595,-100,4,2,0,90,0,0
10666,-100,4,2,0,50,0,0
11309,-100,4,2,0,90,0,0
12595,-100,4,2,0,49,0,0
12809,-100,4,2,0,90,0,0
14095,-100,4,2,0,50,0,0
14309,-100,4,2,0,90,0,0
14523,-100,4,2,0,50,0,0
14952,-100,4,2,0,90,0,0
22880,-100,4,2,0,49,0,0
23095,-100,4,2,0,90,0,0
24380,-100,4,2,0,51,0,0
25023,-100,4,2,0,90,0,0
26095,-100,4,2,0,51,0,0
26737,-100,4,2,0,90,0,0
30271,-100,4,1,0,70,0,0
45807,-200,4,1,0,70,0,0
46235,-100,4,1,0,70,0,0
59095,-100,4,1,0,0,0,0
59307,-100,4,1,0,70,0,0
59630,-100,4,1,0,70,0,1
86952,-100,4,2,0,90,0,0
99809,-100,4,1,0,70,0,0
113523,-100,4,2,0,90,0,0
128523,-100,4,1,0,70,0,0
134845,-100,4,2,0,90,0,0
149523,-100,4,1,0,70,0,0
159862,-100,4,2,0,90,0,0
162487,-100,4,1,0,70,0,1
189916,-200,4,1,0,70,0,0
196880,-100,4,2,0,0,0,0

[Colours]
Combo1 : 61,97,131
Combo2 : 223,252,255
Combo3 : 132,176,213
Combo4 : 255,255,255

[HitObjects]
256,192,1336,1,2
160,96,1551,1,2
64,192,1765,1,0
64,192,2194,1,8
64,192,2622,1,8
256,192,3051,5,2
352,288,3265,1,2
448,192,3479,1,0
448,192,3908,1,8
448,192,4337,1,8
448,192,4765,5,0
352,96,4979,1,2
256,192,5194,1,2
64,192,5622,1,0
64,192,5836,1,4
64,192,6051,1,0
64,192,6479,5,0
160,288,6694,1,2
256,192,6908,1,2
256,192,7336,1,8
256,192,7765,2,2,B|256:136,2,50
256,192,8194,6,0,L|256:296,2,100,2|2|0
256,360,9051,2,0,L|464:360,1,200,8|8
256,192,9908,2,0,L|256:80,2,100,2|2|0
256,24,10765,2,0,L|48:24,1,200,8|8
256,192,11622,6,0,L|376:192,2,100,2|2|0
424,192,12479,2,0,L|424:80,2,100,0|4|0
256,192,13336,6,0,L|136:192,2,100,2|2|0
256,192,14194,1,8
256,192,14622,2,2,B|256:136,2,50
256,192,15051,1,2
352,96,15265,5,0
352,96,15372,1,0
352,96,15479,1,0
336,176,15694,1,0
272,96,15908,1,0
328,16,16122,1,2
416,48,16336,1,0
424,144,16551,1,4
256,192,16765,5,0
160,288,16979,5,0
160,288,17086,1,0
160,288,17194,1,0
176,208,17408,1,0
240,288,17622,1,2
184,368,17836,1,0
96,336,18051,1,2
88,240,18265,1,4
256,272,18479,5,0
256,272,18694,1,0
312,192,18908,1,0
248,112,19122,1,0
160,144,19337,1,2
160,240,19551,1,0
224,192,19765,1,0
160,112,19979,1,0
216,32,20194,5,0
312,64,20408,1,0
312,160,20622,1,0
240,112,20837,1,0
184,192,21051,1,2
248,272,21265,1,2
336,240,21479,1,2
328,144,21694,1,2
256,192,21908,5,6
256,192,22122,1,0
256,192,22337,1,0
256,48,22765,1,0
256,120,22979,1,4
256,192,23194,1,0
120,192,23622,6,0,B|48:224|128:264,2,100
256,192,24479,1,2
256,192,24908,1,2
392,192,25337,6,0,B|461:161|389:125,2,100
256,192,26194,1,0
256,264,26408,1,4
256,336,26622,1,0
256,56,27051,6,0,B|256:156,2,100,0|0|0
256,56,27908,1,2
120,192,28122,1,2
256,328,28337,1,2
392,192,28551,1,2
256,208,28765,12,4,30051
80,328,30479,6,0,B|56:296|104:280|80:232,1,100,8|0
432,56,31122,2,0,B|456:88|408:104|432:152,1,100,8|0
80,56,31765,2,0,B|56:88|104:104|80:152,1,100,8|0
432,328,32408,2,0,B|456:296|408:280|432:232,1,100,8|0
256,192,33051,1,0
256,192,33265,2,0,B|280:224|232:240|256:288,1,100,8|0
256,192,33694,5,0
256,192,33908,2,0,B|232:160|280:144|256:96,1,100,8|0
256,96,34551,6,0,B|232:64|280:48|256:0,1,100,8|0
339,240,35194,2,0,B|378:235|368:284|422:288,1,100,8|0
172,240,35837,2,0,B|133:235|143:284|89:288,1,100,8|0
312,272,36479,6,0,B|312:192|200:192,1,100,4|0
164,210,36908,2,0,B|233:250|289:153,1,100,4|0
290,113,37337,2,0,B|221:153|277:250,1,100,4|0
96,72,37979,6,0,B|200:72,1,100,2|0
416,72,38622,2,0,B|312:72,1,100,2|0
256,192,39265,2,0,B|256:296,1,100,2|0
353,72,39908,1,2
353,72,40122,2,0,B|249:72,1,100,2|0
154,71,40551,1,2
154,71,40765,2,0,B|258:71,1,100,2|0
423,311,41408,6,0,B|370:308|380:259|341:264,1,100,8|0
91,311,42051,2,0,B|145:308|135:259|174:264,1,100,8|0
256,24,42694,2,0,B|233:72|281:88|257:120,1,100,8|0
200,264,43337,5,4
200,264,43551,2,0,B|200:184|312:184,1,100,4|0
312,120,43979,1,4
312,120,44194,2,0,B|312:200|200:200,1,100,4|0
240,280,44622,5,0
176,200,44836,1,0
232,120,45051,1,8
320,152,45265,1,0
328,248,45479,1,0
256,200,45694,1,0
336,200,45908,2,0,B|416:200,1,50,8|0
400,120,46336,5,8
464,200,46551,1,0
400,280,46765,1,0
312,248,46979,1,8
312,152,47194,1,0
384,200,47408,2,2,B|176:200,1,200
120,200,48051,1,4
120,200,48479,5,8
48,200,48694,1,0
120,200,48908,1,0
120,200,49122,2,2,B|328:200,1,200
392,200,49765,1,8
464,200,49979,1,0
464,200,50194,2,0,B|464:312,2,100,2|0|2
256,192,51051,5,4
72,56,51479,5,8
144,16,51694,1,0
216,56,51908,1,0
216,136,52122,1,8
144,176,52336,1,0
72,136,52551,1,0
144,96,52765,2,0,B|256:96,2,100,2|0|2
144,96,53408,1,0
144,96,53622,1,8
368,96,54051,6,0,B|216:96,2,100,8|0|8
368,288,54908,1,0
144,288,55336,1,0
144,96,55765,2,0,B|244:96,2,100,8|0|8
256,192,56622,1,0
256,192,57051,2,0,B|280:224|232:240|256:288,2,100,8|0|8
256,208,57908,12,0,59194
304,140,59622,6,0,B|304:244,1,100,8|0
256,300,60051,1,0
208,240,60265,2,0,B|208:140,1,100,0|8
256,84,60694,1,0
312,32,60908,2,0,B|440:32,1,100,8|0
464,88,61336,1,0
416,144,61551,6,0,B|416:272,1,100,0|8
376,312,61979,1,0
312,256,62194,2,0,B|200:256,1,100,8|0
136,256,62622,1,0
136,256,62836,1,0
136,256,63051,2,0,B|136:128,2,100,8|0|8
320,256,63694,6,0,B|432:256,1,100,0|8
256,256,64122,1,0
192,256,64336,2,0,B|64:256,1,100,8|0
256,192,64765,1,0
320,192,64979,2,0,B|432:192,1,100,0|8
256,192,65408,1,0
192,192,65622,2,0,B|88:192,1,100,8|0
256,128,66051,1,0
256,128,66265,1,0
320,128,66479,2,0,B|440:128,1,100,8|0
256,128,66908,1,0
192,128,67122,2,0,B|64:128,1,100,0|8
304,336,67765,6,0,B|416:336,1,100,8|0
256,336,68194,1,0
296,296,68408,2,0,B|380:212,1,100,0|8
256,336,68836,1,4
256,288,69051,2,0,B|256:176,1,100,8|0
256,336,69479,1,0
256,336,69694,1,0
216,296,69908,2,0,B|132:212,1,100,0|8
200,336,70336,2,4,B|88:336,1,100
256,208,70765,12,0,73336
296,248,73765,5,0
296,248,73979,2,0,B|216:327,1,100
216,248,74408,2,0,B|289:321,1,100,0|8
216,136,74837,2,0,B|286:65,1,100
296,136,75265,2,0,B|222:62,2,100,0|8|0
296,136,75908,1,0
216,136,76122,5,0
256,192,76337,1,8
256,192,76551,2,0,B|256:80,1,100,0|8
256,304,77194,5,4
256,80,77622,5,0
256,80,77836,1,0
256,80,78051,1,0
256,80,78265,2,2,B|256:296,1,200
256,344,78908,1,0
256,80,79336,2,0,B|256:192,2,100,8|0|8
296,288,80194,6,0,L|296:232|352:232,1,100,8|0
256,192,80622,1,0
296,96,80836,2,0,L|296:152|352:152,1,100,0|8
256,192,81265,1,0
216,96,81479,2,0,L|216:152|160:152,1,100,8|0
256,192,81908,1,0
216,288,82122,2,0,L|216:232|160:232,1,100,0|8
456,192,82765,6,0,B|336:192,4,100
256,208,83836,12,0,86622
64,32,87051,5,2
64,64,87158,1,0
64,96,87265,1,2
136,96,87479,1,0
136,128,87586,1,2
136,160,87694,1,0
216,160,87908,1,2
216,192,88015,1,0
216,224,88122,1,2
296,224,88336,5,2
296,192,88444,1,0
296,160,88551,1,2
376,160,88765,1,0
376,128,88872,1,2
376,96,88979,1,0
448,96,89194,1,2
448,64,89301,1,0
448,32,89408,1,2
376,32,89622,6,0,B|312:32,2,50,2|0|2
376,96,90051,2,0,B|376:160,2,50,0|2|0
312,96,90479,2,0,B|248:96,2,50,2|0|2
312,160,90908,6,0,B|312:224,2,50,2|0|2
248,160,91336,2,0,B|184:160,2,50,0|2|0
248,224,91765,2,0,B|248:288,2,50,2|0|2
184,224,92194,6,0,B|120:224,2,50,2|0|2
184,288,92622,2,0,B|184:352,2,50,0|2|0
120,288,93051,2,0,B|56:288,2,50,2|0|2
112,224,93479,5,2
112,224,93586,1,0
112,224,93694,1,2
184,224,93908,1,0
184,224,94015,1,2
184,224,94122,1,0
256,224,94336,1,2
256,224,94444,1,0
256,224,94551,1,2
328,224,94765,5,2
328,224,94872,1,0
328,224,94979,1,2
400,224,95194,1,0
400,224,95301,1,2
400,224,95408,1,0
400,160,95622,1,2
400,160,95729,1,0
400,160,95836,1,2
328,160,96051,5,2
328,160,96158,1,0
328,160,96265,1,2
256,160,96479,1,0
256,160,96586,1,2
256,160,96694,1,0
184,160,96908,1,2
184,160,97015,1,0
184,160,97122,1,2
112,160,97336,5,2
112,160,97444,1,0
112,160,97551,1,2
112,88,97765,2,0,B|112:8,2,50,0|2|0
184,88,98194,2,0,B|184:16,2,50,2|0|2
256,88,98622,6,0,B|256:16,2,50,2|0|2
328,88,99051,2,0,B|328:32,2,50,0|2|0
400,88,99479,2,0,B|400:24,2,50,2|0|2
456,32,99908,5,4
472,120,100122,1,0
392,168,100336,1,4
320,96,100551,1,0
368,16,100765,1,2
112,96,101194,5,8
256,96,101622,1,0
256,96,101836,5,0
256,192,102051,1,8
256,288,102265,1,4
256,288,102479,5,8
256,96,102908,1,0
256,352,103336,5,2
416,192,103765,1,2
256,32,104194,1,2
96,192,104622,1,2
96,192,104836,1,0
96,192,105051,5,2
256,32,105479,1,2
416,192,105908,1,2
256,352,106336,1,2
56,352,106765,5,4
40,264,106979,1,0
120,216,107194,1,4
192,288,107408,1,0
144,368,107622,1,2
56,352,107836,5,0
40,264,108051,1,8
120,216,108265,1,0
192,288,108479,1,0
256,288,108694,5,0
256,192,108908,1,8
256,96,109122,1,4
256,192,109336,5,0
256,288,109551,1,0
256,192,109765,1,8
256,96,109979,1,0
256,32,110194,5,2
96,192,110622,1,2
256,352,111051,1,2
416,192,111479,1,2
416,192,111694,1,0
416,192,111908,5,2
256,352,112336,1,2
96,192,112765,1,2
256,32,113194,1,2
192,128,113622,5,8
320,136,113836,1,0
320,248,114051,1,0
192,248,114265,1,0
256,192,114479,1,12
192,128,114694,5,0
192,128,114801,1,0
192,128,114908,1,0
128,72,115122,1,8
256,72,115336,1,0
256,192,115551,1,0
128,192,115765,1,8
192,128,115979,1,4
256,192,116194,5,0
320,256,116408,5,8
320,256,116515,1,0
320,256,116622,1,0
384,312,116836,1,0
256,312,117051,1,8
256,192,117265,1,0
384,192,117479,1,0
320,256,117694,1,8
320,256,117908,5,4
392,256,118122,1,0
392,256,118336,1,4
464,256,118551,1,0
464,256,118765,1,0
464,184,118979,1,0
464,184,119194,1,4
464,112,119408,1,0
464,112,119622,1,0
392,112,119836,1,0
392,112,120051,1,4
320,112,120265,1,0
320,112,120479,6,0,B|208:112,1,100,2|2
220,112,120908,1,2
152,200,121122,1,2
152,200,121336,1,4
80,288,121551,5,0
80,288,121658,1,0
80,288,121765,1,0
152,288,121979,1,0
152,288,122194,1,0
224,288,122408,1,0
224,288,122622,1,0
296,288,122836,2,0,B|400:288,4,100,0|8|0|8|0
296,288,123908,1,0
296,288,124122,2,0,B|296:184,1,100,0|4
112,72,124765,5,12
400,72,125194,5,0
400,72,125408,2,0,B|400:192,1,100,0|8
328,72,125836,2,0,B|328:184,1,100,0|8
256,72,126265,2,0,B|256:192,1,100,0|8
256,72,126694,1,0
256,72,126908,1,0
168,280,127336,5,2
344,280,127551,1,2
344,104,127765,1,2
168,104,127979,1,2
256,192,128194,1,6
256,192,128622,5,4
356,192,128836,2,0,B|256:192,1,100,0|8
256,192,129265,1,0
156,192,129479,2,0,B|256:192,1,100,8|0
256,192,129908,2,2,B|152:104|392:112|216:4,1,200
255,31,130551,1,0
256,112,130765,1,0
256,192,130979,5,0
256,272,131194,1,0
256,352,131408,2,2,B|360:264|120:272|296:164,1,200
258,191,132051,1,0
408,280,132479,5,0
408,280,132694,1,2
408,280,132908,1,0
384,208,133122,2,2,B|320:208|320:280|320:352|400:352,1,200
432,352,133765,2,2,B|496:352|496:280|496:208|416:208,1,200
408,280,134408,1,0
408,280,134622,1,4
256,192,135051,6,0,B|192:192,2,50,0|2|2
256,192,135479,2,0,B|210:146,2,50,0|2|2
256,192,135908,2,0,B|256:128,2,50,0|2|2
256,192,136336,2,0,B|301:146,2,50,0|2|2
256,192,136765,2,0,B|320:192,2,50,0|2|2
256,192,137194,2,0,B|301:237,2,50,0|2|2
256,192,137622,2,0,B|256:256,2,50,0|2|2
256,192,138051,2,0,B|210:237,2,50,0|2|2
206,192,138479,6,0,B|136:192,2,50,0|2|2
220,156,138908,2,0,B|171:107,2,50,0|2|2
256,142,139336,2,0,B|256:72,2,50,0|2|2
291,156,139765,2,0,B|340:107,2,50,0|2|2
306,192,140194,2,0,B|376:192,2,50,0|2|2
291,227,140622,2,0,B|340:276,2,50,0|2|2
256,242,141051,2,0,B|256:312,2,50,0|2|2
220,227,141479,2,0,B|171:276,2,50,0|2|2
256,192,141908,1,4
156,192,142336,6,0,B|88:192,2,50,0|2|2
185,121,142765,2,0,B|149:85,2,50,0|2|2
256,92,143194,2,0,B|256:24,2,50,0|2|2
326,121,143622,2,0,B|362:85,2,50,0|2|2
356,192,144051,2,0,B|424:192,2,50,0|2|2
326,262,144479,2,0,B|362:298,2,50,0|2|2
256,292,144908,2,0,B|256:360,2,50,0|2|2
185,262,145336,2,0,B|149:298,2,50,0|2|2
106,192,145765,6,0,B|32:192,2,50,0|2|2
149,85,146194,2,0,B|97:33,2,50,0|2|2
256,56,146622,2,0,B|256:-18,2,50,0|2|2
362,85,147051,2,0,B|414:33,2,50,0|2|2
406,192,147479,2,0,B|480:192,2,50,0|2|2
362,298,147908,2,0,B|414:350,2,50,0|2|2
256,328,148337,2,0,B|256:402,2,50,0|2|2
149,298,148765,2,0,B|97:350,2,50,0|2|2
106,192,149194,2,0,B|32:192,2,50,0|2|2
176,192,149622,5,8
176,192,149837,1,0
312,248,150051,5,0
312,248,150265,1,0
256,112,150479,5,8
256,112,150694,1,0
200,248,150908,5,0
199,248,151122,1,0
336,192,151337,5,8
336,192,151551,1,0
200,136,151765,5,0
199,135,151979,1,0
256,272,152194,5,8
256,272,152408,1,0
256,192,152622,5,0
272,192,152729,1,0
288,192,152837,1,0
304,192,152944,1,0
320,192,153051,1,0
336,192,153158,1,0
352,192,153265,1,0
368,192,153372,1,0
384,192,153479,1,0
440,192,153694,5,0
72,192,154122,1,0
256,320,154551,1,0
256,64,154979,1,0
72,192,155408,2,0,B|152:112|208:248|272:179,1,200,8|8
440,192,156265,2,0,B|360:112|304:248|240:179,1,200,8|8
256,192,157122,1,4
256,80,157551,5,0
256,80,157765,1,8
368,192,157979,1,0
368,192,158194,1,8
256,304,158408,1,0
256,304,158622,1,8
144,192,158837,1,0
144,192,159051,5,4
176,192,159158,1,0
208,192,159265,1,4
240,192,159372,1,0
272,192,159479,1,4
304,192,159587,1,0
336,192,159694,1,4
368,192,159801,1,0
408,192,159908,6,2,B|408:144,16,25
256,280,161194,5,0
288,280,161301,1,0
320,280,161408,1,0
256,192,161622,1,0
224,192,161729,1,0
192,192,161837,1,0
256,104,162051,1,0
288,104,162158,1,0
320,104,162265,1,0
256,104,162479,6,0,L|128:104,1,100,4|0
256,104,162908,1,0
256,280,163122,2,0,L|384:280,1,100,4|0
256,280,163551,1,0
168,192,163765,2,0,B|168:304,1,100,4|0
168,192,164194,1,0
344,192,164408,2,0,B|344:80,1,100,4|0
344,192,164837,1,0
256,192,165051,5,0
168,192,165265,2,0,B|56:192,1,100,0|8
256,192,165694,1,0
344,192,165908,2,0,B|456:192,1,100,0|8
256,192,166337,5,0
256,104,166551,2,0,B|256:-40,1,100,2|0
256,280,167194,2,0,B|256:424,1,100,2|0
360,192,167837,2,0,B|472:192,1,100,2|0
152,192,168479,2,0,B|24:192,1,100,2|0
52,192,168908,1,0
52,192,169337,6,0,B|152:192,1,100,2|0
460,192,169979,2,0,B|360:192,1,100,2|0
256,4,170622,2,0,B|256:104,1,100,2|0
256,376,171265,2,0,B|256:276,1,100,2|0
256,128,171908,5,0
256,128,172122,2,0,B|192:80|296:16,1,100,8|0
256,128,172551,1,0
256,128,172765,2,0,B|320:176|216:240,1,100,8|0
256,128,173194,2,4,B|192:80|296:16,1,100
256,208,173622,12,0,176194
256,192,176622,5,8
416,192,176837,2,0,B|312:192,1,100,0|8
256,192,177265,1,0
256,32,177479,2,0,B|256:136,1,100,8|0
256,192,177908,1,8
96,192,178122,2,0,B|208:192,1,100,0|8
256,192,178551,1,0
256,352,178765,2,0,B|256:160,3,100,8|0|8|0
256,128,179622,2,0,B|256:24,1,100,8|0
256,192,180051,1,12
376,88,180265,6,0,B|376:240,1,100,0|8
256,192,180694,1,0
136,88,180908,2,0,B|136:216,1,100,8|0
256,192,181337,1,8
376,288,181551,6,0,B|376:168,1,100,0|8
256,192,181979,1,0
136,288,182194,2,0,B|136:120,1,100,8|0
256,192,182622,1,8
256,192,182837,1,0
376,288,183051,2,0,B|376:144,1,100,8|0
256,192,183479,1,12
336,80,183694,6,0,B|312:32|280:144|248:64,1,100,0|2
256,80,184122,1,0
176,80,184337,2,0,B|200:32|232:144|264:64,1,100,2|0
256,192,184765,1,4
216,296,184979,2,0,B|240:344|272:232|304:312,1,100,0|2
296,296,185408,1,0
296,296,185622,2,0,B|320:344|352:232|384:312,3,100,2|0|2|0
376,216,186479,2,0,B|336:216|336:184|336:152|408:152,1,100,2|0
376,216,186908,2,4,B|416:216|416:184|416:152|352:152,1,100,14|4
256,208,187337,12,4,189908
96,40,190337,5,0
160,40,190551,2,0,B|160:112,1,50,0|8
160,144,190979,1,0
224,144,191194,2,0,B|288:144,1,50,8|0
336,144,191622,1,0
400,144,191837,2,0,B|400:216,1,50,0|8
400,256,192265,1,4
400,256,192479,5,0
400,256,192694,2,0,B|480:256,1,50,0|8
400,256,193122,1,0
400,256,193337,2,0,B|320:256,1,50,8|0
304,256,193765,1,0
304,256,193979,6,0,B|304:336,1,50,8|0
304,360,194408,1,0
240,360,194622,2,0,B|240:288,1,50,0|8
240,256,195051,1,0
176,256,195265,2,0,B|112:256,1,50,8|0
64,256,195694,1,0
0,256,195908,2,0,B|0:184,1,50,0|8
0,144,196337,1,0
0,80,196551,2,0,B|64:80,1,50,8|0
256,208,196979,12,0,198479
