osu file format v6

[General]
AudioFilename: 04-east_clubbers-easy_junkie.mp3
AudioLeadIn: 0
PreviewTime: -1
Countdown: 0
SampleSet: Normal
StackLeniency: 0.7
Mode: 0
LetterboxInBreaks: 0

[Editor]
DistanceSpacing: 0.5
BeatDivisor: 4
GridSize: 8

[Metadata]
Title:Easy Junkie
Artist:East Clubbers
Creator:SteRRuM
Version:Easy Junkie
Source:
Tags:

[Difficulty]
HPDrainRate:0
CircleSize:5
OverallDifficulty:4
SliderMultiplier:1.4
SliderTickRate:4

[Events]
//Background and Video events
0,0,"bg.jpg"
//Break Periods
//Storyboard Layer 0 (Background)
//Storyboard Layer 1 (Fail)
//Storyboard Layer 2 (Pass)
//Storyboard Layer 3 (Foreground)
//Storyboard Sound Samples
//Background Colour Transformations
3,100,0,0,0

[TimingPoints]
33455,461.538461538462,4,1,1,70,1,0
62989,-100,4,1,1,70,0,0

[Colours]
Combo1 : 254,177,177
Combo2 : 194,254,194
Combo3 : 179,179,253

[HitObjects]
72,56,33455,2,0,B|232:56,1,140,4|2
280,56,34378,2,0,B|440:56,1,140,0|2
424,136,35301,2,0,B|424:296,1,140,0|2
352,272,36224,2,0,B|352:104,1,140,0|2
280,136,37147,5,0
280,208,37608,1,8
216,240,38070,1,0
152,208,38531,1,8
152,168,38762,6,0,B|152:80,1,70,0|8
152,64,39224,2,0,B|152:-8,3,70,0|8|0|8
216,24,40147,1,0
216,24,40378,1,8
288,24,40839,6,0,B|448:24,1,140,2|8
424,96,41762,2,0,B|272:96,1,140,2|8
216,96,42685,2,0,B|216:184,2,70,2|8|2
288,104,43608,1,8
320,104,43839,1,0
352,104,44070,1,8
384,104,44301,2,0,B|384:200,1,70,0|0
384,344,44993,5,8
352,344,45224,1,0
320,344,45455,1,8
288,344,45685,2,0,B|200:344,1,70,0|2
216,304,46147,2,0,B|304:304,1,70,0|2
288,272,46608,2,0,B|192:272,1,70,0|2
184,272,47070,1,0
184,272,47301,1,8
184,240,47531,2,0,B|184:88,1,140,0|4
184,64,48224,6,0,B|272:64,4,70,2|0|2|0|2
216,80,49378,2,0,B|216:232,2,140,0|8|0
248,136,50531,6,0,B|336:136|328:40,1,140,0|4
328,48,51224,1,2
328,48,51455,1,2
256,48,51916,6,0,B|16:48,3,210,0|2|8|0
48,80,54224,1,0
48,112,54455,2,0,B|136:112,1,70,0|8
120,144,54916,2,0,B|32:144,2,70,0|8|0
120,144,55608,6,0,B|40:232|72:368|192:368|192:336,2,280,0|4|0
120,72,57916,1,0
120,72,58378,2,0,B|200:72,2,70
224,104,59301,6,0,B|224:280|24:280,2,280,0|4|0
256,104,61378,1,0
288,104,61608,1,8
320,104,61839,1,0
352,104,62070,2,0,B|352:248,1,140,8|2
352,280,62762,1,8
352,312,62993,6,0,B|136:312|80:216|96:56|328:0,2,560,0|4|0
352,240,67147,5,8
352,168,67608,1,2
280,168,68070,2,0,B|128:168,2,140,2|8|2
312,168,69224,1,8
312,168,69455,1,8
344,168,69685,2,0,B|344:336,1,140,2|12
304,312,70378,5,2
232,312,70839,1,8
160,312,71301,1,2
160,240,71762,2,0,B|312:240,1,140,2|0
296,168,72685,2,0,B|152:168,3,140,2|0|4|0
88,168,74531,5,8
88,240,74993,1,0
160,240,75455,2,0,B|160:328,2,70,8|0|2
232,240,76378,2,0,B|408:240,3,140,0|4|0|4
