osu file format v9

[General]
AudioFilename: East Clubbers - Drop.mp3
AudioLeadIn: 0
PreviewTime: 26556
Countdown: 1
SampleSet: Normal
StackLeniency: 0.7
Mode: 0
LetterboxInBreaks: 1

[Editor]
DistanceSpacing: 1
BeatDivisor: 2
GridSize: 8

[Metadata]
Title:Drop
Artist:East Clubbers
Creator:ReVeNg3r
Version:Normal
Source:
Tags:Yatalu

[Difficulty]
HPDrainRate:3
CircleSize:3
OverallDifficulty:4
ApproachRate:4
SliderMultiplier:1
SliderTickRate:2

[Events]
//Background and Video events
0,0,"bg2.jpg"
//Break Periods
2,70439,75639
2,137643,142844
//Storyboard Layer 0 (Background)
//Storyboard Layer 1 (Fail)
//Storyboard Layer 2 (Pass)
//Storyboard Layer 3 (Foreground)
//Storyboard Sound Samples
//Background Colour Transformations
3,100,163,162,255

[TimingPoints]
1691,336.021505376344,4,2,0,100,1,0
21348,-100,4,2,0,50,0,0
23196,-100,4,2,0,100,0,0
27228,-100,4,2,0,100,0,1
36637,-100,4,2,0,100,0,0
37981,-100,4,2,0,100,0,1
47389,-100,4,2,0,100,0,0
48734,-100,4,2,0,100,0,1
59486,-100,4,2,0,100,0,0
83512,-100,4,1,0,100,0,0
105185,-100,4,1,0,100,0,1
115938,-100,4,1,0,100,0,0
171045,-100,4,2,0,100,0,0
172389,-100,4,2,0,100,0,1
177766,-100,4,2,0,100,0,0
183142,-100,4,2,0,100,0,1
192551,-100,4,2,0,100,0,0

[HitObjects]
48,48,3707,2,0,B|192:48,1,100
248,48,4379,2,0,B|312:32|368:120|296:176,2,150
240,144,5723,2,0,B|186:198|234:278|298:262,2,150
336,176,7067,2,0,B|390:122|342:42|278:58,2,150
56,296,9083,6,0,B|8:240|64:184,1,100
146,204,9755,2,0,B|258:92,1,150
352,208,10763,6,0,B|403:259|355:315,1,100
216,296,11603,2,0,B|216:144,1,150
168,56,12443,6,0,B|32:56,2,100
264,56,13451,2,0,B|384:56,1,100
464,288,14459,5,0
464,192,14795,1,0
368,232,15131,1,2
368,232,15467,1,2
368,232,15803,1,2
168,232,16475,5,2
168,232,16811,1,2
168,232,17147,1,2
80,176,17484,1,0
80,272,17820,5,2
176,272,18156,1,2
272,272,18492,1,2
272,72,19164,5,2
176,72,19500,1,2
80,72,19836,1,2
80,168,20172,5,0
136,248,20508,2,0,B|184:248|184:248|209:222|267:226|298:260,1,150
273,99,21516,1,4
173,99,21852,2,0,B|125:99|125:99|93:77|53:72|12:112,1,150
35,250,22860,1,4
134,250,23196,1,0
256,192,24540,12,0,25884
48,56,27228,6,0,B|176:56,1,100
248,56,27900,1,0
344,56,28236,1,0
443,56,28572,2,0,B|443:184,1,100
443,255,29244,1,0
372,325,29580,1,0
272,325,29916,6,0,B|260:260|346:243,1,100
323,153,30588,1,0
422,153,30924,1,0
422,53,31260,1,0
322,53,31596,2,0,B|272:0|216:72,1,100
163,121,32268,1,0
104,200,32604,6,0,B|288:200,1,150
404,200,33613,2,0,B|404:328,1,100
254,300,34453,2,0,B|254:116,1,150
183,79,35293,1,0
332,79,35797,1,0
438,185,36301,1,0
438,185,36637,1,0
64,328,37981,6,0,B|126:242|99:134|99:134|164:172|215:126,1,300
291,166,39325,2,0,B|222:238|241:349|241:349|296:326|351:372,1,300
160,344,40669,6,0,B|72:296|72:296|152:232,2,200
312,344,42349,2,0,B|400:296|400:296|320:232,2,200
226,292,44029,5,0
155,221,44365,2,0,B|186:169|248:200,1,100
348,107,45205,1,0
348,256,45709,6,0,B|348:320|348:320|276:320,2,100
348,156,46717,1,0
348,156,47053,1,0
348,156,47389,1,0
56,312,48734,5,0
56,312,49070,1,0
56,216,49406,1,0
56,120,49742,1,0
128,56,50078,1,0
128,56,50414,1,8
224,56,50750,6,8,B|328:56,1,100
320,152,51422,2,0,B|208:152,1,100
232,248,52094,2,0,B|288:288|336:232,2,100
136,248,53102,1,8
40,248,53438,2,8,B|40:192|40:192|96:192,1,100
184,176,54110,6,0,B|179:90|280:88,2,150
280,168,55454,2,0,B|286:261|192:266,2,150
360,224,56798,2,0,B|436:171|384:88,2,150
264,224,58142,1,0
72,272,58814,6,0,B|72:152,2,100,0|4|2
168,272,59822,1,2
368,272,60494,5,4
464,272,60830,2,2,B|464:168,1,100
312,48,61838,5,4
216,32,62174,2,2,B|198:91|252:123,1,100
64,232,63182,5,4
152,272,63518,2,2,B|192:216|128:168,1,100
344,192,64527,5,4
344,96,64863,1,2
344,96,65199,1,2
344,96,65535,1,2
264,152,65871,5,4
184,208,66207,2,2,B|104:272,1,100
32,200,66879,2,0,B|120:128,1,100,2|4
200,88,67551,5,2
296,88,67887,1,2
392,88,68223,1,2
296,88,68559,1,2
392,88,68895,5,4
392,184,69231,1,4
392,184,69567,1,4
392,280,69903,1,4
392,280,70239,1,4
64,56,76959,5,0
160,56,77295,1,0
256,56,77631,1,0
352,56,77967,2,0,B|416:56,1,50
408,320,79647,6,0,B|280:320,1,100
308,219,80320,2,0,B|420:219,1,100
408,119,80992,1,0
208,119,81664,2,0,B|208:175,4,50
56,56,83680,5,0
152,56,84016,1,0
208,144,84352,1,0
304,144,84688,1,0
400,144,85024,1,0
400,48,85360,1,0
312,96,85696,2,0,B|312:160,1,50
336,192,86032,2,0,B|416:192,1,50
424,224,86368,5,0
424,320,86704,1,0
328,344,87040,1,0
256,272,87376,1,0
192,352,87712,1,0
96,352,88048,1,0
48,264,88384,2,0,B|48:208,3,50
96,144,89056,6,0,B|272:144,2,150
168,80,90400,2,0,B|168:248,2,150
264,72,91744,6,0,B|384:96|184:128|312:160,2,150
168,88,93088,2,0,B|208:176|128:216,2,150
72,56,94432,5,8
168,56,94768,1,0
264,56,95104,2,0,B|368:56,1,100,8|0
464,64,95777,2,0,B|464:184,1,100,8|0
384,224,96449,2,0,B|344:184,3,50,8|0|8|0
312,152,97121,5,8
224,160,97457,2,0,B|176:112|128:168,1,100,0|8
216,248,98129,2,0,B|264:208|216:144,1,100,0|8
128,248,98801,2,0,B|176:295|224:240,1,100,0|8
136,160,99473,2,0,B|87:199|136:264,1,100,0|8
216,208,100145,5,0
312,208,100481,1,8
376,288,100817,2,0,B|440:272|448:144|360:128,1,200
272,136,101825,1,8
176,136,102161,1,0
80,136,102497,6,0,B|144:48,1,100,8|0
240,56,103169,2,0,B|304:144,1,100,8|0
400,136,103841,2,0,B|464:56,1,100,8|0
480,168,104513,2,0,B|480:368,1,200
376,312,105521,5,0
296,256,105857,1,0
216,192,106193,1,0
286,121,106529,2,0,B|368:40,2,100
216,192,107537,1,0
216,192,107873,5,0
128,240,108209,2,0,B|86:282|38:242,1,100
40,144,108881,2,0,B|88:104|136:152,1,100
128,240,109553,2,0,B|86:282|38:242,1,100
40,144,110225,2,0,B|88:104|136:152,1,100
216,192,110897,5,0
408,136,111570,1,0
216,80,112242,1,0
312,80,112578,2,0,B|432:80,1,100
360,272,113586,5,0
168,216,114258,1,0
168,16,114930,1,0
248,80,115266,2,0,B|320:168,2,100
104,56,116442,6,0,B|0:88|72:208,1,150
56,272,117282,1,0
205,272,117786,1,0
354,272,118290,2,0,B|458:272,1,100
384,48,120642,6,0,B|272:48,2,100
208,48,121818,1,0
56,48,122322,2,0,B|56:160,1,100
80,296,123162,1,0
80,296,123666,5,0
200,296,124002,2,0,B|320:296,1,100
304,200,124674,2,0,B|176:200,1,100
104,200,125346,1,0
472,40,126690,5,0
472,144,127027,1,0
472,240,127363,2,0,B|472:312,3,50
424,288,128035,5,0
328,288,128371,1,0
232,288,128707,2,0,B|168:288,3,50
184,240,129379,5,0
184,144,129715,1,0
184,48,130051,2,0,B|232:48,3,50
280,48,130723,5,0
376,48,131059,1,0
472,48,131395,2,0,B|472:104,3,50
472,144,132067,5,0
472,144,132403,1,0
472,240,132739,1,0
472,240,133075,1,0
368,240,133411,5,0
368,240,133747,1,0
312,160,134083,1,0
312,160,134419,1,0
256,80,134755,6,0,B|136:80,1,100
88,152,135427,2,0,B|216:152,1,100
120,224,136099,2,0,B|20:224,1,100
88,296,136771,2,0,B|188:296,1,100
288,296,137443,1,4
72,80,144164,6,0,B|184:80,1,100
272,80,144836,2,0,B|424:80,1,150
8,344,146852,6,0,B|120:344,1,100
208,344,147524,2,0,B|360:344,1,150
16,40,149540,6,0,B|16:168,1,100
88,72,150212,2,0,B|88:184,1,100
160,104,150884,2,0,B|160:208,1,100
232,136,151556,2,0,B|232:248,1,100
320,328,152228,6,0,B|276:279|328:224,1,100
408,288,152900,2,0,B|448:240|400:184,1,100
312,176,153572,2,0,B|276:127|320:80,1,100
408,112,154244,2,0,B|446:65|392:8,1,100
272,40,154916,6,0,B|112:40,1,150
120,192,155924,1,0
120,192,156260,2,0,B|296:192,1,150
416,192,157268,1,0
416,96,157604,5,0
344,32,157940,1,0
272,104,158277,1,0
200,32,158613,1,0
128,104,158949,5,0
128,200,159285,1,0
224,200,159621,1,0
224,296,159957,1,0
320,296,160293,1,0
