osu file format v9

[General]
AudioFilename: East Clubbers - Drop.mp3
AudioLeadIn: 0
PreviewTime: 26556
Countdown: 1
SampleSet: Soft
StackLeniency: 0.7
Mode: 0
LetterboxInBreaks: 1

[Editor]
DistanceSpacing: 1
BeatDivisor: 4
GridSize: 8

[Metadata]
Title:Drop
Artist:East Clubbers
Creator:ReVeNg3r
Version:Insane
Source:
Tags:Yatalu

[Difficulty]
HPDrainRate:8
CircleSize:4
OverallDifficulty:6
ApproachRate:8
SliderMultiplier:1.8
SliderTickRate:0.5

[Events]
//Background and Video events
0,0,"bg2.jpg"
//Break Periods
2,26084,26478
2,70439,76209
2,118826,119892
2,137643,143414
2,205015,215994
//Storyboard Layer 0 (Background)
//Storyboard Layer 1 (Fail)
//Storyboard Layer 2 (Pass)
//Storyboard Layer 3 (Foreground)
//Storyboard Sound Samples
//Background Colour Transformations
3,100,0,0,0

[TimingPoints]
1691,336.021505376344,4,2,0,100,1,0
11939,-100,4,2,0,60,0,0
23028,-100,4,2,0,100,0,0
27228,-100,4,2,0,100,0,1
36637,-100,4,2,0,100,0,0
37981,-100,4,2,0,100,0,1
47389,-100,4,2,0,100,0,0
48734,-100,4,2,0,100,0,1
59486,-100,4,2,0,100,0,0
83512,-100,4,1,0,100,0,0
105185,-100,4,1,0,100,0,1
115938,-100,4,1,0,100,0,0
143996,-66.6666666666667,4,1,0,100,0,0
161637,-100,4,2,0,100,0,1
171045,-100,4,2,0,100,0,0
172389,-100,4,2,0,100,0,1
177766,-100,4,2,0,100,0,0
183142,-71.4285714285714,4,2,0,100,0,1
183814,-76.9230769230769,4,2,0,100,0,1
184486,-83.3333333333333,4,2,0,100,0,1
185158,-90.9090909090909,4,2,0,100,0,1
185830,-166.666666666667,4,2,0,100,0,1
187510,-100,4,2,0,100,0,1
192551,-100,4,2,0,100,0,0
220062,-100,4,1,0,100,0,0
220146,-100,4,2,0,100,0,0
220398,-100,4,1,0,100,0,0
220483,-100,4,2,0,100,0,0

[Colours]
Combo1 : 255,150,0
Combo2 : 0,128,0
Combo3 : 5,5,240
Combo4 : 240,5,5

[HitObjects]
256,192,1690,12,0,3369
40,48,3708,6,0,B|248:48,1,180
399,48,4380,1,0
399,317,4884,1,0
129,317,5387,1,0
309,317,5724,2,0,B|309:109,2,180
129,317,6732,1,0
129,137,7068,1,0
96,168,9084,6,0,B|32:136|24:48|120:16,2,180
368,168,10259,1,0
329,166,10763,2,0,B|324:148|348:116|380:108|420:124|436:172|396:212|379:211,1,180,4|0
368,168,11604,1,0
98,168,12108,1,4
277,168,12443,2,0,B|185:197|175:191|253:66|244:60|125:186|115:180|205:36|196:30|102:52,2,270
404,295,13788,1,4
56,192,14460,5,0
256,192,14796,1,0
256,24,15132,1,2
456,192,15468,1,2
256,352,15803,1,6
48,40,16476,5,2
48,352,16812,1,2
256,192,17148,1,6
416,280,17484,1,0
456,200,17652,1,0
416,120,17820,5,2
112,24,18156,1,2
192,360,18492,1,6
456,344,19164,5,2
112,208,19500,1,2
456,344,19836,1,6
276,344,20172,5,0
255,157,20508,2,0,B|217:36|78:49|56:183,1,270
333,154,21516,1,4
152,168,21852,2,0,B|166:273|304:304|343:165,1,270
72,184,22860,1,4
248,184,23196,2,0,B|392:184,1,135
383,184,23532,1,0
256,192,24540,12,0,25884
128,152,27228,5,0
128,64,27396,1,0
216,64,27564,1,0
216,152,27732,2,0,B|104:152,1,90
64,216,28068,1,0
64,304,28236,1,0
152,304,28404,5,0
168,216,28572,2,0,B|168:128,2,90
169,299,29076,1,0
258,299,29244,1,0
256,208,29412,2,0,B|256:144|334:159,1,90
403,156,29748,2,0,B|467:156|452:234,1,90
454,303,30084,5,0
368,304,30252,1,0
278,304,30420,1,0
368,304,30588,1,0
278,304,30756,1,0
188,304,30924,1,0
188,214,31092,1,0
208,336,31260,6,0,B|308:296,1,90
200,296,31596,2,0,B|264:200,1,90
160,296,31932,2,0,B|128:211,1,90
144,336,32268,2,0,B|56:280,1,90
40,232,32604,5,0
40,232,32772,1,0
96,304,32940,1,0
96,304,33109,1,0
96,160,33277,2,0,B|160:96,2,90,4|0|4
159,96,33781,1,0
249,96,33949,6,0,B|432:96,2,180,0|0|4
69,96,34957,1,4
40,272,35125,1,0
40,272,35209,1,0
40,272,35293,2,0,B|224:272,1,180
312,272,35797,5,0
400,272,35965,1,0
488,272,36133,1,0
440,192,36301,1,4
72,192,36637,1,4
440,192,37309,6,0,B|440:112|312:104|328:216,1,180
328,352,37981,1,0
328,232,38149,1,0
328,232,38317,1,0
328,232,38485,1,0
238,232,38653,6,0,B|144:232,1,90
148,232,38989,1,0
56,232,39157,2,0,B|24:184|72:152,1,90
120,80,39493,1,0
160,160,39661,1,0
200,80,39829,1,0
248,160,39997,6,0,B|336:160,2,90
160,160,40501,2,0,B|64:160,2,90
232,104,41005,1,0
192,184,41173,1,0
192,272,41341,1,0
192,184,41509,1,0
152,104,41677,5,0
192,184,41845,1,0
192,272,42013,1,0
280,272,42181,1,0
368,256,42349,2,0,B|464:256,1,90,0|2
458,347,42685,2,0,B|458:259,1,90,0|2
459,168,43021,2,0,B|459:266|459:267,1,90,0|2
458,258,43357,6,0,B|406:258|406:258|397:244|397:244|397:277|397:277|392:244|392:244|392:277|392:277|387:253|387:253|385:272|385:272|383:253|383:253|383:272|383:272|378:263|378:263|345:263,1,270
102,259,44365,1,4
103,258,44701,2,0,B|155:258|155:258|164:244|164:244|164:277|164:277|169:244|169:244|169:277|169:277|174:253|174:253|176:272|176:272|178:253|178:253|178:272|178:272|183:263|183:263|216:263,1,270
256,0,45709,1,4
256,179,46045,2,0,B|256:231|256:231|270:240|270:240|237:240|237:240|270:245|270:245|237:245|237:245|261:250|261:250|242:252|242:252|261:254|261:254|242:254|242:254|251:259|251:259|251:292,2,270
256,88,47221,1,0
256,88,47305,1,0
256,88,47389,1,0
80,168,48061,6,0,B|80:136,16,22.5,0|0|0|0|0|0|0|0|0|0|0|0|0|0|0|0|4
160,120,48902,2,0,B|160:72|160:72|216:72,1,90,8|0
202,72,49238,1,8
265,135,49406,2,0,B|265:87|265:87|321:87,1,90,0|8
307,87,49742,1,0
370,150,49910,2,0,B|370:102|370:102|426:102,1,90,8|0
412,102,50246,1,8
408,208,50414,6,0,B|348:289,1,90,2|8
464,264,50750,2,0,B|496:144,1,90,2|8
480,104,51086,2,0,B|368:144,1,90,2|8
328,192,51422,1,2
240,192,51590,1,8
240,281,51758,1,0
152,280,51926,6,0,B|88:288|104:208,2,90,8|0|8
240,280,52430,2,0,B|304:280|280:215,2,90,0|8|0
176,216,52934,1,10
112,152,53102,1,2
48,88,53270,1,10
176,216,53438,5,8
112,152,53606,1,2
48,88,53774,1,10
137,88,53942,1,0
224,88,54110,2,8,B|336:88,2,90
137,88,54614,1,8
137,267,54950,1,8
137,267,55034,1,8
137,267,55118,1,12
312,312,55454,6,8,B|312:216,2,90
401,312,55958,1,8
221,312,56294,1,8
221,312,56378,1,8
221,312,56462,1,12
48,280,56798,6,0,B|48:144,1,135,8|4
48,100,57134,2,0,B|64:12|160:44,1,135,8|4
192,40,57470,2,0,B|344:40,1,135,8|4
360,72,57806,2,0,B|432:120|376:184,1,135,8|4
330,184,58142,1,4
40,152,58814,5,0
219,152,59150,2,0,B|259:152,8,22.5
391,241,59654,5,0
392,328,59822,1,0
320,240,59990,1,0
320,329,60158,1,0
248,240,60326,1,0
249,327,60494,1,0
177,239,60662,1,0
177,149,60830,5,0
224,72,60998,1,0
272,152,61166,1,0
314,72,61334,1,0
352,152,61502,1,0
400,72,61670,1,0
440,152,61838,1,0
488,72,62006,1,0
488,161,62174,5,0
488,250,62342,1,0
488,339,62510,1,0
398,339,62678,1,0
308,339,62846,1,0
308,249,63014,1,0
218,249,63182,1,0
218,338,63350,1,0
218,249,63518,5,0
154,185,63686,1,0
217,121,63854,1,0
280,184,64022,1,0
218,249,64190,1,0
153,184,64359,1,0
217,121,64527,1,0
280,184,64695,1,0
369,184,64863,6,0,B|472:184,1,90
456,96,65199,2,0,B|456:48|456:48|400:48,1,90
328,48,65535,1,4
148,48,65871,1,4
56,48,66039,1,0
56,136,66207,1,0
56,224,66375,2,0,B|56:320,1,90
144,320,66711,2,0,B|184:368|240:312,1,90,0|4
368,320,67215,6,0,B|328:368|272:312,1,90,4|0
256,248,67551,1,0
256,200,67635,1,0
256,152,67719,1,0
256,104,67803,1,0
256,56,67887,1,0
176,104,68055,6,0,B|104:16|16:112,1,180
336,104,68559,2,0,B|408:16|496:112,1,180,0|4
488,284,69231,1,4
280,56,69567,1,4
280,296,69903,1,4
80,64,70239,1,0
48,48,76959,5,4
48,48,77043,1,0
48,48,77127,1,0
136,48,77295,1,4
136,48,77379,1,0
136,48,77463,1,0
224,48,77631,5,4
224,48,77715,1,0
224,48,77799,1,0
312,48,77967,1,4
312,48,78051,1,0
312,48,78135,1,4
312,48,78219,1,0
312,48,78303,1,4
472,240,78639,6,0,B|376:312,1,90,8|0
416,208,78975,2,0,B|328:272,1,90,8|0
360,176,79311,2,0,B|272:240,1,90,8|0
200,248,79647,5,4
200,248,79731,1,0
101,248,79900,1,0
101,247,79984,1,4
52,162,80152,1,0
96,76,80320,1,4
96,76,80404,1,0
200,77,80572,1,0
200,77,80656,1,4
249,162,80824,1,4
200,248,80992,1,4
256,192,81664,12,0,82336
40,48,83680,6,0,B|152:48,1,90
174,48,83932,1,0
218,48,84016,2,0,B|320:48,1,90
400,48,84352,2,0,B|464:64|432:128,1,90
440,160,84604,1,0
440,208,84688,2,0,B|440:304,1,90
260,298,85024,5,0
168,296,85192,1,0
168,296,85276,1,0
168,296,85360,1,0
56,216,85528,1,0
56,305,85696,1,0
56,215,85864,1,0
56,304,86032,1,0
56,259,86116,1,0
56,214,86200,1,0
144,216,86368,6,0,B|240:216,1,90
280,216,86620,1,0
328,216,86704,2,0,B|440:216,1,90
416,128,87040,2,0,B|432:64|352:56,1,90
328,56,87292,1,0
280,56,87376,2,0,B|176:56,1,90
104,56,87712,5,0
64,136,87880,1,0
64,136,87964,1,0
64,136,88048,1,0
64,272,88216,2,0,B|176:272,2,90
64,272,88720,1,0
64,272,88888,1,0
64,272,89056,5,0
112,272,89140,1,0
152,272,89224,1,0
200,272,89308,1,0
248,272,89392,1,0
336,272,89560,1,0
384,344,89728,6,0,B|416:248,1,90
456,256,89980,2,0,B|456:88,1,135
456,31,90400,2,0,B|360:31,1,90
321,31,90652,2,0,B|256:32|256:32|256:104,1,135
208,176,91072,2,0,B|224:256|136:240,1,90
88,200,91408,2,0,B|72:120|160:136,1,90
80,328,91744,5,0
168,328,91912,1,0
216,328,91996,1,0
304,328,92248,1,0
392,328,92416,1,0
480,328,92584,1,0
480,280,92668,1,0
480,56,92920,5,0
392,56,93088,1,0
302,56,93256,1,0
257,56,93340,1,0
120,56,93592,1,0
64,128,93760,6,0,B|64:224,1,90
152,216,94096,2,0,B|152:120,1,90
40,48,94432,6,0,B|152:48,1,90,8|0
174,48,94684,1,0
218,48,94768,2,0,B|320:48,1,90
400,48,95104,2,0,B|464:64|432:128,1,90,8|0
440,160,95356,1,0
440,208,95440,2,0,B|440:304,1,90
440,96,95776,5,8
440,96,95944,1,0
440,96,96028,1,0
440,96,96113,1,0
336,96,96280,1,0
335,96,96448,1,8
335,96,96616,1,8
224,96,96784,1,0
224,96,96868,1,0
224,96,96953,1,0
144,216,97120,6,0,B|240:216,1,90,8|0
280,216,97372,1,0
328,216,97456,2,0,B|440:216,1,90
416,128,97792,2,0,B|432:64|352:56,1,90,8|0
328,56,98044,1,0
280,56,98128,2,0,B|176:56,1,90
104,56,98465,5,8
64,136,98632,1,0
64,136,98716,1,0
64,136,98801,1,0
64,272,98969,2,0,B|176:272,4,90
112,344,99809,6,0,B|160:344,4,45
201,344,100312,1,0
384,344,100480,6,0,B|416:248,1,90
456,256,100732,2,0,B|456:88,1,135
456,31,101152,2,0,B|360:31,1,90
321,31,101404,2,0,B|256:32|256:32|256:104,1,135
319,165,101824,2,0,B|255:157|280:231,1,90
360,256,102160,2,0,B|422:261|398:189,1,90
432,56,102496,5,0
344,56,102664,1,0
296,56,102748,1,0
208,56,103000,1,0
120,56,103168,1,0
32,56,103336,1,0
32,104,103420,1,0
32,328,103672,5,0
120,328,103840,1,0
210,328,104008,1,0
255,328,104092,1,0
392,328,104344,1,0
448,256,104512,6,0,B|448:160,1,90
360,168,104848,2,0,B|360:264,1,90
272,256,105185,5,8
184,256,105353,1,0
96,256,105521,1,0
8,256,105689,1,0
8,168,105857,1,8
96,168,106025,1,0
184,168,106193,1,0
272,168,106361,1,0
360,168,106529,1,8
448,168,106697,6,0,B|448:104,2,45
448,256,107033,1,0
360,256,107201,2,0,B|264:256,2,90,8|0|0
360,280,107621,1,0
360,304,107705,1,0
360,328,107789,1,0
360,352,107873,1,8
264,344,108041,6,0,B|309:344,2,45
184,344,108377,1,0
184,344,108545,1,8
96,344,108713,2,0,B|40:344,2,45
96,256,109049,2,0,B|96:136,1,90,0|8
230,166,109385,1,0
230,166,109469,1,0
230,166,109553,1,0
176,40,109721,5,0
176,40,109805,1,0
176,40,109889,2,0,B|280:40,1,90,8|0
264,40,110141,1,0
264,40,110225,1,0
264,129,110393,1,0
336,176,110561,5,8
336,176,110645,1,0
336,176,110729,1,0
336,176,110813,1,0
336,176,110897,1,0
400,248,111065,1,0
400,336,111234,6,0,B|296:336,1,90,8|0
264,336,111486,1,0
216,336,111570,2,0,B|112:336,1,90
40,320,111906,2,0,B|56:208|192:240,1,180,8|0
171,235,112410,1,0
264,240,112578,2,0,B|384:264|376:112,1,180,8|0
376,140,113082,1,0
368,48,113250,6,0,B|272:80,1,90,8|0
360,120,113586,2,0,B|440:168,1,90
352,184,113922,2,0,B|256:232,1,90,8|0
360,256,114258,2,0,B|448:320,1,90
232,160,114594,1,0
112,224,114846,1,0
64,360,115098,1,0
232,344,115266,5,0
232,344,115434,1,0
376,344,115602,1,0
376,344,115770,1,0
408,256,115938,5,0
138,256,116442,1,0
256,16,116946,1,0
138,256,117282,1,0
408,256,117786,1,0
256,16,118290,1,0
138,256,118626,1,0
80,296,120642,5,0
256,296,120978,1,0
432,296,121314,1,0
256,96,121818,1,0
432,296,122322,5,4
256,96,122658,1,0
80,296,123162,1,0
432,296,123666,5,4
256,296,124002,1,0
256,24,124506,1,0
256,296,125010,1,0
256,24,125346,1,4
64,64,126690,5,0
244,64,127027,1,0
244,243,127363,1,0
64,248,127531,1,0
64,248,127615,1,0
64,248,127699,1,0
64,64,127867,1,0
244,64,128035,5,0
424,64,128371,1,0
424,240,128707,1,0
244,243,128875,1,0
244,243,128959,1,0
244,243,129043,1,0
244,64,129211,1,0
244,243,129379,5,0
88,328,129715,1,0
88,148,130051,1,0
272,152,130219,1,0
272,152,130303,1,0
272,152,130387,1,0
244,243,130555,1,0
244,64,130723,5,0
112,184,131059,1,0
248,296,131395,1,0
376,184,131563,1,0
376,184,131647,2,0,B|240:184,1,135
80,312,132067,6,0,B|144:240,1,90
196,316,132403,2,0,B|132:236,1,90
216,224,132739,2,0,B|168:160|104:160|56:240,2,180
320,240,133747,5,0
253,104,134083,2,0,B|208:104,2,45
296,104,134335,1,0
344,104,134419,2,0,B|391:104,2,45
456,312,134755,6,0,B|288:192,1,180
152,288,135427,2,0,B|80:264|72:176|168:136,1,180
296,56,136099,2,0,B|368:48|408:128|360:184,1,180
256,176,136771,1,0
256,176,136855,1,0
256,176,136939,1,0
256,176,137023,1,0
256,176,137107,1,0
256,176,137191,1,0
256,176,137275,1,0
256,176,137359,1,0
256,176,137443,1,4
120,64,144164,5,0
392,64,144500,1,0
256,296,144836,1,0
392,64,145172,1,0
120,64,145340,1,0
112,312,146852,5,0
384,312,147188,1,0
256,80,147524,1,0
384,312,147860,1,0
112,312,148028,1,0
48,48,149540,5,0
320,48,149876,1,0
48,48,150212,1,0
320,48,150548,1,0
320,120,150884,1,0
48,120,151220,1,0
320,120,151556,1,0
48,120,151892,1,0
256,320,152228,5,0
256,48,152564,1,0
328,320,152900,1,4
184,48,153236,1,0
192,320,153572,1,0
320,48,153908,1,0
256,192,154244,5,4
256,192,154580,1,0
472,32,154916,1,0
472,304,155252,1,0
256,192,155588,1,0
32,48,155924,1,4
32,320,156260,5,0
256,192,156596,1,0
256,192,156932,1,0
32,48,157268,1,4
256,192,157604,1,0
480,344,157940,1,0
256,192,158277,1,0
256,192,158613,1,0
40,32,158949,5,0
472,32,159285,1,0
472,344,159621,1,0
40,344,159957,1,0
256,192,160293,12,0,160965
40,328,161637,6,0,B|136:328,1,90
304,328,161973,1,2
216,328,162141,1,2
304,240,162309,2,0,B|208:240,1,90
40,240,162645,1,2
128,240,162813,1,2
40,152,162981,6,0,B|40:88|128:96,1,90
120,184,163317,1,6
120,184,163485,1,2
168,112,163653,2,0,B|232:128|200:200,1,90,4|0
120,184,163989,1,6
120,184,164157,1,2
120,272,164325,5,0
120,360,164493,2,0,B|216:360,1,90,0|2
208,272,164829,2,0,B|208:200|296:224,1,90,2|0
264,312,165165,1,0
352,312,165333,2,0,B|440:312,1,90,2|2
440,224,165669,5,0
440,136,165837,1,0
440,224,166005,2,0,B|336:224,1,90,6|2
264,224,166341,1,4
264,312,166509,1,0
264,224,166677,2,0,B|168:224,1,90,6|2
88,224,167013,5,4
88,136,167181,1,2
88,88,167265,1,2
88,40,167349,1,2
177,40,167517,1,2
267,40,167685,2,8,B|355:40,1,90
355,128,168021,2,8,B|251:128,1,90
264,216,168357,5,4
264,304,168525,1,2
264,304,168609,1,2
264,304,168693,1,2
176,304,168861,2,0,B|80:304,1,90,2|8
16,304,169197,2,8,B|16:200,1,90
24,128,169533,1,8
24,128,169701,5,4
256,32,170037,1,4
432,208,170373,1,4
224,344,170709,1,4
56,160,171045,1,4
56,48,172389,6,0,B|168:48,1,90
280,48,172725,2,0,B|280:152,1,90,8|0
424,48,173061,2,0,B|480:72|432:120,1,90
304,144,173397,2,0,B|304:272,1,90,8|0
160,128,173734,5,0
160,128,173902,1,0
72,128,174070,1,8
72,128,174238,1,0
72,216,174406,1,0
72,216,174574,1,0
72,304,174742,1,8
72,304,174910,1,0
160,304,175078,5,0
249,304,175246,1,2
296,304,175330,1,2
344,304,175414,1,10
432,304,175582,1,0
432,216,175750,1,0
432,128,175918,5,2
432,80,176002,1,2
432,32,176086,1,10
344,32,176254,1,0
280,96,176422,1,0
184,112,176590,1,2
136,112,176674,1,2
96,112,176758,1,10
96,200,176926,5,0
96,288,177094,1,0
184,288,177262,1,2
232,288,177346,1,2
280,288,177430,1,10
368,288,177598,1,0
456,288,177766,6,0,B|456:80,2,180,0|8|0
280,288,178774,1,8
104,288,179110,2,0,B|104:88,2,180,0|8|0
280,288,180118,1,8
160,152,180454,6,0,B|80:64,1,90,8|0
160,152,180790,2,0,B|144:56,1,90,8|0
160,152,181126,2,0,B|208:64,1,90,8|0
160,152,181462,2,0,B|264:112,1,90,8|0
288,104,181714,1,0
328,80,181798,1,0
32,352,183142,6,0,B|59:289|26:230,1,125.999996154785,0|0
32,32,183478,2,0,B|0:88|32:168,1,125.999996154785,8|0
136,352,183814,2,0,B|168:296|139:239,1,116.999994644165,0|0
136,40,184150,2,0,B|104:96|136:160,1,116.999994644165,8|0
248,352,184486,2,0,B|277:303|252:248,1,107.999996704102,0|0
240,48,184822,2,0,B|209:101|240:160,1,107.999996704102,8|0
336,336,185158,2,0,B|363:287|339:240,1,99.0000030212403,8|0
344,64,185494,2,0,B|317:113|344:168,1,99.0000030212403,8|0
416,160,185830,6,0,B|352:160,1,54.0000012874604
256,272,186166,1,0
256,56,186334,1,0
136,160,186502,2,0,B|136:224,1,54.0000012874604
320,216,186838,1,0
136,160,187006,1,0
320,112,187174,1,0
136,40,187342,1,0
320,112,187510,6,0,B|368:112,2,45,8|0|0
136,136,187846,2,0,B|136:224,1,90,8|0
256,168,188182,1,8
256,168,188266,1,0
256,168,188350,1,0
288,312,188518,6,0,B|324:352|364:312,1,81.0000019311905
112,264,188854,2,0,B|160:216|200:280,1,90,8|0
360,184,189190,2,0,B|312:232|272:168,1,90
120,128,189526,2,0,B|168:80|208:144,1,90,8|0
288,96,189863,5,0
320,184,190031,1,0
288,96,190199,1,8
376,96,190367,1,0
288,96,190535,1,8
200,96,190703,2,0,B|80:96,2,90,0|8|0
200,184,191207,5,8
472,184,191711,1,0
200,184,192215,1,0
24,184,192551,1,8
360,56,193223,5,0
360,56,193559,1,0
360,56,193895,2,0,B|462:106|457:228|356:269,1,270
96,264,194903,1,0
272,264,195239,1,0
96,56,195743,1,0
365,56,196247,2,0,B|365:240,1,180
40,64,198599,6,0,B|128:64,2,90
216,64,199271,2,0,B|400:64,2,180
40,64,200279,1,4
48,240,200615,2,0,B|144:240|144:240|144:136,2,180
40,64,201623,1,4
216,72,201959,6,0,B|264:72,3,45,4|0|0|0
304,72,202295,1,0
352,72,202379,1,0
400,72,202463,1,0
448,72,202547,1,0
448,120,202631,6,0,B|448:184,3,45,4|0|0|0
400,168,202967,1,0
352,168,203051,1,0
304,168,203135,1,0
256,168,203219,1,0
208,168,203303,6,0,B|208:288,1,90,4|0
208,168,203639,2,0,B|136:256,1,90,4|0
208,168,203975,2,0,B|112:168,1,90,4|0
208,168,204311,2,0,B|144:96,1,90,4|0
208,168,204647,2,0,B|208:80,1,90
256,192,216744,12,8,218088
141,64,218256,6,0,B|96:64,2,45,0|8|0
96,152,218592,1,0
96,152,218760,1,0
96,240,218928,2,0,B|141:240,2,45,0|0|0
184,240,219264,2,0,B|304:240,1,90,0|8
360,240,219600,1,0
360,192,219684,1,8
360,144,219768,1,0
328,120,219936,5,0
248,224,220105,1,2
168,120,220273,1,0
248,224,220441,1,2
328,120,220609,1,0
456,48,220777,5,8
456,136,220945,1,0
456,184,221029,1,8
456,224,221113,1,0
411,312,221281,2,0,B|456:312,2,45
320,312,221617,1,0
320,312,221785,2,0,B|208:312,2,90,0|0|8
368,224,222289,1,0
368,224,222373,1,8
368,224,222457,1,0
288,144,222625,6,0,B|304:120|284:93,1,45
216,48,222793,2,0,B|192:32|165:52,1,45
112,104,222961,2,0,B|96:128|116:155,1,45
176,208,223129,2,0,B|200:224|227:204,2,45
176,296,223465,5,0
176,296,223549,1,0
176,296,223633,1,0
176,296,223717,1,0
176,296,223801,1,0
264,296,223969,2,0,B|376:296,1,90
440,296,224305,5,0
440,208,224473,1,0
440,120,224641,2,0,B|432:64|352:80,3,90,0|0|0|0
280,72,225313,2,0,B|184:72,1,90
144,72,225565,1,0
96,72,225649,2,0,B|48:72|48:72|48:136,1,90
48,160,225901,1,0
48,160,225985,1,0
48,248,226153,6,0,B|112:328,2,90
136,232,226657,1,4
224,208,226825,2,0,B|264:176|320:216,2,90
136,232,227329,1,4
208,72,227497,1,0
208,72,227749,1,0
400,72,228001,5,0
400,160,228169,2,0,B|456:160,1,45,2|0
400,160,228337,2,0,B|400:216,1,45,2|0
400,160,228505,2,0,B|336:160,1,45,2|0
400,160,228673,2,0,B|400:104,1,45,2|0
400,248,228841,5,8
240,248,229093,1,8
320,248,229345,1,8
168,248,229513,1,8
320,248,229765,1,8
192,136,230017,5,8
40,136,230185,1,8
192,136,230437,1,8
296,48,230689,5,8
296,208,230857,1,2
296,128,231025,1,2
296,280,231193,1,2
296,128,231361,1,2
264,232,231529,5,8
192,360,231781,1,8
264,232,232033,1,8
144,232,232201,1,8
216,104,232453,1,8
144,232,232705,1,8
32,232,232873,1,8
80,360,233125,1,8
176,232,233377,5,8
176,232,233545,1,8
176,232,233713,1,8
176,232,233881,1,2
176,232,233965,1,2
176,232,234049,1,2
176,232,234133,1,2
176,232,234217,6,0,B|240:232,4,45
176,144,234721,1,0
176,56,234889,2,0,B|232:56,1,45
176,56,235141,2,0,B|112:56,1,45
176,144,235393,1,0
176,232,235561,2,0,B|232:232,1,45
176,232,235813,2,0,B|120:232,1,45
168,312,236065,5,0
168,312,236234,1,0
168,312,236402,1,0
168,312,236570,1,0
168,312,236738,1,0
296,272,236906,5,4
296,272,236990,1,0
197,272,237159,1,0
197,271,237243,1,4
148,186,237411,1,0
192,100,237579,1,4
192,100,237663,1,0
296,101,237831,1,0
296,101,237915,1,4
345,186,238083,1,4
296,272,238251,1,4
197,272,238586,1,4
256,192,238754,12,0,239594
