osu file format v11

[General]
AudioFilename: Lonely_christmas.mp3
AudioLeadIn: 0
PreviewTime: 84649
Countdown: 0
SampleSet: Soft
StackLeniency: 0.7
Mode: 1
LetterboxInBreaks: 0

[Editor]
DistanceSpacing: 1
BeatDivisor: 4
GridSize: 32

[Metadata]
Title:Lonely Christmas
TitleUnicode:Lonely Christmas
Artist:Eason Chan
ArtistUnicode:陳奕迅
Creator:wmfchris
Version:Oni
Source:
Tags:cantonese Taiko Scorpiour
BeatmapID:194689
BeatmapSetID:66850

[Difficulty]
HPDrainRate:6
CircleSize:5
OverallDifficulty:6
ApproachRate:5
SliderMultiplier:1.4
SliderTickRate:1

[Events]
//Background and Video events
0,0,"plastic.png"
//Break Periods
//Storyboard Layer 0 (Background)
//Storyboard Layer 1 (Fail)
//Storyboard Layer 2 (Pass)
//Storyboard Layer 3 (Foreground)
//Storyboard Sound Samples
//Background Colour Transformations
3,100,163,162,255

[TimingPoints]
25162,512.820512820513,6,2,0,60,1,0
151315,-100,6,2,0,60,0,1
175931,-100,6,2,0,60,0,0
190764,512.820512820513,6,2,0,60,1,8
191276,512.820512820513,6,2,0,60,1,0
192853,512.820512820513,6,2,0,60,1,8
194392,512.820512820513,6,2,0,60,1,0
200536,512.820512820513,6,2,0,60,1,0
203612,-100,6,2,0,60,0,1
228228,-100,6,2,0,20,0,0
231305,-100,6,2,0,60,0,1
255920,-100,6,2,0,60,0,0

[Colours]
Combo1 : 255,255,255
Combo2 : 0,64,128
Combo3 : 45,88,228
Combo4 : 0,0,64

[HitObjects]
480,64,25162,1,2,0:0:0
480,64,25418,1,0,0:0:0
480,64,25674,1,2,0:0:0
480,64,26187,1,0,0:0:0
480,64,26444,1,0,0:0:0
480,64,26700,1,2,0:0:0
480,64,26956,1,0,0:0:0
480,64,27213,1,2,0:0:0
480,64,27726,1,2,0:0:0
480,64,27982,1,0,0:0:0
480,64,28238,1,2,0:0:0
480,64,28495,1,2,0:0:0
480,64,28751,1,0,0:0:0
480,64,29008,1,0,0:0:0
480,64,29264,1,2,0:0:0
480,64,29520,1,0,0:0:0
480,64,29777,1,2,0:0:0
480,64,30290,1,0,0:0:0
480,64,30546,1,2,0:0:0
480,64,30803,1,0,0:0:0
480,64,31059,1,0,0:0:0
480,64,31315,1,2,0:0:0
480,64,31572,1,0,0:0:0
480,64,31828,1,2,0:0:0
480,64,32597,1,0,0:0:0
480,64,32854,1,2,0:0:0
480,64,33110,1,0,0:0:0
480,64,33367,1,2,0:0:0
480,64,34136,1,0,0:0:0
480,64,34392,1,2,0:0:0
480,64,34905,1,0,0:0:0
480,64,35162,1,2,0:0:0
480,64,35674,1,0,0:0:0
480,64,35931,1,2,0:0:0
480,64,36187,1,0,0:0:0
480,64,36444,1,0,0:0:0
480,64,36700,1,2,0:0:0
480,64,36956,1,0,0:0:0
480,64,37213,1,0,0:0:0
480,64,37469,1,0,0:0:0
480,64,37982,1,0,0:0:0
480,64,38238,1,0,0:0:0
480,64,38495,1,2,0:0:0
480,64,38751,1,0,0:0:0
480,64,39008,1,2,0:0:0
480,64,39264,1,0,0:0:0
480,64,39392,1,0,0:0:0
480,64,39520,1,2,0:0:0
480,64,39777,1,0,0:0:0
480,64,40033,1,2,0:0:0
480,64,40290,1,0,0:0:0
480,64,40546,1,0,0:0:0
480,64,41059,1,0,0:0:0
480,64,41315,1,2,0:0:0
480,64,41572,1,0,0:0:0
480,64,41828,1,0,0:0:0
480,64,42085,1,2,0:0:0
480,64,42341,1,2,0:0:0
480,64,42597,1,0,0:0:0
480,64,42854,1,2,0:0:0
480,64,43110,1,0,0:0:0
480,64,43238,1,2,0:0:0
480,64,43367,1,0,0:0:0
480,64,43623,1,0,0:0:0
480,64,44136,1,0,0:0:0
480,64,44392,1,0,0:0:0
480,64,44649,1,2,0:0:0
480,64,44905,1,0,0:0:0
480,64,45161,1,2,0:0:0
480,64,45418,1,2,0:0:0
480,64,45674,1,0,0:0:0
480,64,45931,1,0,0:0:0
480,64,46187,1,2,0:0:0
480,64,46444,1,0,0:0:0
480,64,46700,1,2,0:0:0
480,64,46956,1,2,0:0:0
480,64,47085,1,2,0:0:0
480,64,47213,1,0,0:0:0
480,64,47469,1,2,0:0:0
480,64,47982,1,0,0:0:0
480,64,48238,1,2,0:0:0
480,64,48495,1,2,0:0:0
480,64,48751,1,0,0:0:0
480,64,49008,1,2,0:0:0
480,64,49264,1,0,0:0:0
480,64,49392,1,0,0:0:0
480,64,49520,1,2,0:0:0
480,64,49777,1,2,0:0:0
480,64,50290,1,0,0:0:0
480,64,50546,1,0,0:0:0
480,64,50803,1,0,0:0:0
480,64,51059,1,0,0:0:0
480,64,51315,1,2,0:0:0
480,64,51572,1,0,0:0:0
480,64,51828,1,0,0:0:0
480,64,52085,1,0,0:0:0
480,64,52341,1,2,0:0:0
480,64,52597,1,0,0:0:0
480,64,52854,1,2,0:0:0
480,64,53110,1,0,0:0:0
480,64,53367,1,0,0:0:0
480,64,53623,1,0,0:0:0
480,64,53879,1,0,0:0:0
480,64,54136,1,2,0:0:0
480,64,54392,1,0,0:0:0
480,64,54905,1,0,0:0:0
480,64,55161,1,2,0:0:0
480,64,55418,1,0,0:0:0
480,64,55674,1,0,0:0:0
480,64,55931,1,2,0:0:0
480,64,56187,1,0,0:0:0
480,64,56444,1,0,0:0:0
480,64,56700,1,2,0:0:0
480,64,56956,1,0,0:0:0
480,64,57213,1,0,0:0:0
480,64,57469,1,0,0:0:0
480,64,57982,1,2,0:0:0
480,64,58495,1,2,0:0:0
480,64,59008,1,0,0:0:0
480,64,59520,1,0,0:0:0
480,64,59777,1,2,0:0:0
480,64,60290,1,0,0:0:0
480,64,60546,1,2,0:0:0
480,64,60803,1,0,0:0:0
480,64,61059,1,0,0:0:0
480,64,61315,1,2,0:0:0
480,64,61572,1,0,0:0:0
480,64,61700,1,0,0:0:0
480,64,61828,1,2,0:0:0
480,64,62085,1,2,0:0:0
480,64,62597,1,0,0:0:0
480,64,62854,1,0,0:0:0
480,64,63110,1,2,0:0:0
480,64,63367,1,0,0:0:0
480,64,63623,1,0,0:0:0
480,64,63879,1,0,0:0:0
480,64,64008,1,0,0:0:0
480,64,64136,1,2,0:0:0
480,64,64392,1,0,0:0:0
480,64,64649,1,2,0:0:0
480,64,64905,1,0,0:0:0
480,64,65161,1,0,0:0:0
480,64,65674,1,0,0:0:0
480,64,65931,1,2,0:0:0
480,64,66187,1,0,0:0:0
480,64,66444,1,0,0:0:0
480,64,66700,1,0,0:0:0
480,64,66956,1,2,0:0:0
480,64,67085,1,0,0:0:0
480,64,67213,1,2,0:0:0
480,64,67469,1,0,0:0:0
480,64,67726,1,2,0:0:0
480,64,67982,1,2,0:0:0
480,64,68238,1,0,0:0:0
480,64,68751,1,2,0:0:0
480,64,69008,1,0,0:0:0
480,64,69264,1,2,0:0:0
480,64,69520,1,0,0:0:0
480,64,69777,1,0,0:0:0
480,64,70033,1,0,0:0:0
480,64,70161,1,0,0:0:0
480,64,70290,1,2,0:0:0
480,64,70546,1,0,0:0:0
480,64,70803,1,2,0:0:0
480,64,71059,1,0,0:0:0
480,64,71315,1,2,0:0:0
480,64,71828,1,0,0:0:0
480,64,72085,1,2,0:0:0
480,64,72341,1,2,0:0:0
480,64,72597,1,0,0:0:0
480,64,72854,1,0,0:0:0
480,64,73110,1,0,0:0:0
480,64,73367,1,2,0:0:0
480,64,73623,1,2,0:0:0
480,64,73879,1,2,0:0:0
480,64,74008,1,2,0:0:0
480,64,74136,1,0,0:0:0
480,64,74392,1,0,0:0:0
480,64,74905,1,0,0:0:0
480,64,75161,1,0,0:0:0
480,64,75418,1,0,0:0:0
480,64,75546,1,0,0:0:0
480,64,75674,1,2,0:0:0
480,64,75931,1,2,0:0:0
480,64,76187,1,0,0:0:0
480,64,76444,1,2,0:0:0
480,64,76700,1,0,0:0:0
480,64,76956,1,0,0:0:0
480,64,77213,1,0,0:0:0
480,64,77469,1,2,0:0:0
480,64,77726,1,0,0:0:0
480,64,77854,1,0,0:0:0
480,64,77982,1,0,0:0:0
480,64,78238,1,0,0:0:0
480,64,78495,1,0,0:0:0
480,64,78751,1,2,0:0:0
480,64,79008,1,2,0:0:0
480,64,79520,1,0,0:0:0
480,64,79777,1,2,0:0:0
480,64,80033,1,0,0:0:0
480,64,80290,1,0,0:0:0
480,64,80546,1,2,0:0:0
480,64,80803,1,0,0:0:0
480,64,81059,1,0,0:0:0
480,64,81315,1,2,0:0:0
480,64,81572,1,2,0:0:0
480,64,81828,1,0,0:0:0
480,64,82085,1,2,0:0:0
480,64,82597,1,0,0:0:0
480,64,83110,1,2,0:0:0
480,64,83623,1,2,0:0:0
480,64,84136,1,0,0:0:0
480,64,84392,1,2,0:0:0
480,64,84905,1,2,0:0:0
480,64,85161,1,0,0:0:0
480,64,85418,1,0,0:0:0
480,64,85674,1,2,0:0:0
480,64,85931,1,0,0:0:0
480,64,86187,1,2,0:0:0
480,64,86315,1,2,0:0:0
480,64,86444,1,2,0:0:0
480,64,86700,1,0,0:0:0
480,64,87213,1,0,0:0:0
480,64,87341,1,0,0:0:0
480,64,87469,1,2,0:0:0
480,64,87726,1,0,0:0:0
480,64,87982,1,2,0:0:0
480,64,88238,1,2,0:0:0
480,64,88495,1,0,0:0:0
480,64,88751,1,0,0:0:0
480,64,89008,1,2,0:0:0
480,64,89264,1,0,0:0:0
480,64,89520,1,2,0:0:0
480,64,89777,1,0,0:0:0
480,64,90290,1,0,0:0:0
480,64,90418,1,0,0:0:0
480,64,90546,1,2,0:0:0
480,64,90803,1,0,0:0:0
480,64,91059,1,2,0:0:0
480,64,91315,1,2,0:0:0
480,64,91572,1,0,0:0:0
480,64,91828,1,0,0:0:0
480,64,92085,1,2,0:0:0
480,64,92341,1,0,0:0:0
480,64,92597,1,0,0:0:0
480,64,92726,1,0,0:0:0
480,64,92854,1,2,0:0:0
480,64,93367,1,2,0:0:0
480,64,93623,1,2,0:0:0
480,64,93879,1,0,0:0:0
480,64,94136,1,2,0:0:0
480,64,94392,1,2,0:0:0
480,64,94649,1,0,0:0:0
480,64,94905,1,2,0:0:0
480,64,95161,1,0,0:0:0
480,64,95418,1,0,0:0:0
480,64,95674,1,0,0:0:0
480,64,95803,1,0,0:0:0
480,64,95931,1,2,0:0:0
480,64,96444,1,2,0:0:0
480,64,96700,1,2,0:0:0
480,64,96956,1,0,0:0:0
480,64,97213,1,2,0:0:0
480,64,97469,1,2,0:0:0
480,64,97726,1,0,0:0:0
480,64,97982,1,2,0:0:0
480,64,98238,1,0,0:0:0
480,64,98495,1,0,0:0:0
480,64,98751,1,2,0:0:0
480,64,99008,1,0,0:0:0
480,64,99520,1,2,0:0:0
480,64,99777,1,0,0:0:0
480,64,100033,1,0,0:0:0
480,64,100161,1,0,0:0:0
480,64,100290,1,2,0:0:0
480,64,100546,1,2,0:0:0
480,64,100803,1,0,0:0:0
480,64,101059,1,0,0:0:0
480,64,101315,1,2,0:0:0
480,64,101572,1,0,0:0:0
480,64,101828,1,2,0:0:0
480,64,102085,1,0,0:0:0
480,64,102597,1,2,0:0:0
480,64,102854,1,0,0:0:0
480,64,103110,1,0,0:0:0
480,64,103367,1,0,0:0:0
480,64,103495,1,0,0:0:0
480,64,103623,1,2,0:0:0
480,64,103879,1,0,0:0:0
480,64,104136,1,0,0:0:0
480,64,104392,1,2,0:0:0
480,64,104649,1,0,0:0:0
480,64,104905,1,2,0:0:0
480,64,105161,1,2,0:0:0
480,64,105674,1,2,0:0:0
480,64,105931,1,2,0:0:0
480,64,106187,1,0,0:0:0
480,64,106444,1,2,0:0:0
480,64,106700,1,2,0:0:0
480,64,106956,1,0,0:0:0
480,64,107213,1,0,0:0:0
480,64,107469,1,2,0:0:0
480,64,107726,1,0,0:0:0
480,64,107982,1,0,0:0:0
480,64,108110,1,0,0:0:0
480,64,108238,1,2,0:0:0
480,64,108751,1,2,0:0:0
480,64,109008,1,2,0:0:0
480,64,109264,1,0,0:0:0
480,64,109520,1,2,0:0:0
480,64,109777,1,0,0:0:0
480,64,110033,1,0,0:0:0
480,64,110290,1,0,0:0:0
480,64,110546,1,2,0:0:0
480,64,110803,1,2,0:0:0
480,64,110931,1,0,0:0:0
480,64,111059,1,2,0:0:0
480,64,111315,1,0,0:0:0
480,64,111828,1,0,0:0:0
480,64,112085,1,2,0:0:0
480,64,112597,1,2,0:0:0
480,64,112854,1,0,0:0:0
480,64,113110,1,0,0:0:0
480,64,113367,1,2,0:0:0
480,64,113623,1,2,0:0:0
480,64,113879,1,0,0:0:0
480,64,114136,1,2,0:0:0
480,64,114392,1,6,0:0:0
480,64,114649,1,0,0:0:0
480,64,114777,1,0,0:0:0
480,64,114905,1,2,0:0:0
480,64,115418,1,0,0:0:0
480,64,115674,1,2,0:0:0
480,64,115931,1,2,0:0:0
480,64,116187,1,0,0:0:0
480,64,116315,1,0,0:0:0
480,64,116444,1,2,0:0:0
480,64,116700,1,0,0:0:0
480,64,116956,1,0,0:0:0
480,64,117213,1,0,0:0:0
480,64,117469,1,2,0:0:0
480,64,117726,1,0,0:0:0
480,64,117854,1,0,0:0:0
480,64,117982,1,2,0:0:0
480,64,118238,1,2,0:0:0
480,64,118495,1,2,0:0:0
480,64,118623,1,2,0:0:0
480,64,118751,1,0,0:0:0
480,64,119008,1,2,0:0:0
480,64,119264,1,0,0:0:0
480,64,119520,1,0,0:0:0
480,64,119777,1,2,0:0:0
480,64,120033,1,0,0:0:0
480,64,120290,1,0,0:0:0
480,64,120546,1,6,0:0:0
480,64,120803,1,0,0:0:0
480,64,120931,1,0,0:0:0
480,64,121059,1,2,0:0:0
480,64,121572,1,2,0:0:0
480,64,121828,1,0,0:0:0
480,64,121956,1,0,0:0:0
480,64,122085,1,2,0:0:0
480,64,122341,1,2,0:0:0
480,64,122597,1,0,0:0:0
480,64,122854,1,0,0:0:0
480,64,123110,1,0,0:0:0
480,64,123367,1,2,0:0:0
480,64,123623,1,0,0:0:0
480,64,124136,1,0,0:0:0
480,64,124392,1,2,0:0:0
480,64,124649,1,0,0:0:0
480,64,124905,1,2,0:0:0
480,64,125161,1,0,0:0:0
480,64,125674,1,0,0:0:0
480,64,125931,1,2,0:0:0
480,64,126187,1,0,0:0:0
480,64,126315,1,0,0:0:0
480,64,126444,1,0,0:0:0
480,64,126700,1,4,0:0:0
480,64,127213,1,0,0:0:0
480,64,127469,1,2,0:0:0
480,64,127726,1,0,0:0:0
480,64,127982,1,0,0:0:0
480,64,128110,1,0,0:0:0
480,64,128238,1,2,0:0:0
480,64,128495,1,0,0:0:0
480,64,128751,1,2,0:0:0
480,64,129008,1,2,0:0:0
480,64,129264,1,2,0:0:0
480,64,129520,1,0,0:0:0
480,64,129777,1,0,0:0:0
480,64,130290,1,0,0:0:0
480,64,130546,1,2,0:0:0
480,64,130803,1,0,0:0:0
480,64,131059,1,0,0:0:0
480,64,131315,1,2,0:0:0
480,64,131572,1,2,0:0:0
480,64,131828,1,0,0:0:0
480,64,132085,1,2,0:0:0
480,64,132341,1,2,0:0:0
480,64,132469,1,2,0:0:0
480,64,132597,1,0,0:0:0
480,64,132854,1,0,0:0:0
480,64,133367,1,0,0:0:0
480,64,133623,1,0,0:0:0
480,64,133879,1,2,0:0:0
480,64,134008,1,2,0:0:0
480,64,134136,1,0,0:0:0
480,64,134392,1,2,0:0:0
480,64,134649,1,0,0:0:0
480,64,134905,1,0,0:0:0
480,64,135161,1,2,0:0:0
480,64,135418,1,2,0:0:0
480,64,135674,1,0,0:0:0
480,64,135931,1,2,0:0:0
480,64,136444,1,0,0:0:0
480,64,136700,1,2,0:0:0
480,64,136956,1,2,0:0:0
480,64,137213,1,0,0:0:0
480,64,137469,1,2,0:0:0
480,64,137597,1,0,0:0:0
480,64,137726,1,0,0:0:0
480,64,137854,1,0,0:0:0
480,64,137982,1,2,0:0:0
480,64,138238,1,0,0:0:0
480,64,138495,1,0,0:0:0
480,64,138623,1,2,0:0:0
480,64,138751,1,2,0:0:0
480,64,139008,1,0,0:0:0
480,64,139520,1,0,0:0:0
480,64,139777,1,0,0:0:0
480,64,140033,1,0,0:0:0
480,64,140290,1,2,0:0:0
480,64,140546,1,2,0:0:0
480,64,140803,1,0,0:0:0
480,64,141059,1,2,0:0:0
480,64,141315,1,0,0:0:0
480,64,141572,1,2,0:0:0
480,64,141828,1,0,0:0:0
480,64,142085,1,2,0:0:0
480,64,142597,1,2,0:0:0
480,64,142854,1,0,0:0:0
480,64,142982,1,0,0:0:0
480,64,143110,1,0,0:0:0
480,64,143367,1,2,0:0:0
480,64,143623,1,0,0:0:0
480,64,143879,1,0,0:0:0
480,64,144136,1,0,0:0:0
480,64,144392,1,2,0:0:0
480,64,144649,1,0,0:0:0
480,64,144905,1,2,0:0:0
480,64,145161,1,2,0:0:0
480,64,145674,1,0,0:0:0
480,64,145803,1,0,0:0:0
480,64,145931,1,2,0:0:0
480,64,146187,1,2,0:0:0
480,64,146444,1,0,0:0:0
480,64,146700,1,2,0:0:0
480,64,147213,1,0,0:0:0
480,64,147726,1,0,0:0:0
480,64,148238,1,2,0:0:0
480,64,148751,1,0,0:0:0
480,64,149008,1,2,0:0:0
480,64,149520,1,0,0:0:0
480,64,149777,1,2,0:0:0
480,64,150033,1,2,0:0:0
480,64,150161,1,2,0:0:0
480,64,150290,1,0,0:0:0
480,64,150546,1,0,0:0:0
480,64,150803,1,0,0:0:0
480,64,150931,1,0,0:0:0
480,64,151059,1,0,0:0:0
480,64,151315,1,4,0:0:0
480,64,151572,1,0,0:0:0
480,64,151828,1,2,0:0:0
480,64,152085,1,0,0:0:0
480,64,152341,1,0,0:0:0
480,64,152597,1,0,0:0:0
480,64,152854,1,2,0:0:0
480,64,153367,1,0,0:0:0
480,64,153623,1,2,0:0:0
480,64,153879,1,0,0:0:0
480,64,154136,1,0,0:0:0
480,64,154392,1,2,0:0:0
480,64,154649,1,0,0:0:0
480,64,154905,1,2,0:0:0
480,64,155161,1,0,0:0:0
480,64,155418,1,0,0:0:0
480,64,155546,1,0,0:0:0
480,64,155674,1,2,0:0:0
480,64,155931,1,2,0:0:0
480,64,156444,1,0,0:0:0
480,64,156700,1,2,0:0:0
480,64,156956,1,0,0:0:0
480,64,157213,1,0,0:0:0
480,64,157341,1,0,0:0:0
480,64,157469,1,2,0:0:0
480,64,157726,1,0,0:0:0
480,64,157982,1,2,0:0:0
480,64,158238,1,2,0:0:0
480,64,158495,1,0,0:0:0
480,64,158751,1,2,0:0:0
480,64,159008,1,2,0:0:0
480,64,159520,1,0,0:0:0
480,64,159777,1,0,0:0:0
480,64,159905,1,2,0:0:0
480,64,160033,1,0,0:0:0
480,64,160290,1,0,0:0:0
480,64,160546,1,2,0:0:0
480,64,160803,1,2,0:0:0
480,64,161059,1,0,0:0:0
480,64,161315,1,2,0:0:0
480,64,161572,1,0,0:0:0
480,64,161828,1,2,0:0:0
480,64,162085,1,0,0:0:0
480,64,162341,1,0,0:0:0
480,64,162597,1,0,0:0:0
480,64,162854,1,2,0:0:0
480,64,163110,1,0,0:0:0
480,64,163238,1,0,0:0:0
480,64,163367,1,2,0:0:0
480,64,163623,1,0,0:0:0
480,64,163879,1,0,0:0:0
480,64,164136,1,2,0:0:0
480,64,164392,1,2,0:0:0
480,64,164649,1,0,0:0:0
480,64,164905,1,2,0:0:0
480,64,165161,1,2,0:0:0
480,64,165674,1,0,0:0:0
480,64,165931,1,2,0:0:0
480,64,166187,1,0,0:0:0
480,64,166444,1,0,0:0:0
480,64,166700,1,0,0:0:0
480,64,166956,1,0,0:0:0
480,64,167085,1,0,0:0:0
480,64,167213,1,2,0:0:0
480,64,167469,1,0,0:0:0
480,64,167726,1,0,0:0:0
480,64,167982,1,0,0:0:0
480,64,168238,1,2,0:0:0
480,64,168751,1,0,0:0:0
480,64,169008,1,2,0:0:0
480,64,169264,1,0,0:0:0
480,64,169392,1,0,0:0:0
480,64,169520,1,2,0:0:0
480,64,169777,1,2,0:0:0
480,64,170033,1,0,0:0:0
480,64,170290,1,2,0:0:0
480,64,170546,1,2,0:0:0
480,64,170803,1,0,0:0:0
480,64,171059,1,0,0:0:0
480,64,171315,1,2,0:0:0
480,64,171572,1,0,0:0:0
480,64,171700,1,0,0:0:0
480,64,171828,1,0,0:0:0
480,64,172085,1,2,0:0:0
480,64,172341,1,0,0:0:0
480,64,172469,1,0,0:0:0
480,64,172597,1,2,0:0:0
480,64,172854,1,2,0:0:0
480,64,173367,1,2,0:0:0
480,64,173623,1,0,0:0:0
480,64,173879,1,0,0:0:0
480,64,174136,1,2,0:0:0
480,64,174392,1,0,0:0:0
480,64,174649,1,0,0:0:0
480,64,174777,1,0,0:0:0
480,64,174905,1,0,0:0:0
480,64,175161,1,2,0:0:0
480,64,175418,1,0,0:0:0
480,64,175546,1,0,0:0:0
480,64,175674,1,2,0:0:0
480,64,175931,1,0,0:0:0
480,64,176444,1,0,0:0:0
480,64,176700,1,2,0:0:0
480,64,176956,1,0,0:0:0
480,64,177213,1,0,0:0:0
480,64,177469,1,0,0:0:0
480,64,177726,1,0,0:0:0
480,64,177982,1,2,0:0:0
480,64,178238,1,2,0:0:0
480,64,178495,1,0,0:0:0
480,64,178751,1,0,0:0:0
480,64,179008,1,4,0:0:0
480,64,179520,1,4,0:0:0
480,64,180033,1,0,0:0:0
480,64,180290,1,2,0:0:0
480,64,180546,1,6,0:0:0
480,64,181059,1,6,0:0:0
480,64,181572,1,0,0:0:0
480,64,181828,1,2,0:0:0
480,64,182085,1,0,0:0:0
480,64,182341,1,2,0:0:0
480,64,182597,1,2,0:0:0
480,64,182854,1,2,0:0:0
480,64,183110,1,2,0:0:0
480,64,183238,1,0,0:0:0
480,64,183367,1,2,0:0:0
480,64,183623,1,2,0:0:0
480,64,184136,1,0,0:0:0
480,64,184649,1,0,0:0:0
480,64,184905,1,0,0:0:0
480,64,185033,1,0,0:0:0
480,64,185161,1,2,0:0:0
480,64,185418,1,0,0:0:0
480,64,185674,1,2,0:0:0
480,64,186187,1,0,0:0:0
480,64,186444,1,0,0:0:0
480,64,186572,1,0,0:0:0
480,64,186700,1,0,0:0:0
480,64,186956,1,2,0:0:0
480,64,187213,1,2,0:0:0
480,64,187726,1,0,0:0:0
480,64,187982,1,0,0:0:0
480,64,188238,1,2,0:0:0
256,192,188495,12,0,190546,0:0:0
480,64,190764,5,0,0:0:0
480,64,191020,1,0,0:0:0
480,64,191276,1,4,0:0:0
480,64,191788,1,4,0:0:0
480,64,192301,1,0,0:0:0
480,64,192429,1,0,0:0:0
480,64,192558,1,2,0:0:0
480,64,192853,1,6,0:0:0
480,64,193365,1,6,0:0:0
480,64,193878,1,0,0:0:0
480,64,194006,1,0,0:0:0
480,64,194135,1,0,0:0:0
480,64,194392,1,0,0:0:0
480,64,194648,1,2,0:0:0
480,64,194904,1,2,0:0:0
480,64,195161,1,2,0:0:0
480,64,195417,1,0,0:0:0
480,64,195674,1,2,0:0:0
480,64,195930,1,2,0:0:0
480,64,196443,1,0,0:0:0
480,64,196956,1,0,0:0:0
480,64,197212,1,0,0:0:0
480,64,197468,1,2,0:0:0
480,64,197725,1,0,0:0:0
480,64,197981,1,2,0:0:0
480,64,198494,1,0,0:0:0
480,64,198750,1,0,0:0:0
480,64,198879,1,0,0:0:0
480,64,199007,1,2,0:0:0
480,64,199263,1,2,0:0:0
480,64,199520,1,0,0:0:0
480,64,200033,1,0,0:0:0
480,64,200289,1,2,0:0:0
480,64,200536,1,6,0:0:0
480,64,201048,1,6,0:0:0
480,64,201561,1,6,0:0:0
480,64,202074,1,6,0:0:0
480,64,202587,1,0,0:0:0
480,64,202843,1,6,0:0:0
480,64,203100,1,0,0:0:0
480,64,203356,1,2,0:0:0
480,64,203612,1,4,0:0:0
480,64,204125,1,0,0:0:0
480,64,204253,1,0,0:0:0
480,64,204382,1,2,0:0:0
480,64,204638,1,2,0:0:0
480,64,204894,1,0,0:0:0
480,64,205151,1,2,0:0:0
480,64,205407,1,0,0:0:0
480,64,205664,1,0,0:0:0
480,64,205920,1,2,0:0:0
480,64,206177,1,0,0:0:0
480,64,206433,1,2,0:0:0
480,64,206689,1,0,0:0:0
480,64,207202,1,2,0:0:0
480,64,207330,1,0,0:0:0
480,64,207459,1,2,0:0:0
480,64,207715,1,0,0:0:0
480,64,207971,1,2,0:0:0
480,64,208228,1,2,0:0:0
480,64,208484,1,0,0:0:0
480,64,208741,1,2,0:0:0
480,64,208997,1,2,0:0:0
480,64,209253,1,0,0:0:0
480,64,209510,1,0,0:0:0
480,64,209766,1,2,0:0:0
480,64,210279,1,2,0:0:0
480,64,210535,1,2,0:0:0
480,64,210792,1,2,0:0:0
480,64,210920,1,2,0:0:0
480,64,211048,1,0,0:0:0
480,64,211305,1,2,0:0:0
480,64,211561,1,0,0:0:0
480,64,211818,1,0,0:0:0
480,64,212074,1,2,0:0:0
480,64,212330,1,0,0:0:0
480,64,212587,1,2,0:0:0
480,64,212843,1,2,0:0:0
480,64,213356,1,2,0:0:0
480,64,213612,1,0,0:0:0
480,64,213869,1,0,0:0:0
480,64,214125,1,2,0:0:0
480,64,214382,1,0,0:0:0
480,64,214638,1,0,0:0:0
480,64,214766,1,0,0:0:0
480,64,214894,1,2,0:0:0
480,64,215151,1,0,0:0:0
480,64,215407,1,0,0:0:0
480,64,215664,1,2,0:0:0
480,64,215920,1,4,0:0:0
480,64,216433,1,2,0:0:0
480,64,216689,1,2,0:0:0
480,64,216946,1,0,0:0:0
480,64,217202,1,0,0:0:0
480,64,217459,1,2,0:0:0
480,64,217715,1,0,0:0:0
480,64,217843,1,0,0:0:0
480,64,217971,1,0,0:0:0
480,64,218228,1,2,0:0:0
480,64,218484,1,0,0:0:0
480,64,218741,1,2,0:0:0
480,64,218997,1,0,0:0:0
480,64,219510,1,2,0:0:0
480,64,219766,1,2,0:0:0
480,64,220023,1,0,0:0:0
480,64,220279,1,0,0:0:0
480,64,220407,1,0,0:0:0
480,64,220535,1,2,0:0:0
480,64,220792,1,2,0:0:0
480,64,221048,1,0,0:0:0
480,64,221305,1,2,0:0:0
480,64,221561,1,0,0:0:0
480,64,221818,1,0,0:0:0
480,64,222074,1,2,0:0:0
480,64,222587,1,2,0:0:0
480,64,222843,1,2,0:0:0
480,64,223100,1,0,0:0:0
480,64,223356,1,2,0:0:0
480,64,223612,1,2,0:0:0
480,64,223869,1,0,0:0:0
480,64,223997,1,0,0:0:0
480,64,224125,1,0,0:0:0
480,64,224382,1,0,0:0:0
480,64,224638,1,0,0:0:0
480,64,224766,1,0,0:0:0
480,64,224894,1,0,0:0:0
480,64,225023,1,0,0:0:0
480,64,225151,1,2,0:0:0
480,64,225664,1,2,0:0:0
480,64,225920,1,0,0:0:0
480,64,226433,1,2,0:0:0
480,64,226689,1,0,0:0:0
480,64,226946,1,0,0:0:0
480,64,227074,1,2,0:0:0
480,64,227202,1,0,0:0:0
480,64,227459,1,2,0:0:0
480,64,227715,1,0,0:0:0
480,64,227843,1,0,0:0:0
480,64,227971,1,0,0:0:0
480,64,228228,1,4,0:0:0
256,192,228484,12,0,231048,0:0:0
480,64,231305,5,4,0:0:0
480,64,231561,1,0,0:0:0
480,64,231818,1,2,0:0:0
480,64,232074,1,0,0:0:0
480,64,232330,1,0,0:0:0
480,64,232587,1,0,0:0:0
480,64,232843,1,2,0:0:0
480,64,233356,1,0,0:0:0
480,64,233612,1,2,0:0:0
480,64,233869,1,0,0:0:0
480,64,233997,1,0,0:0:0
480,64,234125,1,0,0:0:0
480,64,234382,1,0,0:0:0
480,64,234638,1,0,0:0:0
480,64,234894,1,2,0:0:0
480,64,235151,1,0,0:0:0
480,64,235407,1,0,0:0:0
480,64,235664,1,2,0:0:0
480,64,235920,1,2,0:0:0
480,64,236433,1,0,0:0:0
480,64,236689,1,2,0:0:0
480,64,236946,1,2,0:0:0
480,64,237074,1,0,0:0:0
480,64,237202,1,0,0:0:0
480,64,237330,1,0,0:0:0
480,64,237459,1,2,0:0:0
480,64,237715,1,0,0:0:0
480,64,237971,1,2,0:0:0
480,64,238228,1,2,0:0:0
480,64,238484,1,0,0:0:0
480,64,238741,1,0,0:0:0
480,64,238997,1,0,0:0:0
480,64,239510,1,0,0:0:0
480,64,239638,1,0,0:0:0
480,64,239766,1,2,0:0:0
480,64,240023,1,0,0:0:0
480,64,240279,1,2,0:0:0
480,64,240535,1,2,0:0:0
480,64,240792,1,2,0:0:0
480,64,241048,1,0,0:0:0
480,64,241305,1,2,0:0:0
480,64,241561,1,0,0:0:0
480,64,241818,1,2,0:0:0
480,64,242074,1,0,0:0:0
480,64,242587,1,2,0:0:0
480,64,242843,1,0,0:0:0
480,64,243100,1,0,0:0:0
480,64,243228,1,0,0:0:0
480,64,243356,1,2,0:0:0
480,64,243612,1,6,0:0:0
480,64,243869,1,0,0:0:0
480,64,244125,1,2,0:0:0
480,64,244382,1,0,0:0:0
480,64,244638,1,0,0:0:0
480,64,244894,1,2,0:0:0
480,64,245151,1,2,0:0:0
480,64,245664,1,0,0:0:0
480,64,245920,1,2,0:0:0
480,64,246177,1,0,0:0:0
480,64,246433,1,2,0:0:0
480,64,246689,1,0,0:0:0
480,64,246946,1,0,0:0:0
480,64,247074,1,0,0:0:0
480,64,247202,1,2,0:0:0
480,64,247459,1,2,0:0:0
480,64,247715,1,0,0:0:0
480,64,247971,1,2,0:0:0
480,64,248228,1,2,0:0:0
480,64,248741,1,0,0:0:0
480,64,248869,1,0,0:0:0
480,64,248997,1,2,0:0:0
480,64,249253,1,0,0:0:0
480,64,249510,1,0,0:0:0
480,64,249766,1,2,0:0:0
480,64,250023,1,2,0:0:0
480,64,250279,1,0,0:0:0
480,64,250535,1,2,0:0:0
480,64,250792,1,0,0:0:0
480,64,251048,1,2,0:0:0
480,64,251305,1,2,0:0:0
480,64,251818,1,0,0:0:0
480,64,252074,1,0,0:0:0
480,64,252202,1,0,0:0:0
480,64,252330,1,0,0:0:0
480,64,252587,1,0,0:0:0
480,64,252843,1,2,0:0:0
480,64,253100,1,0,0:0:0
480,64,253356,1,2,0:0:0
480,64,253612,1,2,0:0:0
480,64,253869,1,0,0:0:0
480,64,254125,1,2,0:0:0
480,64,254382,1,4,0:0:0
480,64,255151,1,2,0:0:0
480,64,255664,1,0,0:0:0
480,64,255920,1,4,0:0:0
256,192,256177,12,0,263741,0:0:0
