osu file format v5

[General]
AudioFilename: EBA September.mp3
AudioLeadIn: 1004
PreviewTime: -1
Countdown: 1
SampleSet: Normal
StackLeniency: 0.5
Mode: 0
LetterboxInBreaks: 1
StoryFireInFront: 0
SkinPreference:EliteBeatOsu

[Metadata]
Title:September
Artist:Earth, Wind & Fire
Creator:shamanmario
Version:Insane
Source:Elite Beat Agents
Tags:EBA september earth_wind_&_fire

[Difficulty]
HPDrainRate:9
CircleSize:5
OverallDifficulty:10
SliderMultiplier:2.1
SliderTickRate:2

[Events]
//Background and Video events
//Break Periods
2,32148,45268
2,75455,88012
2,118821,131828
//Storyboard Layer 0 (Background)
//Storyboard Layer 1 (Failing)
//Storyboard Layer 2 (Passing)
//Storyboard Layer 3 (Foreground)
//Storyboard Sound Samples
//Background Colour Transformations
3,100,0,128,255

[TimingPoints]
15302,451.127819548872,4,1,1,100,1,0

[Colours]
Combo1 : 255,0,0
Combo2 : 255,128,0
Combo3 : 0,191,0
Combo4 : 0,0,255

[HitObjects]
256,48,18008,1,2
248,56,18234,1,2
256,192,19813,1,2
192,192,20038,1,2
128,192,20264,1,2
64,192,20489,2,2,B|16:376|267:356,1,315,2|2
256,264,21392,1,0
248,256,21617,1,0
336,72,22971,5,0
256,32,23196,1,0
256,112,23422,1,0
256,192,23647,1,0
256,272,23873,1,0
257,352,24098,2,2,B|496:371|448:187,1,315,2|2
376,192,25001,1,2
304,192,25226,1,2
456,40,26580,5,2
376,40,26805,1,2
296,40,27031,1,2
216,40,27256,1,2
136,40,27482,1,2
56,41,27708,2,2,B|8:222|272:192,1,315,2|2
368,192,28610,1,0
472,192,28835,6,4,C|448:296|352:368|232:376|152:352|88:296|40:176,2,630,0|4|0
256,192,31993,1,4
256,352,46880,6,8,C|285:312|228:240|262:170,1,210,8|8
276,112,47557,1,8
360,346,48685,1,10
432,312,48911,1,10
472,240,49136,1,10
472,160,49362,1,10
432,88,49587,2,8,C|376:40|240:40,1,210
256,352,50489,6,8,C|285:312|228:240|262:170,1,210,8|8
276,112,51166,1,8
152,346,52294,1,10
80,312,52520,1,10
40,240,52745,1,10
40,160,52971,1,10
80,88,53196,2,8,C|136:40|272:40,1,210
256,352,54098,6,8,C|285:312|228:240|262:170,1,210,8|8
276,112,54775,1,8
464,192,55903,1,0
320,192,56354,1,0
256,192,56579,1,0
192,192,56805,1,0
56,192,57256,1,0
64,200,57482,1,0
72,280,57708,2,4,C|184:344|344:344|464:280,2,420,0|4|0
256,192,60414,1,0
248,184,60639,1,0
240,176,60865,1,0
400,64,61317,6,2,C|179:64,1,210,2|2
112,64,61993,1,0
110,144,62219,2,2,C|320:144,1,210,2|2
400,144,62895,1,2
256,352,63347,5,10
256,280,63572,1,10
328,280,63798,1,0
360,216,64023,2,2,C|139:216,1,210,2|2
112,64,64926,6,2,C|333:64,1,210,2|2
400,64,65602,1,0
402,144,65828,2,2,C|192:144,1,210,2|2
112,144,66504,1,2
256,352,66956,5,10
256,280,67181,1,10
184,280,67407,1,0
152,216,67632,2,2,C|373:216,1,210,2|2
400,64,68535,6,2,C|179:64,1,210,2|2
112,64,69211,1,0
110,144,69437,2,2,C|320:144,1,210,2|2
400,144,70113,1,2
256,352,70565,5,10
256,280,70790,1,10
328,280,71016,1,0
360,216,71241,2,2,C|139:216,1,210,2|2
256,192,72144,12,4,75301
256,320,89738,5,10
248,312,89963,1,2
256,232,90189,1,2
248,224,90414,1,2
8,232,91317,1,2
48,168,91543,1,2
112,120,91769,2,10,C|256:72|416:120,1,315,10|6
464,168,92670,1,10
256,232,93347,5,2
248,224,93572,1,0
240,216,93798,1,0
504,232,94926,1,2
464,168,95152,1,2
400,120,95377,2,8,C|328:56|192:48,1,210
104,112,96279,1,10
256,232,96956,5,2
248,224,97181,1,0
240,216,97407,1,0
32,232,99211,5,2
64,168,99437,1,2
104,112,99662,1,10
160,64,99887,2,10,C|304:64|368:88|456:160,1,315,10|6
472,224,100790,1,2
256,192,101016,12,0,103948
256,352,104625,6,8,C|285:312|228:240|262:170,1,210,8|8
276,112,105302,1,8
360,346,106430,1,10
432,312,106656,1,10
472,240,106881,1,10
472,160,107107,1,10
432,88,107332,2,8,C|376:40|240:40,1,210
256,352,108234,6,8,C|285:312|228:240|262:170,1,210,8|8
276,112,108911,1,8
152,346,110039,1,10
80,312,110265,1,10
40,240,110490,1,10
40,160,110716,1,10
80,88,110941,2,8,C|136:40|272:40,1,210
256,352,111843,6,8,C|285:312|228:240|262:170,1,210,8|8
276,112,112520,1,8
464,192,113648,1,0
320,192,114099,1,0
256,192,114324,1,0
192,192,114550,1,0
56,192,115001,1,0
48,184,115227,1,0
72,280,115453,2,4,C|184:344|344:344|464:280,2,420,0|4|0
256,192,118159,1,0
248,184,118384,1,0
240,176,118610,1,0
160,216,133497,6,2,C|240:144|256:32,1,210
176,40,134174,2,2,C|80:72|24:168,1,210,2|2
48,224,134850,1,2
88,288,135076,1,2
136,344,135301,1,2
216,232,135753,1,2
296,232,135978,1,2
256,304,136204,1,2
432,304,136655,1,2
432,232,136880,1,2
352,216,137106,6,2,C|272:144|256:32,1,210
336,40,137783,2,2,C|432:72|488:168,1,210,2|2
464,224,138459,1,2
424,288,138685,1,2
376,344,138910,1,2
296,232,139362,1,2
216,232,139587,1,2
256,304,139813,1,2
80,304,140264,1,2
80,232,140489,1,2
160,216,140715,6,2,C|240:144|256:32,1,210
176,40,141392,2,2,C|80:72|24:168,1,210,2|2
48,224,142068,1,2
88,288,142294,1,2
136,344,142519,1,2
256,224,142971,1,2
256,288,143196,1,2
256,352,143422,1,2
432,304,143873,1,2
432,232,144098,1,2
360,56,144324,5,2
352,48,144550,1,2
152,56,145001,1,2
144,48,145226,1,2
152,192,145677,1,2
144,184,145903,1,2
352,192,146354,1,2
344,184,146580,1,2
256,328,147031,1,2
248,320,147256,1,2
240,312,147482,1,2
160,216,147933,6,2,C|240:144|256:32,1,210
176,40,148610,2,2,C|80:72|24:168,1,210,2|2
48,224,149286,1,2
88,288,149512,1,2
136,344,149737,1,2
216,232,150189,1,2
296,232,150414,1,2
256,304,150640,1,2
432,304,151091,1,2
432,232,151316,1,2
352,216,151542,6,2,C|272:144|256:32,1,210
336,40,152219,2,2,C|432:72|488:168,1,210,2|2
464,224,152895,1,2
424,288,153121,1,2
376,344,153346,1,2
296,232,153798,1,2
216,232,154023,1,2
256,304,154249,1,2
80,304,154700,1,2
80,232,154925,1,2
160,216,155151,6,2,C|240:144|256:32,1,210
176,40,155828,2,2,C|80:72|24:168,1,210,2|2
48,224,156504,1,2
88,288,156730,1,2
136,344,156955,1,2
256,224,157407,1,2
256,288,157632,1,2
256,352,157858,1,2
432,304,158309,1,2
432,232,158534,1,2
360,56,158760,5,2
352,48,158986,1,2
152,56,159437,1,2
144,48,159662,1,2
152,192,160113,1,2
144,184,160339,1,2
352,192,160790,1,2
344,184,161016,1,2
256,328,161467,1,2
248,320,161692,1,2
240,312,161918,1,2
