osu file format v5

[General]
AudioFilename: EBA September.mp3
AudioLeadIn: 1004
PreviewTime: -1
Countdown: 1
SampleSet: Normal
StackLeniency: 1
Mode: 0
LetterboxInBreaks: 1
StoryFireInFront: 0
SkinPreference:EliteBeatOsu

[Metadata]
Title:September
Artist:Earth, Wind & Fire
Creator:shamanmario
Version:Easy
Source:Elite Beat Agents
Tags:EBA september earth_wind_&_fire

[Difficulty]
HPDrainRate:2
CircleSize:3
OverallDifficulty:0
SliderMultiplier:1.3
SliderTickRate:2

[Events]
//Background and Video events
//Break Periods
2,32148,45268
2,75455,88012
2,118821,131828
//Storyboard Layer 0 (Background)
//Storyboard Layer 1 (Failing)
//Storyboard Layer 2 (Passing)
//Storyboard Layer 3 (Foreground)
//Storyboard Sound Samples
//Background Colour Transformations
3,100,0,128,255

[TimingPoints]
15302,451.127819548872,4,1,1,100,1,0

[Colours]
Combo1 : 255,0,0
Combo2 : 255,128,0
Combo3 : 0,191,0
Combo4 : 0,0,255

[HitObjects]
256,192,18008,5,4
52,286,19813,2,2,B|-64:64|232:32,1,390,0|2
256,192,21617,5,4
288,33,23422,2,2,B|576:64|460:286,1,390,0|2
256,192,25226,5,4
352,288,27031,2,2,B|256:320|152:288,1,195
64,88,28835,6,4,C|192:64|320:64|448:96,2,390,0|4|0
256,192,31993,1,4
256,64,46880,5,0
256,224,47556,1,12
384,32,48685,2,10,C|448:96|480:192|448:288|376:352,1,390,8|0
256,346,50489,5,0
256,192,51166,1,4
120,352,52294,2,8,C|64:288|32:192|64:96|136:24,1,390,8|10
256,64,54098,5,0
256,192,54775,1,4
128,320,55903,2,0,C|256:352|384:320,1,260
256,192,57708,5,4
96,64,58610,1,2
416,64,59512,1,2
192,192,60414,1,2
320,192,60865,1,4
256,32,61317,5,2
256,288,62219,1,14
32,288,63347,2,0,C|32:160|96:64|176:32,1,325,10|4
256,32,64926,5,10
256,288,65828,1,4
480,288,66956,2,10,C|480:160|416:64|328:32,1,325,0|6
128,192,68535,5,2
384,192,69437,1,4
416,320,70565,2,0,C|256:352|96:320,1,325,0|6
48,256,72144,6,0,C|16:176|16:88|80:16|160:-16|256:-24|376:-8|440:16|496:72|504:176|464:256,1,910,10|6
256,32,89738,5,10
256,192,90189,1,6
456,280,91317,2,10,C|256:320|64:288,1,390,10|6
256,32,93347,5,2
256,192,93798,1,4
72,288,94926,2,10,C|256:320|464:288,1,390,10|6
256,32,96956,5,2
256,192,97407,1,6
160,296,99211,2,10,B|248:320|360:296,1,195,10|2
64,96,101016,6,0,C|192:64|320:64|448:96,2,390,6|2|2
256,320,104625,5,2
256,160,105302,1,6
384,352,106429,2,10,C|448:288|480:192|448:96|376:32,1,390
256,346,108234,5,2
256,192,108910,1,6
128,344,110038,2,10,C|64:288|32:192|64:96|136:24,1,390,10|6
256,320,111843,5,2
256,192,112519,1,6
128,64,113647,2,10,C|256:32|384:64,1,260,2|10
256,192,115452,5,6
96,320,116354,1,2
416,320,117256,1,2
192,192,118159,1,2
320,192,118610,1,6
256,38,133496,5,2
256,192,134172,1,6
120,32,135301,2,10,C|64:96|32:192|64:288|136:360,1,390,10|2
256,346,137106,5,2
256,192,137783,1,6
375,359,138911,2,10,C|446:289|478:193|446:97|390:33,1,390,10|2
256,64,140715,5,2
256,192,141392,1,6
128,320,142520,2,10,C|256:352|384:320,1,260,10|2
64,96,144324,6,6,C|192:64|320:64|448:96,2,390,6|10|2
128,224,147482,1,6
256,38,147933,5,2
256,192,148610,1,6
128,24,149738,2,10,C|64:96|32:192|64:288|136:352,1,390,10|2
256,346,151542,5,2
256,192,152219,1,6
377,358,153347,2,10,C|448:288|480:192|448:96|392:32,1,390,10|2
256,320,155151,5,2
256,192,155828,1,6
256,192,156956,12,6,162369
