osu file format v4

[General]
AudioFilename: September.mp3
AudioLeadIn: 0
AudioHash: a75b71353cca607245af3b10270326e1
PreviewTime: -1
SampleSet: Normal
EditorBookmarks: 60612,133165

[Metadata]
Title:September
Artist:Earth, Wind & Fire
Creator:Jay
Version:Hard ROCK!

[Difficulty]
HPDrainRate:8
CircleSize:6
OverallDifficulty:8
SliderMultiplier: 1.6
SliderTickRate: 2

[Events]
2,32166,45053
2,75474,88960
2,118782,132419
3,0,163,162,255

[TimingPoints]
-64,451.127819548872,4,1,0

[HitObjects]
256,64,17981,1,0,
256,64,18207,1,4,
256,192,19786,1,0,
320,192,20011,1,0,
384,192,20237,1,0,
448,192,20462,2,0,B|448:192|448:256|404:313|330:318|241:319,1,240
274,253,21364,1,0,
274,253,21590,1,4,
192,96,22943,5,0,
256,64,23169,1,0,
256,128,23394,1,0,
256,192,23620,1,0,
256,256,23845,1,0,
256,320,24071,2,0,B|256:320|192:320|93:298|96:160,1,240
163,178,24973,1,0,
230,178,25199,1,4,
64,64,26552,5,0,
128,64,26778,1,0,
192,64,27003,1,0,
256,64,27229,1,0,
320,64,27454,1,0,
384,64,27680,2,0,B|384:64|384:160|320:192|256:192|192:192,1,240
147,192,28582,1,0,
64,192,28808,6,0,B|64:192|86:275|117:305|174:330|327:333|373:312|403:278|440:171,2,480
256,192,31966,1,4,
256,352,46853,6,0,B|256:352|288:320|288:288|224:256|224:224|288:192,1,160
256,128,47529,1,4,
96,352,48658,1,0,
64,288,48883,1,0,
56,224,49109,1,0,
64,160,49334,1,0,
96,96,49560,2,4,B|96:96|128:64|192:64|256:64,1,160
256,352,50462,6,0,B|256:352|288:320|288:288|224:256|224:224|288:192,1,160
256,128,51138,1,4,
416,352,52267,1,0,
448,288,52492,1,0,
456,224,52718,1,0,
448,160,52943,1,0,
416,96,53169,2,4,B|416:96|384:64|320:64|256:64,1,160
256,352,54071,6,0,B|256:352|288:320|288:288|224:256|224:224|288:192,1,160
256,128,54747,1,4,
96,192,55875,1,4,
192,192,56327,1,0,
256,192,56552,1,0,
320,192,56778,1,4,
448,192,57229,1,4,
448,192,57454,1,4,
416,256,57680,6,4,B|416:256|366:304|288:320|224:320|158:305|96:256,2,320
256,192,60387,1,0,
256,192,60613,1,0,
256,192,60838,1,4,
128,64,61289,6,0,B|128:64|320:64,1,160
352,64,61966,1,0,
352,128,62191,2,0,B|352:128|160:128,1,160
128,128,62868,1,0,
256,352,63319,5,0,
256,288,63545,1,0,
192,288,63770,1,0,
160,224,63996,2,0,B|160:224|352:224,1,160
384,64,64898,6,0,B|384:64|192:64,1,160
160,64,65575,1,0,
160,128,65800,2,0,B|160:128|352:128,1,160
384,128,66477,1,0,
256,352,66928,5,0,
256,288,67154,1,0,
320,288,67379,1,0,
352,224,67605,2,0,B|352:224|160:224,1,160
128,64,68507,6,0,B|128:64|320:64,1,160
352,64,69184,1,0,
352,128,69409,2,0,B|352:128|160:128,1,160
128,128,70086,1,0,
256,352,70537,5,0,
256,288,70763,1,0,
192,288,70988,1,0,
160,224,71214,2,0,B|160:224|352:224,1,160
256,192,72116,12,0,75274
256,320,89710,1,0,
256,320,89935,1,0,
256,256,90161,1,0,
256,256,90387,1,4,
457,254,91289,1,0,
440,184,91514,1,0,
393,126,91740,2,0,B|393:126|361:94|296:71|249:71|194:92|160:128,1,240
128,160,92642,1,4,
256,256,93319,5,0,
256,256,93545,1,0,
256,256,93770,1,4,
55,254,94898,1,0,
72,184,95123,1,0,
119,126,95349,2,0,B|119:126|151:94|216:71|263:71|288:96,1,160
384,128,96251,1,4,
256,256,96928,5,0,
256,256,97154,1,0,
256,256,97379,1,4,
448,192,99184,5,0,
409,135,99410,1,0,
349,99,99635,1,0,
282,96,99861,2,0,B|282:96|218:96|154:96|90:160|58:224,1,240
50,265,100763,1,4,
256,192,101214,12,4,104146
256,352,104597,6,0,B|256:352|288:320|288:288|224:256|224:224|288:192,1,160
256,128,105273,1,4,
96,352,106402,1,0,
64,288,106627,1,0,
56,224,106853,1,0,
64,160,107078,1,0,
96,96,107304,2,4,B|96:96|128:64|192:64|256:64,1,160
256,352,108206,6,0,B|256:352|288:320|288:288|224:256|224:224|288:192,1,160
256,128,108882,1,4,
416,352,110011,1,0,
448,288,110236,1,0,
456,224,110462,1,0,
448,160,110687,1,0,
416,96,110913,2,4,B|416:96|384:64|320:64|256:64,1,160
256,352,111815,6,0,B|256:352|288:320|288:288|224:256|224:224|288:192,1,160
256,128,112491,1,4,
96,192,113620,1,4,
192,192,114071,1,0,
256,192,114296,1,0,
320,192,114522,1,4,
448,192,114973,1,4,
448,192,115198,1,4,
416,256,115424,6,4,B|416:256|366:304|288:320|224:320|158:305|96:256,2,320
256,192,118131,1,0,
256,192,118357,1,0,
256,192,118582,1,4,
384,192,133469,6,0,B|384:192|322:181|290:142|288:64,1,160
352,32,134146,2,0,B|352:32|416:32|448:64|480:128,1,160
480,192,134823,1,0,
440,251,135048,1,0,
400,311,135274,1,4,
288,256,135725,1,0,
224,256,135950,1,0,
256,320,136176,1,4,
64,256,136627,1,0,
64,192,136853,1,4,
128,192,137078,6,0,B|128:192|190:181|222:142|224:64,1,160
160,32,137755,2,0,B|160:32|96:32|64:64|32:128,1,160
31,191,138432,1,0,
71,250,138657,1,0,
111,310,138883,1,4,
224,256,139334,1,0,
288,256,139559,1,0,
256,320,139785,1,4,
448,256,140236,1,0,
448,192,140462,1,4,
384,192,140687,6,0,B|384:192|322:181|290:142|288:64,1,160
352,32,141364,2,0,B|352:32|416:32|448:64|480:128,1,160
480,192,142041,1,0,
440,251,142266,1,0,
400,311,142492,1,4,
256,224,142943,1,0,
256,288,143168,1,0,
256,352,143394,1,4,
96,256,143845,1,0,
96,192,144071,1,4,
160,64,144296,5,0,
160,64,144522,1,6,
352,64,144973,1,0,
352,64,145199,1,6,
352,192,145649,1,0,
352,192,145875,1,6,
160,192,146326,1,0,
160,192,146552,1,6,
256,352,147003,1,0,
256,352,147229,1,0,
256,352,147454,1,6,
384,192,147905,6,0,B|384:192|322:181|290:142|288:64,1,160
352,32,148582,2,0,B|352:32|416:32|448:64|480:128,1,160
480,192,149259,1,0,
440,251,149484,1,0,
400,311,149710,1,4,
288,256,150161,1,0,
224,256,150386,1,0,
256,320,150612,1,4,
64,256,151063,1,0,
64,192,151289,1,4,
128,192,151514,6,0,B|128:192|190:181|222:142|224:64,1,160
160,32,152191,2,0,B|160:32|96:32|64:64|32:128,1,160
31,191,152868,1,0,
71,250,153093,1,0,
111,310,153319,1,4,
224,256,153770,1,0,
288,256,153995,1,0,
256,320,154221,1,4,
448,256,154672,1,0,
448,192,154898,1,4,
384,192,155123,6,0,B|384:192|322:181|290:142|288:64,1,160
352,32,155800,2,0,B|352:32|416:32|448:64|480:128,1,160
480,192,156477,1,0,
440,251,156702,1,0,
400,311,156928,1,4,
256,224,157379,1,0,
256,288,157604,1,0,
256,352,157830,1,4,
96,256,158281,1,0,
96,192,158507,1,4,
160,64,158732,5,0,
160,64,158958,1,6,
352,64,159409,1,0,
352,64,159635,1,6,
352,192,160085,1,0,
352,192,160311,1,6,
160,192,160762,1,0,
160,192,160988,1,6,
256,352,161439,1,0,
256,352,161665,1,0,
256,352,161890,1,6,
