osu file format v9

[General]
AudioFilename: september.mp3
AudioLeadIn: 0
PreviewTime: 49009
Countdown: 1
SampleSet: Normal
StackLeniency: 0.7
Mode: 0
LetterboxInBreaks: 1

[Editor]
DistanceSpacing: 0.9
BeatDivisor: 2
GridSize: 8

[Metadata]
Title:September
Artist:Earth, Wind and Fire
Creator:Behonkiss
Version:Normal
Source:
Tags:

[Difficulty]
HPDrainRate:5
CircleSize:4
OverallDifficulty:5
ApproachRate:5
SliderMultiplier:1.6
SliderTickRate:2

[Events]
//Background and Video events
0,0,"earthwind&fire.jpg"
//Break Periods
2,81569,94929
2,142414,155491
//Storyboard Layer 0 (Background)
//Storyboard Layer 1 (Fail)
//Storyboard Layer 2 (Pass)
//Storyboard Layer 3 (Foreground)
//Storyboard Sound Samples
//Background Colour Transformations
3,100,163,162,255

[TimingPoints]
20048.0422127016,483.170967741936,4,1,0,50,1,0
34508,482.870967741935,4,1,0,50,1,0
47090,479.770967741935,4,1,0,50,1,0
50929,-100,4,1,0,50,0,0
66251,472.440944881889,4,1,0,50,1,0
83747,476.240944881889,4,1,0,50,1,0
96605,480.04094488189,4,1,0,50,1,0
104255,473.440944881892,4,1,0,50,1,0
108049,478.040944881891,4,1,0,50,1,0
111873,473.970554263255,4,1,0,50,1,0
126906,-100,4,1,0,50,0,0
127025,474.670554263255,4,1,0,50,1,0
142217,-100,4,1,0,50,0,0
157410,-100,4,1,0,50,0,0
165006,471.270554263254,4,1,0,50,1,0
172075,-100,4,1,0,50,0,0
172546,470.370554263254,4,1,0,50,1,1
187604,466.970554263253,4,1,0,50,1,1
202547,-100,4,1,0,50,0,0

[Colours]
Combo1 : 5,40,122
Combo2 : 255,128,0
Combo3 : 254,39,1
Combo4 : 255,255,108

[HitObjects]
48,56,19323,1,0
48,56,19564,1,0
48,200,20048,2,0,B|80:312|240:328,1,240,4|0
448,328,21497,1,8
448,184,21980,5,2
344,80,22463,1,2
344,80,22705,2,0,B|208:80|160:152|112:224,1,240,2|0
80,224,23671,1,0
144,256,23913,1,2
431,256,24879,1,8
312,336,25362,5,0
168,336,25846,1,2
48,256,26329,1,2
48,184,26570,2,0,B|104:0|336:32,1,320,2|0
368,32,27778,1,0
464,304,28745,1,8
328,352,29228,5,0
328,208,29711,1,2
328,64,30194,1,0
328,64,30436,2,0,B|240:0|232:160|96:56,1,240,2|0
48,200,31644,2,0,B|88:312|192:352|352:320,2,320
280,40,34508,5,4
424,40,34990,1,0
352,160,35473,1,2
352,160,35715,2,0,B|344:280|272:336|120:352,1,320,2|8
48,232,37163,6,0,B|48:88|176:48,1,240,2|0
248,48,38129,2,0,B|373:87|373:231,1,240,2|0
448,232,39095,1,8
368,352,39578,2,0,B|120:352,1,240,8|0
40,240,40785,5,2
184,240,41268,1,0
256,240,41509,1,8
328,240,41751,1,8
400,240,41992,2,0,B|424:72|312:0|88:48,1,400,2|0
24,304,44165,1,8
168,304,44648,5,0
240,304,44889,1,0
312,304,45131,2,2,B|504:304,1,160
472,232,45855,2,2,B|216:232,1,240
256,192,47090,12,0,48769
256,192,49248,5,8
256,192,49728,1,8
256,192,50208,1,8
96,48,50928,6,2,B|24:160|104:288,1,240,6|6
224,344,52127,1,8
224,344,52367,1,8
368,344,52847,1,0
472,248,53327,1,0
472,104,53806,2,0,B|472:24|344:16,1,160,2|2
96,48,54766,6,2,B|24:160|104:288,1,240,6|6
224,344,55965,1,8
224,344,56205,1,8
368,344,56685,1,0
472,248,57165,1,0
472,104,57644,2,0,B|472:24|344:16,1,160,2|2
216,40,58604,6,2,B|104:144|320:128|128:272,1,240,6|6
17,244,59803,1,8
17,244,60043,1,8
128,328,60523,1,0
272,328,61003,1,2
384,240,61483,2,0,B|448:176|448:80,1,160,0|2
256,192,62202,12,4,65801
192,56,66251,6,2,B|56:208,1,160,6|2
200,256,67195,2,2,B|328:112,1,160,6|2
496,40,68376,1,8
496,40,68613,1,8
496,184,69085,2,2,B|496:352,1,160,6|2
320,56,70030,6,2,B|456:208,1,160,6|2
312,256,70975,2,2,B|184:112,1,160,6|2
16,40,72156,1,8
16,40,72392,1,8
16,184,72865,2,2,B|16:352,1,160,6|2
144,272,73810,6,2,B|336:272,1,160,6|2
192,176,74754,2,2,B|360:176,1,160,6|2
168,64,75936,1,8
168,64,76172,1,8
168,64,76408,2,2,B|424:64,1,240
256,192,77353,12,4,81369
464,192,96129,5,2
320,192,96605,1,4
248,192,96845,2,0,B|80:192,1,160,2|0
48,328,97805,1,8
192,328,98285,2,2,B|456:328,1,240,10|2
432,256,99245,2,2,B|264:256,1,160
200,256,99965,5,8
200,256,100205,1,8
200,256,100445,2,0,B|88:272|40:112|176:80,1,240,8|2
256,168,101645,1,0
256,96,101885,1,0
312,48,102125,2,2,B|384:112|312:192,3,160
472,328,104255,6,0,B|-32:328,1,480,0|8
48,192,106148,5,2
48,192,106385,1,0
48,192,106622,1,8
48,192,106858,2,2,B|96:64|264:96,1,240,8|0
256,192,107805,12,2,110200
56,48,110678,5,10
200,48,111156,1,10
416,48,111873,6,2,B|488:160|408:288,1,240,6|6
288,344,113057,1,8
288,344,113294,1,8
144,344,113768,1,0
40,248,114242,1,0
40,104,114716,2,0,B|40:24|168:16,1,160,2|2
416,48,115664,6,2,B|488:160|408:288,1,240,6|6
288,344,116849,1,8
288,344,117086,1,8
144,344,117560,1,0
40,248,118034,1,0
40,104,118508,2,0,B|40:24|168:16,1,160,2|2
296,40,119456,6,2,B|408:144|192:128|384:272,1,240,6|6
495,244,120641,1,8
495,244,120878,1,8
384,328,121352,1,0
240,328,121826,1,2
128,240,122300,2,0,B|64:176|64:80,1,160,0|2
256,192,123011,12,4,126092
32,56,126566,5,0
32,192,127025,2,2,B|32:288|152:320,1,160,6|2
184,352,127737,2,0,B|288:352|320:256,2,160,2|8|0
184,280,128923,1,0
184,208,129161,1,0
184,136,129398,1,8
288,32,129873,2,2,B|480:32,1,160
432,176,130822,6,2,B|432:304|304:320,1,160,6|2
296,264,131534,2,0,B|384:208|344:112,2,160,4|0|0
224,264,132721,1,0
152,264,132958,1,0
80,264,133195,1,8
16,136,133670,2,2,B|184:136,1,160
256,16,134619,6,2,B|440:16,1,160,6|2
472,56,135331,2,0,B|520:136|464:232,2,160,4|0|0
408,96,136518,1,0
368,160,136755,1,0
328,224,136993,1,8
216,312,137467,2,2,B|144:360|48:304,1,160
256,192,138179,12,4,142214
464,328,156691,5,8
464,328,156929,1,8
320,328,157403,2,2,B|152:328,1,160,4|0
88,328,158115,2,2,B|0:216|104:88,1,240,6|2
224,56,159302,1,2
368,56,159777,1,8
440,56,160014,1,8
408,120,160251,2,0,B|408:288,1,160,2|2
320,328,161201,6,2,B|152:328,1,160,4|0
88,328,161913,2,2,B|0:216|104:88,1,240,6|2
224,56,163099,1,2
368,56,163574,1,8
440,56,163811,1,8
408,120,164049,2,0,B|408:288,1,160,2|2
296,192,165006,6,2,B|240:264|320:368,1,160,6|2
376,344,165712,2,2,B|496:304|496:144,1,240,6|2
392,56,166891,1,0
320,56,167126,1,0
248,56,167362,1,8
112,104,167833,2,2,B|32:184|136:264,1,160,2|10
256,192,168540,12,0,172075
96,48,172546,6,2,B|24:160|104:288,1,240,6|6
224,344,173721,1,8
224,344,173957,1,8
368,344,174427,1,0
472,248,174897,1,0
472,104,175368,2,0,B|472:24|344:16,1,160,2|2
96,48,176308,6,2,B|24:160|104:288,1,240,6|6
224,344,177484,1,8
224,344,177720,1,8
368,344,178190,1,0
472,248,178660,1,0
472,104,179131,2,0,B|472:24|344:16,1,160,2|2
216,40,180071,6,2,B|104:144|320:128|128:272,1,240,6|6
17,244,181247,1,8
17,244,181482,1,8
128,328,181952,1,0
272,328,182422,1,2
384,240,182893,2,0,B|448:176|448:80,1,160,0|2
256,192,183598,12,0,187126
8,144,187604,6,2,B|8:328,1,160,6|2
80,304,188304,2,2,B|80:56,1,240
152,64,189238,2,2,B|152:320,1,240
240,192,190405,1,8
240,192,190639,1,8
240,192,190872,1,8
504,240,191339,6,2,B|504:56,1,160,6|2
432,80,192039,2,2,B|432:328,1,240
360,320,192973,2,2,B|360:64,1,240
272,192,194140,1,8
272,192,194374,1,8
272,192,194607,1,8
200,64,195075,6,4,B|40:208|224:352,3,320,4|4|4|4
256,192,198344,12,4,202547
