osu file format v14

[General]
AudioFilename: 04002.mp3
AudioLeadIn: 0
PreviewTime: 55522
Countdown: 1
SampleSet: Soft
StackLeniency: 0.7
Mode: 0
LetterboxInBreaks: 1
WidescreenStoryboard: 1

[Editor]
DistanceSpacing: 0.5
BeatDivisor: 4
GridSize: 4
TimelineZoom: 3.099999

[Metadata]
Title:Sore ga Seiyuu!
TitleUnicode:それが声優!
Artist:Earphones
ArtistUnicode:イヤホンズ
Creator:4anke
Version:Insane
Source:それが声優!
Tags:
BeatmapID:925146
BeatmapSetID:339083

[Difficulty]
HPDrainRate:6
CircleSize:4
OverallDifficulty:8
ApproachRate:9
SliderMultiplier:1.9
SliderTickRate:1

[Events]
//Background and Video events
Video,0,"17809.avi"
0,0,"BG3.png",0,0
//Break Periods
//Storyboard Layer 0 (Background)
//Storyboard Layer 1 (Fail)
//Storyboard Layer 2 (Pass)
//Storyboard Layer 3 (Foreground)
//Storyboard Sound Samples

[TimingPoints]
2253,384.615384615385,4,2,1,80,1,0
12253,-100,4,1,1,80,0,0
12733,-100,4,2,1,80,0,0
15330,-100,4,1,1,80,0,0
15810,-100,4,2,1,80,0,0
18406,-100,4,1,1,80,0,0
18887,-100,4,2,1,80,0,0
19945,-100,4,1,1,80,0,0
20426,-100,4,2,1,80,0,0
21483,-100,4,1,1,80,0,0
21964,-100,4,2,1,80,0,0
37637,-100,4,2,2,80,0,0
38406,-133.333333333333,4,2,2,60,0,0
40330,-100,4,2,1,60,0,0
44753,-100,4,1,1,60,0,0
45041,-100,4,2,1,60,0,0
46099,-100,4,1,1,70,0,0
46580,-100,4,2,1,60,0,0
50714,-100,4,1,1,60,0,0
51003,-100,4,2,1,60,0,0
52060,-100,4,1,1,60,0,0
52253,-100,4,2,1,60,0,0
55330,-66.6666666666667,4,2,1,60,0,0
55522,-100,4,2,1,80,0,1
58599,-100,4,1,1,90,0,1
58887,-100,4,2,1,80,0,1
61676,-100,4,1,1,90,0,1
61964,-100,4,2,1,80,0,1
63214,-100,4,1,1,90,0,1
63503,-100,4,2,1,80,0,1
64753,-100,4,1,1,90,0,1
65041,-100,4,2,1,80,0,1
67637,-100,4,1,1,90,0,1
68022,-100,4,2,1,80,0,1
70906,-100,4,1,1,90,0,1
71195,-100,4,2,1,80,0,1
73406,-66.6666666666667,4,2,1,80,0,1
73599,-100,4,2,1,80,0,1
77253,-100,4,2,1,60,0,1
80714,-100,4,2,1,60,0,0
86483,-200,4,2,1,60,0,0
88791,-100,4,2,1,60,0,0

[Colours]
Combo1 : 68,184,240
Combo2 : 68,240,98
Combo3 : 255,255,0
Combo4 : 255,55,155
Combo5 : 128,0,255

[HitObjects]
256,192,906,12,4,2253,0:0:0:0:
69,177,2445,6,0,P|67:200|71:223,1,47.5,0|0,0:0|0:0,0:0:0:0:
144,193,2637,2,0,P|187:175|207:132,1,95,0|0,0:0|0:0,0:0:0:0:
316,33,3022,2,0,P|313:82|329:131,1,95,8|0,0:0|0:0,0:0:0:0:
326,125,3406,1,0,0:0:0:0:
326,125,3503,1,0,0:0:0:0:
326,125,3599,2,0,L|356:176,1,47.5
316,286,3791,6,0,L|286:235,1,47.5
191,186,3983,2,0,L|139:192,1,47.5
177,322,4175,2,0,L|210:269,1,47.5
316,286,4368,2,0,L|345:334,1,47.5
143,192,4560,2,0,L|80:178,1,47.5
375,201,4753,2,0,L|423:185,1,47.5
191,186,4945,2,0,L|139:192,1,47.5
316,286,5137,1,0,0:0:0:0:
285,168,5330,6,0,L|377:201,1,95,8|0,0:0|0:0,0:0:0:0:
463,264,5714,2,0,L|367:232,1,95
276,268,6099,1,8,0:0:0:0:
147,218,6291,2,0,L|238:249,1,95
103,146,6676,1,0,0:0:0:0:
223,71,6868,6,0,P|270:72|312:93,1,95,8|0,0:0|0:0,0:0:0:0:
415,54,7253,2,0,P|421:100|407:145,1,95,0|0,0:0|0:0,0:0:0:0:
397,174,7541,1,0,0:0:0:0:
386,203,7637,2,0,P|372:248|378:294,1,95,8|0,0:0|0:0,0:0:0:0:
258,356,8022,2,0,B|143:356|143:356|160:317,1,142.5
160,261,8406,6,0,P|139:221|93:206,1,95,8|0,0:0|0:0,0:0:0:0:
68,78,8791,2,0,P|103:109|151:120,1,95,0|0,0:0|0:0,0:0:0:0:
140,39,9176,1,8,0:0:0:0:
303,104,9368,2,0,P|268:73|220:62,1,95,0|0,0:0|0:0,0:0:0:0:
225,158,9753,1,0,0:0:0:0:
318,195,9945,5,8,0:0:0:0:
235,249,10137,1,0,0:0:0:0:
153,304,10330,1,0,0:0:0:0:
235,249,10522,1,0,0:0:0:0:
302,309,10714,2,0,P|344:328|381:365,1,95,8|0,0:0|0:0,0:0:0:0:
414,373,11003,1,0,0:0:0:0:
449,361,11099,2,0,P|457:320|435:266,1,95
421,215,11387,1,0,0:0:0:0:
421,215,11483,6,0,P|403:171|411:125,1,95,4|0,0:0|0:0,0:0:0:0:
337,28,11868,2,0,L|237:29,1,95
110,52,12253,1,0,0:0:0:0:
111,85,12349,1,0,0:0:0:0:
122,116,12445,1,0,0:0:0:0:
146,138,12541,1,0,0:0:0:0:
178,147,12637,1,0,0:0:0:0:
293,155,12830,6,0,L|382:187,1,95,0|8,0:0|0:0,0:0:0:0:
382,188,13118,1,0,0:0:0:0:
382,188,13214,2,0,P|361:229|316:242,1,95,0|0,0:0|0:0,0:0:0:0:
217,339,13599,1,0,0:0:0:0:
309,321,13791,2,0,P|388:278|382:188,1,190,8|0,0:0|0:0,0:0:0:0:
263,207,14368,1,0,0:0:0:0:
217,339,14560,6,0,L|163:339,1,47.5,8|0,0:0|0:0,0:0:0:0:
155,293,14753,2,0,L|113:258,1,47.5,8|0,0:0|0:0,0:0:0:0:
135,218,14945,2,0,L|125:164,1,47.5,8|0,0:0|0:0,0:0:0:0:
60,79,15137,1,0,0:0:0:0:
188,113,15330,5,8,0:0:0:0:
196,145,15426,1,0,0:0:0:0:
207,176,15522,1,0,0:0:0:0:
231,198,15618,1,0,0:0:0:0:
263,207,15714,1,0,0:0:0:0:
263,207,16099,6,0,L|304:241,1,47.5,8|0,0:0|0:0,0:0:0:0:
339,210,16292,2,0,L|393:210,1,47.5,0|0,0:0|0:0,0:0:0:0:
403,166,16484,2,0,L|445:131,1,47.5,0|0,0:0|0:0,0:0:0:0:
425,90,16676,2,0,L|434:36,1,47.5,0|0,0:0|0:0,0:0:0:0:
433,43,17060,5,0,0:0:0:0:
323,110,17253,1,0,0:0:0:0:
403,166,17445,1,0,0:0:0:0:
323,110,17637,6,0,L|269:110,1,47.5,8|0,0:0|0:0,0:0:0:0:
261,156,17830,2,0,L|219:191,1,47.5,0|0,0:0|0:0,0:0:0:0:
241,231,18022,2,0,L|231:285,1,47.5,0|0,0:0|0:0,0:0:0:0:
310,336,18214,1,0,0:0:0:0:
145,293,18406,5,8,0:0:0:0:
144,260,18503,1,0,0:0:0:0:
133,229,18599,1,0,0:0:0:0:
109,207,18695,1,0,0:0:0:0:
77,198,18791,1,0,0:0:0:0:
77,198,19176,6,0,L|118:232,1,47.5,8|0,0:0|0:0,0:0:0:0:
153,201,19369,2,0,L|207:201,1,47.5,0|0,0:0|0:0,0:0:0:0:
217,157,19561,2,0,L|259:122,1,47.5,0|0,0:0|0:0,0:0:0:0:
290,21,19753,1,0,0:0:0:0:
326,173,19945,5,8,0:0:0:0:
333,205,20041,1,0,0:0:0:0:
355,229,20137,1,0,0:0:0:0:
386,239,20233,1,0,0:0:0:0:
418,233,20329,1,0,0:0:0:0:
418,233,20714,6,0,L|452:192,1,47.5,8|0,0:0|0:0,0:0:0:0:
421,157,20907,2,0,L|421:103,1,47.5,0|0,0:0|0:0,0:0:0:0:
377,93,21099,2,0,L|342:51,1,47.5,0|0,0:0|0:0,0:0:0:0:
326,173,21291,1,0,0:0:0:0:
231,65,21483,5,8,0:0:0:0:
203,47,21579,1,0,0:0:0:0:
170,45,21675,1,0,0:0:0:0:
141,60,21771,1,0,0:0:0:0:
123,87,21867,1,0,0:0:0:0:
123,87,22253,5,8,0:0:0:0:
248,192,22445,1,0,0:0:0:0:
137,319,22637,1,0,0:0:0:0:
141,205,22830,1,0,0:0:0:0:
321,268,23022,2,0,P|370:193|321:117,1,190,8|0,0:0|0:0,0:0:0:0:
321,117,23791,5,8,0:0:0:0:
141,205,23983,1,0,0:0:0:0:
246,345,24176,1,0,0:0:0:0:
248,192,24368,1,0,0:0:0:0:
92,345,24560,1,8,0:0:0:0:
141,205,24753,6,0,L|174:111,1,95,0|0,0:0|0:0,0:0:0:0:
323,115,25137,2,0,L|355:205,1,95,0|8,0:0|0:0,0:0:0:0:
359,319,25522,5,0,0:0:0:0:
246,345,25714,2,0,P|183:342|137:307,1,95,0|0,0:0|0:0,0:0:0:0:
118,287,26003,1,0,0:0:0:0:
118,287,26099,1,0,0:0:0:0:
43,163,26291,1,0,0:0:0:0:
43,163,26387,1,0,0:0:0:0:
43,163,26483,2,0,B|43:118|43:118|74:77,1,95
223,46,26868,6,0,P|267:62|302:93,1,95,8|0,0:0|0:0,0:0:0:0:
407,41,27253,1,0,0:0:0:0:
465,138,27445,1,0,0:0:0:0:
375,206,27637,2,0,P|349:247|340:295,1,95,8|0,0:0|0:0,0:0:0:0:
323,349,27926,2,0,P|277:339|224:350,1,95,0|0,0:0|0:0,0:0:0:0:
184,307,28214,2,0,B|139:290|90:294,1,95,0|8,0:0|0:0,0:0:0:0:
64,136,28599,5,0,0:0:0:0:
223,210,28791,1,0,0:0:0:0:
127,213,28983,1,0,0:0:0:0:
276,289,29176,2,0,P|323:279|363:255,1,95,8|0,0:0|0:0,0:0:0:0:
402,206,29464,2,0,P|409:159|403:112,1,95,0|0,0:0|0:0,0:0:0:0:
373,57,29753,1,0,0:0:0:0:
286,55,29945,5,8,0:0:0:0:
264,212,30137,1,0,0:0:0:0:
247,130,30330,1,0,0:0:0:0:
177,172,30522,2,0,P|161:219|177:262,1,95,0|8,0:0|0:0,0:0:0:0:
247,130,30906,2,0,P|163:94|93:158,1,190,0|0,0:0|0:0,0:0:0:0:
133,286,31483,5,8,0:0:0:0:
177,172,31676,1,0,0:0:0:0:
88,67,31868,1,0,0:0:0:0:
247,130,32060,1,0,0:0:0:0:
247,130,32156,2,0,P|294:131|337:112,1,95,0|0,0:0|0:0,0:0:0:0:
180,81,32541,1,0,0:0:0:0:
180,81,32637,2,0,P|165:125|176:171,1,95
133,286,33022,6,0,B|123:236|83:205,1,95,8|0,0:0|0:0,0:0:0:0:
64,153,33310,2,0,B|55:104|82:61,1,95,0|0,0:0|0:0,0:0:0:0:
136,30,33599,1,0,0:0:0:0:
276,90,33791,2,0,L|377:91,1,95,8|0,0:0|0:0,0:0:0:0:
416,90,34080,1,0,0:0:0:0:
416,90,34176,1,0,0:0:0:0:
478,211,34368,1,0,0:0:0:0:
392,316,34560,6,0,P|346:329|299:321,1,95,8|0,0:0|0:0,0:0:0:0:
342,259,34849,2,0,P|327:215|334:164,1,95,0|0,0:0|0:0,0:0:0:0:
376,124,35137,1,0,0:0:0:0:
342,259,35330,2,0,L|249:282,1,95,8|0,0:0|0:0,0:0:0:0:
250,338,35619,2,0,L|342:361,1,95,0|0,0:0|0:0,0:0:0:0:
392,316,35906,1,0,0:0:0:0:
451,227,36099,5,8,0:0:0:0:
343,136,36291,1,0,0:0:0:0:
242,229,36483,1,0,0:0:0:0:
343,136,36676,2,0,P|378:102|422:86,1,95,0|8,0:0|0:0,0:0:0:0:
316,267,37060,2,0,P|236:310|163:257,1,190
57,219,37637,5,8,0:0:0:0:
57,119,37830,1,0,0:0:0:0:
119,41,38022,1,0,0:0:0:0:
220,41,38214,1,0,0:0:0:0:
318,106,38406,2,0,B|367:131|423:124,1,106.875004076958,8|0,0:0|0:0,0:0:0:0:
451,149,38791,2,0,P|466:181|462:216,1,71.2500027179719
433,322,39176,6,0,L|350:322,1,71.2500027179719,8|0,0:0|0:0,0:0:0:0:
273,260,39560,2,0,L|190:260,1,71.2500027179719
126,328,39945,2,0,P|106:259|126:192,1,142.500005435944,8|0,0:0|0:0,0:0:0:0:
286,68,40522,1,0,0:0:0:0:
273,260,40714,5,8,0:0:0:0:
273,260,40810,1,0,0:0:0:0:
273,260,40906,1,0,0:0:0:0:
179,85,41099,1,0,0:0:0:0:
346,185,41291,1,0,0:0:0:0:
346,185,41387,1,0,0:0:0:0:
346,185,41483,2,0,L|452:193,1,95,8|0,0:0|0:0,0:0:0:0:
376,332,41868,1,0,0:0:0:0:
346,185,42060,1,0,0:0:0:0:
301,332,42253,6,0,B|249:334|249:334|218:320|218:320|159:324,1,142.5,8|0,0:0|0:0,0:0:0:0:
93,260,42637,2,0,P|85:213|93:158,1,95,0|0,0:0|0:0,0:0:0:0:
259,174,43022,2,0,P|224:205|178:208,1,95,8|0,0:0|0:0,0:0:0:0:
277,51,43406,5,0,0:0:0:0:
308,78,43503,1,0,0:0:0:0:
317,119,43599,1,0,0:0:0:0:
299,157,43695,1,0,0:0:0:0:
259,174,43791,6,0,P|214:174|165:137,1,95,8|0,0:0|0:0,0:0:0:0:
86,34,44176,1,0,0:0:0:0:
26,173,44368,1,0,0:0:0:0:
88,313,44560,1,8,0:0:0:0:
240,306,44753,1,0,0:0:0:0:
260,293,44849,1,0,0:0:0:0:
280,279,44945,1,0,0:0:0:0:
392,159,45137,1,0,0:0:0:0:
445,253,45330,6,0,P|432:298|394:328,1,95,8|0,0:0|0:0,0:0:0:0:
343,234,45714,2,0,P|356:189|394:159,1,95,0|0,0:0|0:0,0:0:0:0:
447,42,46099,1,8,0:0:0:0:
422,63,46195,1,0,0:0:0:0:
390,71,46291,1,0,0:0:0:0:
358,64,46387,1,0,0:0:0:0:
332,44,46483,1,0,0:0:0:0:
386,186,46676,1,0,0:0:0:0:
185,90,46868,6,0,P|138:76|84:85,1,95,8|0,0:0|0:0,0:0:0:0:
296,138,47253,1,0,0:0:0:0:
334,297,47445,1,0,0:0:0:0:
334,297,47541,1,0,0:0:0:0:
334,297,47637,2,0,P|381:311|435:302,1,95,8|0,0:0|0:0,0:0:0:0:
386,186,48022,1,0,0:0:0:0:
241,254,48214,1,0,0:0:0:0:
185,90,48406,6,0,P|123:60|61:90,1,142.5,8|0,0:0|0:0,0:0:0:0:
123,143,48791,2,0,P|102:184|114:228,1,95,0|0,0:0|0:0,0:0:0:0:
271,192,49176,2,0,L|171:192,1,95,8|0,0:0|0:0,0:0:0:0:
176,192,49464,1,0,0:0:0:0:
176,192,49560,1,0,0:0:0:0:
298,290,49753,1,0,0:0:0:0:
348,134,49945,5,8,0:0:0:0:
205,57,50137,2,0,P|134:47|78:69,1,95,0|0,0:0|0:0,0:0:0:0:
43,158,50522,1,0,0:0:0:0:
102,270,50714,2,0,L|127:327,1,47.5,8|0,0:0|0:0,0:0:0:0:
227,278,50906,2,0,L|170:253,1,47.5,0|0,0:0|0:0,0:0:0:0:
202,349,51099,2,0,L|305:348,1,95
399,224,51483,5,8,0:0:0:0:
395,350,51676,1,0,0:0:0:0:
348,134,51868,1,0,0:0:0:0:
181,190,52060,1,0,0:0:0:0:
181,190,52156,1,0,0:0:0:0:
181,190,52253,2,0,P|222:210|266:195,1,95,8|0,0:0|0:0,0:0:0:0:
74,133,52637,2,0,P|60:177|80:219,1,95
213,64,53022,5,8,0:0:0:0:
266,194,53214,1,0,0:0:0:0:
153,110,53406,1,0,0:0:0:0:
325,141,53599,1,0,0:0:0:0:
131,182,53791,2,0,L|131:239,1,47.5,8|0,0:0|0:0,0:0:0:0:
130,301,53983,1,0,0:0:0:0:
239,130,54176,1,0,0:0:0:0:
335,305,54368,1,0,0:0:0:0:
442,341,54753,5,0,0:0:0:0:
436,184,54945,2,0,L|463:80,1,95,0|0,0:0|0:0,0:0:0:0:
474,41,55233,1,0,0:0:0:0:
423,75,55330,2,0,P|362:100|294:73,1,142.500005435944,8|0,0:0|0:0,0:0:0:0:
156,52,55714,2,0,P|111:37|68:52,1,95
26,173,56099,5,4,0:0:0:0:
137,286,56291,1,0,0:0:0:0:
288,204,56483,2,0,P|243:189|200:204,1,95
334,296,56868,1,8,0:0:0:0:
361,147,57060,1,0,0:0:0:0:
245,287,57253,1,0,0:0:0:0:
429,303,57445,1,0,0:0:0:0:
288,204,57637,6,0,P|242:195|196:205,1,95,8|0,0:0|0:0,0:0:0:0:
47,288,58022,2,0,P|93:297|139:287,1,95,0|0,0:0|0:0,0:0:0:0:
125,143,58406,1,8,0:0:0:0:
211,356,58599,1,0,0:0:0:0:
211,356,58791,1,0,0:0:0:0:
288,204,58983,1,0,0:0:0:0:
314,187,59080,1,0,0:0:0:0:
337,171,59176,6,0,P|382:156|427:169,1,95,4|0,0:0|0:0,0:0:0:0:
476,81,59560,1,0,0:0:0:0:
458,261,59753,1,0,0:0:0:0:
219,256,59945,2,0,L|116:254,1,95,8|0,0:0|0:0,0:0:0:0:
83,74,60330,2,0,L|166:120,1,95
232,168,60714,5,8,0:0:0:0:
219,256,60906,1,0,0:0:0:0:
246,76,61099,2,0,P|291:66|340:76,1,95,0|0,0:0|0:0,0:0:0:0:
165,35,61483,1,8,0:0:0:0:
87,245,61676,1,0,0:0:0:0:
87,245,61868,1,0,0:0:0:0:
209,311,62060,1,0,0:0:0:0:
209,311,62156,1,0,0:0:0:0:
209,311,62253,6,0,P|257:320|302:311,1,95,8|0,0:0|0:0,0:0:0:0:
362,174,62541,2,0,P|292:188|257:247,1,142.5,0|0,0:0|0:0,0:0:0:0:
384,307,63022,1,8,0:0:0:0:
446,107,63214,1,0,0:0:0:0:
446,107,63406,1,0,0:0:0:0:
279,101,63599,6,0,B|199:72|173:167|92:134,1,190,0|0,0:0|0:0,0:0:0:0:
122,41,64176,1,0,0:0:0:0:
250,186,64368,1,0,0:0:0:0:
250,186,64464,1,0,0:0:0:0:
250,186,64560,1,8,0:0:0:0:
123,333,64753,1,0,0:0:0:0:
123,333,64946,1,0,0:0:0:0:
256,312,65137,1,0,0:0:0:0:
256,312,65233,1,0,0:0:0:0:
256,312,65330,6,0,L|354:313,1,95,8|0,0:0|0:0,0:0:0:0:
415,255,65714,2,0,B|386:229|386:229|319:229,1,95,0|0,0:0|0:0,0:0:0:0:
460,334,66099,2,0,L|461:134,1,190,8|0,0:0|0:0,0:0:0:0:
314,45,66676,1,0,0:0:0:0:
138,80,66868,6,0,B|169:109|169:109|268:109,1,142.5,8|0,0:0|0:0,0:0:0:0:
314,45,67253,2,0,L|409:45,1,95,0|0,0:0|0:0,0:0:0:0:
460,201,67637,1,8,0:0:0:0:
460,234,67733,1,0,0:0:0:0:
460,267,67829,1,0,0:0:0:0:
460,300,67925,1,0,0:0:0:0:
460,334,68022,2,0,L|362:334,1,95
226,223,68406,5,4,0:0:0:0:
361,105,68599,1,0,0:0:0:0:
297,288,68791,1,0,0:0:0:0:
251,103,68983,1,0,0:0:0:0:
95,225,69176,1,8,0:0:0:0:
297,288,69368,1,0,0:0:0:0:
113,96,69560,1,0,0:0:0:0:
187,299,69753,1,0,0:0:0:0:
360,173,69945,6,0,L|458:175,1,95,8|0,0:0|0:0,0:0:0:0:
472,339,70330,2,0,L|401:255,1,95,0|0,0:0|0:0,0:0:0:0:
372,364,70714,1,8,0:0:0:0:
454,174,70906,1,0,0:0:0:0:
454,174,71099,1,0,0:0:0:0:
357,40,71291,1,0,0:0:0:0:
333,40,71387,1,0,0:0:0:0:
310,40,71483,6,0,L|199:40,1,95,4|0,0:0|0:0,0:0:0:0:
61,141,71868,2,0,L|172:141,1,95,0|0,0:0|0:0,0:0:0:0:
301,172,72253,1,8,0:0:0:0:
214,313,72445,1,0,0:0:0:0:
271,160,72637,1,0,0:0:0:0:
101,264,72830,1,0,0:0:0:0:
241,147,73022,6,0,P|261:101|288:64,1,95,8|0,0:0|0:0,0:0:0:0:
431,219,73406,2,0,P|414:150|428:77,1,142.500005435944,0|0,0:0|0:0,0:0:0:0:
487,147,73791,1,8,0:0:0:0:
381,284,73983,1,0,0:0:0:0:
266,143,74176,2,0,P|220:129|177:143,1,95
153,274,74560,6,0,P|197:259|223:220,1,95,8|0,0:0|0:0,0:0:0:0:
266,143,74849,2,0,P|291:103|335:88,1,95,0|0,0:0|0:0,0:0:0:0:
421,85,75137,1,0,0:0:0:0:
354,234,75330,2,0,P|309:246|264:233,1,95,8|0,0:0|0:0,0:0:0:0:
205,185,75618,2,0,P|159:171|114:183,1,95,0|0,0:0|0:0,0:0:0:0:
69,244,75906,1,0,0:0:0:0:
166,353,76099,5,8,0:0:0:0:
288,268,76291,1,0,0:0:0:0:
299,246,76387,1,0,0:0:0:0:
297,221,76483,1,0,0:0:0:0:
260,96,76676,1,0,0:0:0:0:
399,244,76868,2,0,B|399:311|399:311|358:348|358:348|291:348,1,190,8|0,0:0|0:0,0:0:0:0:
152,268,77445,1,0,0:0:0:0:
266,143,77637,5,8,0:0:0:0:
260,96,77733,1,8,0:0:0:0:
235,56,77829,1,8,0:0:0:0:
196,29,77925,1,8,0:0:0:0:
150,19,78021,1,8,0:0:0:0:
104,28,78117,1,8,0:0:0:0:
65,54,78213,1,8,0:0:0:0:
40,94,78310,1,8,0:0:0:0:
32,141,78406,1,8,0:0:0:0:
152,268,78599,1,0,0:0:0:0:
266,143,78791,2,0,P|219:134|173:144,1,95,0|0,0:0|0:0,0:0:0:0:
331,275,79176,5,8,0:0:0:0:
377,268,79272,1,8,0:0:0:0:
417,243,79368,1,8,0:0:0:0:
445,205,79464,1,8,0:0:0:0:
454,158,79560,1,8,0:0:0:0:
445,112,79656,1,8,0:0:0:0:
419,73,79752,1,8,0:0:0:0:
379,48,79849,1,8,0:0:0:0:
332,40,79945,1,8,0:0:0:0:
111,43,80137,1,0,0:0:0:0:
266,143,80330,2,0,P|219:134|173:144,1,95,0|0,0:0|0:0,0:0:0:0:
80,277,80714,6,0,P|169:292|219:217,1,190,8|0,0:0|0:0,0:0:0:0:
136,215,81291,1,0,0:0:0:0:
266,143,81483,2,0,P|274:236|345:294,1,190,8|0,0:0|0:0,0:0:0:0:
383,176,82060,1,0,0:0:0:0:
275,242,82253,6,0,B|257:289|270:340|270:340|222:336,1,142.5,8|0,0:0|0:0,0:0:0:0:
190,294,82637,2,0,P|142:286|98:298,1,95,0|0,0:0|0:0,0:0:0:0:
28,143,83022,1,8,0:0:0:0:
110,203,83214,2,0,P|156:211|202:198,1,95,0|0,0:0|0:0,0:0:0:0:
314,129,83599,2,0,P|283:92|240:72,1,95,0|8,0:0|0:0,0:0:0:0:
105,32,83983,5,0,0:0:0:0:
153,123,84176,1,0,0:0:0:0:
240,72,84368,2,0,P|322:34|395:88,1,190,0|0,0:0|0:0,0:0:0:0:
309,212,84945,1,0,0:0:0:0:
390,171,85137,6,0,L|491:171,1,95,0|8,0:0|0:0,0:0:0:0:
388,263,85522,1,0,0:0:0:0:
309,212,85714,1,0,0:0:0:0:
302,305,85906,1,0,0:0:0:0:
221,168,86099,2,0,P|187:136|142:122,1,95,8|0,0:0|0:0,0:0:0:0:
72,245,86483,6,0,B|152:265|176:343|176:343|234:318|255:239|255:239|280:318|337:343|337:343|363:264|439:245,1,570,0|0,0:0|0:0,0:0:0:0:
448,95,88983,5,0,0:0:0:0:
