osu file format v12

[General]
AudioFilename: S!ck.mp3
AudioLeadIn: 1500
PreviewTime: 54163
Countdown: 0
SampleSet: Soft
StackLeniency: 0.7
Mode: 0
LetterboxInBreaks: 1
WidescreenStoryboard: 0

[Editor]
Bookmarks: 8120,12527,23374,34222,45069,55917,72188,81451,88459,99307,108570,112977
DistanceSpacing: 1
BeatDivisor: 4
GridSize: 4

[Metadata]
Title:S!ck
TitleUnicode:S!ck
Artist:Eagle
ArtistUnicode:Eagle
Creator:tsuka
Version:Standard
Source:beatmania IIDX 20 tricoro
Tags:kors k Skystar Natteke Deye Dr_dy Amamiya Yuko
BeatmapID:316317
BeatmapSetID:84014

[Difficulty]
HPDrainRate:2
CircleSize:4
OverallDifficulty:4
ApproachRate:5
SliderMultiplier:0.8
SliderTickRate:1

[Events]
//Background and Video events
0,0,"bg.png",0,0
//Break Periods
//Storyboard Layer 0 (Background)
//Storyboard Layer 1 (Fail)
//Storyboard Layer 2 (Pass)
//Storyboard Layer 3 (Foreground)
//Storyboard Sound Samples
//Background Colour Transformations
3,100,163,162,255

[TimingPoints]
83,338.983050847458,4,2,0,40,1,0
1354,-100,4,1,0,40,0,0
1523,-100,4,2,0,40,0,0
2710,-100,4,1,0,40,0,0
2879,-100,4,2,0,40,0,0
4066,-100,4,1,0,40,0,0
4235,-100,4,2,0,40,0,0
5083,-100,4,1,0,40,0,0
5591,-100,4,2,0,40,0,0
6777,-100,4,1,0,40,0,0
6947,-100,4,2,0,40,0,0
8133,-100,4,1,0,40,0,0
8303,-100,4,2,0,40,0,0
8811,-100,4,1,0,60,0,0
10845,-100,4,2,0,60,0,0
21608,-100,4,2,0,30,0,0
26693,-100,4,1,0,60,0,0
28388,-100,4,1,0,70,0,0
29744,-100,4,1,0,80,0,0
32455,-100,4,2,0,80,0,0
33388,-100,4,1,0,80,0,0
33896,-100,4,2,0,80,0,0
34574,-100,4,1,0,80,0,0
35167,-100,4,2,0,80,0,0
35930,-100,4,1,0,80,0,0
36523,-100,4,2,0,80,0,0
38303,-100,4,1,0,80,0,0
38472,-100,4,2,0,80,0,0
38981,-100,4,1,0,80,0,0
40167,-100,4,2,0,80,0,0
40337,-100,4,1,0,80,0,0
40591,-100,4,2,0,80,0,0
42371,-100,4,1,0,80,0,0
42540,-100,4,2,0,80,0,0
42964,-100,4,1,0,80,0,0
43133,-100,4,2,0,80,0,0
43388,-100,4,2,0,80,0,0
44744,-100,4,1,0,80,0,0
44913,-100,4,2,0,80,0,0
45421,-100,4,1,0,80,0,0
45591,-100,4,2,0,80,0,0
50083,-100,4,1,0,80,0,0
51015,-100,4,2,0,80,0,0
51184,-100,4,1,0,80,0,0
55506,-100,4,1,0,60,0,0
56354,-100,4,2,0,60,0,0
56693,-100,4,1,0,60,0,0
59574,-100,4,2,0,60,0,0
59913,-100,4,1,0,60,0,0
64998,-100,4,2,0,60,0,0
70421,-100,4,1,0,60,0,0
77032,-100,4,2,0,60,0,0
86693,-100,4,1,0,50,0,0
87879,-100,4,1,0,40,0,0
90591,-100,4,1,0,50,0,0
91947,-100,4,1,0,60,0,0
94828,-100,4,1,0,70,0,0
96184,-100,4,1,0,80,0,0
97540,-100,4,2,0,80,0,0
98218,-100,4,1,0,80,0,0
98896,-100,4,2,0,80,0,0
99574,-100,4,1,0,80,0,0
100252,-100,4,2,0,80,0,0
100930,-100,4,1,0,80,0,0
102964,-100,4,2,0,80,0,0
103642,-100,4,1,0,80,0,0
104320,-100,4,2,0,80,0,0
106354,-100,4,1,0,80,0,0
107032,-100,4,2,0,80,0,0
107371,-100,4,1,0,80,0,0
107794,-100,4,2,0,80,0,0
119235,-100,4,1,0,80,0,0

[Colours]
Combo1 : 141,254,218
Combo2 : 255,172,89
Combo3 : 255,128,255
Combo4 : 148,148,203

[HitObjects]
328,224,83,5,4,0:0:0:0:
176,168,760,2,0,P|144:232|200:304,1,160,0|0,0:0|0:0,0:0:0:0:
336,216,2116,2,0,P|368:152|312:80,1,160,0|0,0:0|0:0,0:0:0:0:
176,168,3472,2,0,P|144:232|200:304,1,160,0|0,0:0|0:0,0:0:0:0:
336,216,4828,1,0,0:0:0:0:
368,144,5167,2,0,P|400:168|416:208,1,80,0|0,0:0|0:0,0:0:0:0:
256,168,6184,6,0,P|184:108|184:40,1,160
320,128,7540,2,0,P|392:188|392:256,1,160
232,264,8896,1,0,0:0:0:0:
96,184,9574,1,4,0:0:0:0:
72,264,9913,1,0,0:0:0:0:
136,312,10252,1,0,0:0:0:0:
160,240,10591,1,0,0:0:0:0:
232,272,10930,6,0,L|368:288,2,120,2|0|8,0:0|0:0|0:0,0:0:0:0:
288,208,12286,2,0,L|424:224,2,120,2|0|8,0:0|0:0|0:0,0:0:0:0:
224,168,13642,6,0,L|104:153,2,120,2|0|8,0:0|0:0|0:0,0:0:0:0:
280,104,14998,2,0,L|160:89,2,120,2|0|8,0:0|0:0|0:0,0:0:0:0:
360,136,16354,6,0,P|344:200|344:264,1,120,2|0,0:0|0:0,0:0:0:0:
232,288,17371,1,2,0:0:0:0:
152,272,17710,6,0,P|168:208|168:144,1,120,2|0,0:0|0:0,0:0:0:0:
280,120,18727,1,2,0:0:0:0:
280,120,19066,6,0,P|344:88|336:160,1,160,2|0,0:0|0:0,0:0:0:0:
160,232,20421,2,0,P|174:303|238:263,1,160,2|0,0:0|0:0,0:0:0:0:
176,128,21777,5,4,0:0:0:0:
176,128,22116,1,8,0:0:0:0:
328,80,22794,1,8,0:0:0:0:
360,152,23133,1,0,0:0:0:0:
360,152,23472,1,8,0:0:0:0:
208,200,24150,1,8,0:0:0:0:
152,256,24489,5,0,0:0:0:0:
152,256,24828,2,0,P|200:288|280:232,1,160,8|8,0:0|0:0,0:0:0:0:
336,184,25845,1,0,0:0:0:0:
336,184,26184,2,0,P|288:152|208:200,1,160,8|0,0:0|0:0,0:0:0:0:
280,240,27201,5,0,0:0:0:0:
352,280,27540,2,0,P|320:312|272:320,1,80
280,240,28218,1,0,0:0:0:0:
216,280,28557,5,0,0:0:0:0:
144,248,28896,2,0,P|184:208|224:200,1,80
216,280,29574,1,0,0:0:0:0:
280,240,29913,6,0,L|320:248,8,40
264,56,32625,6,0,P|272:120|224:200,1,160
224,199,33472,1,0,0:0:0:0:
168,144,33811,1,0,0:0:0:0:
168,144,33981,2,0,P|120:223|128:287,1,160,2|0,0:0|0:0,0:0:0:0:
208,280,34998,1,0,0:0:0:0:
280,304,35337,2,0,P|304:264|344:248,1,80,0|0,0:0|0:0,0:0:0:0:
352,168,36015,5,0,0:0:0:0:
320,96,36354,1,0,0:0:0:0:
264,40,36693,2,0,P|184:64|120:128,1,160,2|0,0:0|0:0,0:0:0:0:
184,264,38049,2,0,P|192:224|224:192,1,80
280,152,38727,2,0,P|320:136|368:144,1,80
336,216,39405,5,0,0:0:0:0:
272,264,39744,1,0,0:0:0:0:
192,280,40083,2,0,L|144:312,2,40
120,240,40760,2,0,P|72:232|24:232,2,80,0|2|0,0:0|0:0|0:0,0:0:0:0:
208,112,42116,6,0,P|256:128|296:128,1,80
328,64,42794,2,0,L|392:72,2,60,8|0|8,0:0|0:0|0:0,0:0:0:0:
328,64,43472,2,0,P|288:144|288:216,1,160
304,296,44489,1,0,0:0:0:0:
376,334,44828,6,0,P|383:294|376:256,1,80
304,296,45506,1,0,0:0:0:0:
152,344,46184,2,0,L|168:264,1,80,2|0,0:0|0:0,0:0:0:0:
96,224,46862,2,0,L|112:136,1,80,2|0,0:0|0:0,0:0:0:0:
40,104,47540,2,0,P|112:96|208:104,1,160,2|0,0:0|0:0,0:0:0:0:
232,256,48896,6,0,L|208:320,2,60
232,256,49574,2,0,P|288:240|328:240,1,80,2|0,0:0|0:0,0:0:0:0:
352,176,50252,1,0,0:0:0:0:
280,144,50591,1,0,0:0:0:0:
328,80,50930,2,0,L|384:72,2,40
256,192,51947,12,0,54320,0:0:0:0:
256,96,55676,5,0,0:0:0:0:
192,288,56523,2,0,L|312:296,1,120
352,88,59744,6,0,P|368:160|352:248,1,160,2|0,0:0|0:0,0:0:0:0:
160,296,61269,2,0,P|144:224|152:160,1,120
168,104,62116,1,0,0:0:0:0:
168,104,62455,5,0,0:0:0:0:
312,40,63133,1,0,0:0:0:0:
296,200,63811,1,0,0:0:0:0:
288,280,64150,1,0,0:0:0:0:
360,248,64489,1,0,0:0:0:0:
360,248,64659,1,0,0:0:0:0:
360,248,64828,1,0,0:0:0:0:
352,328,65167,5,2,0:0:0:0:
192,304,65845,2,0,L|112:320,1,80
136,240,66523,2,0,L|216:224,1,80,2|0,0:0|0:0,0:0:0:0:
160,160,67201,2,0,L|240:144,1,80,2|0,0:0|0:0,0:0:0:0:
320,128,67879,6,0,L|344:208,1,80,2|0,0:0|0:0,0:0:0:0:
408,160,68557,2,0,L|432:240,1,80,2|0,0:0|0:0,0:0:0:0:
368,280,69235,2,0,L|384:328,2,40
288,288,69913,1,8,0:0:0:0:
208,296,70252,1,8,0:0:0:0:
240,224,70591,5,0,0:0:0:0:
240,216,70930,1,0,0:0:0:0:
236,221,71269,1,0,0:0:0:0:
234,220,71608,1,0,0:0:0:0:
237,216,71947,5,0,0:0:0:0:
245,218,72286,1,0,0:0:0:0:
234,221,72625,1,0,0:0:0:0:
236,222,72964,1,0,0:0:0:0:
240,218,73303,5,0,0:0:0:0:
234,217,73642,1,0,0:0:0:0:
237,216,73981,1,0,0:0:0:0:
238,223,74320,1,0,0:0:0:0:
256,192,74659,12,0,76015,0:0:0:0:
256,192,77371,5,0,0:0:0:0:
256,192,78727,5,0,0:0:0:0:
280,256,81438,6,0,P|216:288|128:256,1,160
232,128,82794,2,0,P|296:96|384:128,1,160
280,248,84150,6,0,L|408:240,2,120,2|0|0,0:0|0:0|0:0,0:0:0:0:
208,288,85506,2,0,L|72:296,2,120,2|0|0,0:0|0:0|0:0,0:0:0:0:
280,328,86862,5,0,0:0:0:0:
280,328,87201,1,0,0:0:0:0:
120,216,88218,5,0,0:0:0:0:
120,216,88557,1,0,0:0:0:0:
232,56,89574,5,0,0:0:0:0:
232,56,89913,1,0,0:0:0:0:
392,168,90930,5,0,0:0:0:0:
392,168,91269,1,0,0:0:0:0:
280,328,92286,6,0,L|360:320,2,80
208,288,93303,1,0,0:0:0:0:
224,208,93642,2,0,L|144:216,2,80
248,128,94659,1,0,0:0:0:0:
328,120,94998,5,0,0:0:0:0:
248,128,95337,1,0,0:0:0:0:
168,136,95676,1,0,0:0:0:0:
88,144,96015,1,0,0:0:0:0:
112,64,96354,2,0,L|160:56,6,40
88,144,97710,6,0,L|96:240,1,80,2|0,0:0|0:0,0:0:0:0:
104,304,98388,2,0,L|48:320,2,40
168,256,99066,6,0,L|176:168,1,80,2|0,0:0|0:0,0:0:0:0:
184,96,99744,2,0,L|240:80,2,40
248,152,100421,6,0,L|256:248,1,80,2|0,0:0|0:0,0:0:0:0:
264,312,101099,2,0,L|216:336,2,40
336,280,101777,5,0,0:0:0:0:
392,224,102116,1,0,0:0:0:0:
376,144,102455,1,0,0:0:0:0:
304,104,102794,1,0,0:0:0:0:
224,104,103133,6,0,L|128:120,1,80,2|0,0:0|0:0,0:0:0:0:
64,136,103811,2,0,L|40:184,2,40
120,208,104489,2,0,L|176:200,1,40
240,208,104998,2,0,L|296:200,1,40
360,208,105506,1,2,0:0:0:0:
392,280,105845,6,0,L|296:288,1,80,2|0,0:0|0:0,0:0:0:0:
232,296,106523,2,0,L|240:352,2,40
152,304,107201,5,0,0:0:0:0:
80,264,107540,1,0,0:0:0:0:
80,264,107710,1,0,0:0:0:0:
80,264,107879,2,0,L|88:184,1,80,2|0,0:0|0:0,0:0:0:0:
96,104,108557,5,2,0:0:0:0:
96,104,108896,1,2,0:0:0:0:
192,80,109235,2,0,L|200:24,2,40,2|8|0,0:0|0:0|0:0,0:0:0:0:
280,112,109913,2,0,L|320:80,2,40,2|0|8,0:0|0:0|0:0,0:0:0:0:
320,200,110591,2,0,L|368:192,2,40,2|8|0,0:0|0:0|0:0,0:0:0:0:
312,296,111269,6,0,L|368:304,4,40,2|0|0|8|2,0:0|0:0|0:0|0:0|0:0,0:0:0:0:
216,280,112286,1,0,0:0:0:0:
144,344,112625,2,0,P|88:312|96:216,1,160,2|0,0:0|0:0,0:0:0:0:
184,208,113642,1,0,0:0:0:0:
280,184,113981,2,0,P|280:96|224:64,1,160,2|0,0:0|0:0,0:0:0:0:
152,120,114998,1,0,0:0:0:0:
56,144,115337,2,0,L|40:192,2,40,8|0|8,0:0|0:0|0:0,0:0:0:0:
128,208,116015,2,0,L|112:264,2,40,0|8|8,0:0|0:0|0:0,0:0:0:0:
200,272,116693,6,0,L|368:248,1,160
336,328,117710,1,2,0:0:0:0:
256,192,117879,12,0,119405,0:0:0:0:
