osu file format v12

[General]
AudioFilename: S!ck.mp3
AudioLeadIn: 1500
PreviewTime: 54163
Countdown: 0
SampleSet: Normal
StackLeniency: 0.3
Mode: 0
LetterboxInBreaks: 1
WidescreenStoryboard: 1

[Editor]
Bookmarks: 8120,12527,23374,34222,45069,55917,72188,81451,88459,99307,108570,112977
DistanceSpacing: 1.4
BeatDivisor: 4
GridSize: 4

[Metadata]
Title:S!ck
TitleUnicode:S!ck
Artist:Eagle
ArtistUnicode:Eagle
Creator:tsuka
Version:Extra
Source:beatmania IIDX 20 tricoro
Tags:kors k Skystar Natteke Deye Dr_dy Amamiya Yuko
BeatmapID:341285
BeatmapSetID:84014

[Difficulty]
HPDrainRate:5
CircleSize:4
OverallDifficulty:7
ApproachRate:9
SliderMultiplier:1.7
SliderTickRate:1

[Events]
//Background and Video events
0,0,"bg.png",0,0
//Break Periods
2,76215,80838
//Storyboard Layer 0 (Background)
//Storyboard Layer 1 (Fail)
//Storyboard Layer 2 (Pass)
//Storyboard Layer 3 (Foreground)
//Storyboard Sound Samples
//Background Colour Transformations
3,100,163,162,255

[TimingPoints]
83,338.983050847458,4,1,0,40,1,0
83,-200,4,1,0,40,0,0
5506,-133.333333333333,4,1,0,50,0,0
8133,-100,4,1,0,60,0,0
8896,-100,4,1,0,80,0,0
9489,-80,4,1,0,80,0,0
9871,-80,4,1,0,50,0,0
10125,-80,4,1,0,80,0,0
10930,-133.333333333333,4,2,0,40,0,0
11947,-80,4,2,0,40,0,0
12201,-133.333333333333,4,2,0,40,0,0
13303,-80,4,2,0,40,0,0
13642,-133.333333333333,4,2,0,40,0,0
14913,-100,4,2,0,40,0,0
16184,-100,4,1,0,40,0,0
21693,-100,4,1,1,60,0,0
27116,-100,4,1,1,50,0,0
27794,-100,4,1,1,60,0,0
28472,-100,4,1,1,70,0,0
29150,-100,4,1,1,80,0,0
31269,-100,4,1,0,40,0,0
32286,-100,4,1,0,60,0,0
32625,-200,4,1,0,60,0,0
33303,-100,4,1,0,60,0,0
33981,-200,4,1,0,60,0,0
34489,-100,4,1,0,60,0,0
35337,-200,4,1,0,60,0,0
36015,-100,4,1,0,60,0,0
36693,-200,4,1,0,60,0,0
37286,-80,4,1,0,60,0,0
38049,-200,4,1,0,60,0,0
38727,-100,4,1,0,60,0,0
40760,-200,4,1,0,60,0,0
41523,-100,4,1,0,60,0,0
43472,-200,4,1,0,60,0,0
44320,-100,4,1,0,60,0,0
44828,-200,4,1,0,60,0,0
45506,-100,4,1,0,60,0,0
46184,-200,4,1,0,60,0,0
46862,-100,4,1,0,60,0,0
47540,-200,4,1,0,60,0,0
48133,-100,4,1,0,60,0,0
48896,-133.333333333333,4,1,0,60,0,0
49489,-100,4,1,0,60,0,0
51777,-83.3333333333333,4,1,0,60,0,0
54320,-71.4285714285714,4,1,0,40,0,0
54998,-71.4285714285714,4,1,1,60,0,0
55167,-71.4285714285714,4,1,0,40,0,0
56354,-100,4,1,1,60,0,0
65167,-100,4,1,0,40,0,0
65845,-100,4,1,1,60,0,0
69828,-80,4,1,1,60,0,0
70591,-200,4,1,0,60,0,0
70930,-133.333333333333,4,1,0,60,0,0
71269,-100,4,1,0,60,0,0
71608,-80,4,1,0,60,0,0
72286,-100,4,1,0,60,0,0
72625,-133.333333333333,4,1,0,60,0,0
72964,-200,4,1,0,60,0,0
73642,-133.333333333333,4,1,1,60,0,0
73981,-100,4,1,1,60,0,0
74320,-80,4,1,1,60,0,0
74659,-100,4,1,0,60,0,0
81438,-133.333333333333,4,2,0,40,0,0
81947,-200,4,2,0,40,0,0
82455,-100,4,2,0,40,0,0
82794,-133.333333333333,4,2,0,60,0,0
83303,-200,4,2,0,60,0,0
83811,-100,4,2,0,60,0,0
84150,-100,4,2,0,80,0,0
86862,-100,4,1,0,60,0,0
92286,-100,4,1,1,60,0,0
96354,-100,4,1,0,40,0,0
97032,-100,4,1,0,60,0,0
97710,-90.9090909090909,4,1,0,70,0,1
107794,-66.6666666666667,4,1,0,70,0,1
108557,-83.3333333333333,4,1,0,70,0,1
113133,-80,4,1,0,70,0,1
117032,-80,4,1,0,45,0,1
117201,-80,4,1,0,50,0,1
117371,-80,4,1,0,55,0,1
117540,-80,4,1,0,60,0,1
117710,-80,4,1,0,65,0,1
117879,-80,4,1,0,70,0,1
119405,-80,4,1,0,70,0,0
120760,-66.6666666666667,4,2,0,5,0,0

[Colours]
Combo1 : 141,254,218
Combo2 : 255,172,89
Combo3 : 255,128,255
Combo4 : 148,148,203

[HitObjects]
136,64,83,2,0,L|152:240,1,170,4|2,0:0|0:2,0:0:0:0:
156,260,1099,1,2,0:2:0:0:
224,156,1269,1,0,0:0:0:0:
224,156,1438,6,0,P|304:120|376:176,1,170,0|2,0:0|0:2,0:0:0:0:
428,248,2455,1,2,0:2:0:0:
416,88,2625,1,0,0:0:0:0:
360,176,2794,6,0,L|176:172,1,170,0|2,0:0|0:2,0:0:0:0:
76,212,3811,1,2,0:2:0:0:
76,212,3981,1,0,0:0:0:0:
76,212,4150,6,0,P|156:204|224:276,1,170,0|2,0:0|0:2,0:0:0:0:
248,356,5167,1,2,0:2:0:0:
218,260,5337,1,0,0:0:0:0:
264,172,5506,6,0,P|288:104|248:40,1,127.500004863739
116,232,6184,2,0,L|108:316,1,63.7500024318696
208,236,6523,2,0,L|223:297,1,63.7500024318696
328,312,6862,6,0,P|392:288|472:316,1,127.500004863739
488,196,7371,1,0,0:0:0:0:
488,196,7455,1,0,0:0:0:0:
488,196,7540,2,0,L|500:108,1,63.7500024318696
380,132,7879,1,0,0:0:0:0:
376,112,7964,1,0,0:0:0:0:
372,92,8049,1,0,0:0:0:0:
292,192,8218,6,0,L|260:188,15,21.25,4|0|0|0|0|0|0|0|0|0|0|0|0|0|0|0,0:0|0:0|0:0|0:0|0:0|0:0|0:0|0:0|0:0|0:0|0:0|0:0|0:0|0:0|0:0|0:0,0:0:0:0:
292,192,8896,1,0,0:0:0:0:
192,112,9066,2,0,L|200:16,2,85
192,112,9574,5,0,0:0:0:0:
208,328,9744,1,0,0:0:0:0:
116,208,9913,2,0,L|224:212,1,106.25,0|0,0:0|2:0,0:0:0:0:
300,228,10167,2,0,L|224:236,1,53.125
376,88,10421,2,0,L|300:96,1,53.125
448,136,10591,1,0,0:0:0:0:
160,24,10930,5,6,0:1:0:0:
176,100,11184,1,0,0:0:0:0:
148,172,11438,1,2,0:1:0:0:
192,236,11693,1,0,0:0:0:0:
164,312,11947,2,0,B|128:332|128:332|56:316,1,106.25,2|0,0:1|0:0,0:0:0:0:
40,332,12286,6,0,L|160:359,1,95.6250036478044,2|0,0:1|0:0,0:0:0:0:
224,360,12794,2,0,L|335:353,1,95.6250036478044,2|0,0:1|0:0,0:0:0:0:
408,348,13303,2,0,B|448:340|448:340|472:252,1,106.25,2|0,0:1|0:0,0:0:0:0:
432,200,13642,5,2,0:1:0:0:
356,216,13896,1,0,0:0:0:0:
284,184,14150,1,2,0:1:0:0:
212,212,14405,1,0,0:0:0:0:
144,180,14659,1,2,0:1:0:0:
68,192,14828,1,0,0:0:0:0:
48,56,14998,6,0,B|160:52|160:52|196:80,3,127.5,2|0|2|2,0:1|0:0|0:1|0:0,0:0:0:0:
236,116,15845,1,0,0:0:0:0:
248,112,15930,1,2,0:0:0:0:
260,108,16015,1,2,0:1:0:0:
372,40,16184,1,0,1:0:0:0:
384,44,16269,1,0,1:0:0:0:
396,48,16354,5,2,0:0:0:0:
440,140,16523,1,0,0:0:0:0:
412,236,16693,1,8,1:0:0:0:
448,332,16862,2,2,B|408:316|408:316|328:348|328:348|276:332,1,170,2|0,0:0|0:0,0:0:0:0:
196,288,17371,2,0,L|199:203,1,85,10|0,0:0|0:0,0:0:0:0:
20,332,17710,5,2,0:0:0:0:
120,356,17879,1,0,0:0:0:0:
120,356,17964,1,0,0:0:0:0:
120,356,18049,1,8,0:0:0:0:
196,288,18218,2,2,B|280:268|280:268|380:312,1,170,2|0,0:0|0:0,0:0:0:0:
444,356,18727,1,10,0:0:0:0:
396,128,18896,5,0,0:0:0:0:
392,116,18981,1,0,0:0:0:0:
388,104,19066,2,2,L|360:-12,1,85,2|0,0:0|0:0,0:0:0:0:
320,156,19405,1,8,0:0:0:0:
192,300,19574,6,2,L|172:382,1,85,2|0,0:0|0:0,0:0:0:0:
272,276,19913,1,0,0:0:0:0:
160,116,20083,6,2,L|56:104,1,85,10|0,0:0|0:0,0:0:0:0:
28,176,20421,6,2,B|16:256|16:256|52:296,1,127.5,2|0,0:0|0:0,0:0:0:0:
96,232,20760,1,8,0:0:0:0:
236,156,20930,1,2,0:0:0:0:
248,180,21015,1,0,0:0:0:0:
404,176,21184,2,0,L|392:280,1,85,2|0,0:0|0:0,0:0:0:0:
456,320,21438,1,8,0:0:0:0:
456,320,21608,1,8,0:0:0:0:
304,368,21777,6,0,L|152:360,1,127.5,4|0,0:0|0:0,0:0:0:0:
136,360,22116,1,8,0:0:0:0:
52,372,22286,1,0,0:0:0:0:
24,72,22625,1,0,0:0:0:0:
124,88,22794,1,8,0:0:0:0:
220,60,22964,1,0,0:0:0:0:
308,160,23133,6,0,P|344:220|296:280,1,127.5
288,292,23472,1,8,0:0:0:0:
368,320,23642,1,0,0:0:0:0:
136,360,23981,1,0,0:0:0:0:
36,368,24151,1,8,0:0:0:0:
136,360,24320,1,0,0:0:0:0:
196,256,24489,6,0,L|204:116,1,127.5
208,88,24828,1,8,0:0:0:0:
284,124,24998,1,0,0:0:0:0:
388,323,25337,1,0,0:0:0:0:
292,289,25506,1,8,0:0:0:0:
196,256,25676,1,0,0:0:0:0:
316,208,25845,6,0,L|452:204,1,127.5
488,204,26184,1,8,0:0:0:0:
440,132,26354,1,0,0:0:0:0:
404,208,26523,2,0,L|400:292,1,85,0|0,0:0|2:0,0:0:0:0:
292,384,26862,2,0,L|288:300,1,85,8|0,0:0|2:0,0:0:0:0:
188,224,27201,5,4,0:0:0:0:
88,292,27371,1,0,0:0:0:0:
104,208,27540,1,8,0:0:0:0:
172,308,27710,1,0,0:0:0:0:
280,160,27879,5,0,0:0:0:0:
390,234,28049,1,0,0:0:0:0:
372,142,28218,1,8,0:0:0:0:
297,252,28388,1,0,0:0:0:0:
152,324,28557,5,0,0:0:0:0:
71,204,28727,1,0,0:0:0:0:
52,305,28896,1,8,0:0:0:0:
172,224,29066,1,0,0:0:0:0:
378,244,29235,5,0,0:0:0:0:
248,156,29405,1,0,0:0:0:0:
268,265,29574,1,8,0:0:0:0:
357,135,29744,1,0,0:0:0:0:
136,148,29913,5,0,0:0:0:0:
137,143,29998,1,0,0:0:0:0:
138,138,30083,1,0,0:0:0:0:
139,134,30167,1,0,0:0:0:0:
140,130,30252,1,8,0:0:0:0:
141,126,30337,1,0,0:0:0:0:
142,122,30421,5,0,0:0:0:0:
150,146,30506,1,0,0:0:0:0:
158,169,30591,1,0,0:0:0:0:
166,192,30676,1,0,0:0:0:0:
174,215,30760,1,0,0:0:0:0:
183,238,30845,1,0,0:0:0:0:
192,261,30930,2,0,L|215:330,3,42.5,8|0|0|0,0:0|0:0|0:0|0:0,0:0:0:0:
272,356,31269,5,0,0:0:0:0:
272,356,31438,1,0,0:0:0:0:
272,356,31608,1,0,0:0:0:0:
272,356,31777,1,0,0:0:0:0:
272,356,31947,1,0,0:0:0:0:
272,356,32116,1,0,0:0:0:0:
336,248,32286,6,0,L|344:316,1,42.5
452,352,32455,2,0,L|396:348,1,42.5
272,356,32625,6,0,B|204:352|204:352|176:360|176:360|104:352,1,170,4|2,0:0|0:2,0:0:0:0:
8,84,33472,1,0,0:0:0:0:
52,80,33557,1,0,0:0:0:0:
96,76,33642,1,0,0:0:0:0:
140,72,33727,1,0,0:0:0:0:
180,68,33811,1,0,0:0:0:0:
224,64,33896,1,0,0:0:0:0:
296,52,33981,6,2,P|280:112|206:135,1,127.5,0|0,0:0|0:2,0:0:0:0:
48,196,34659,1,2,0:2:0:0:
56,240,34744,1,0,0:0:0:0:
64,280,34828,1,0,0:0:0:0:
252,240,34998,2,2,L|244:360,1,85,2|2,0:2|0:2,0:0:0:0:
444,356,35337,6,0,B|436:320|436:320|440:292|440:292|432:264|432:264|432:228,1,127.5,0|0,0:0|0:0,0:0:0:0:
152,168,36015,2,0,L|56:176,1,85,2|2,0:2|0:2,0:0:0:0:
360,76,36354,2,0,L|456:84,1,85
356,312,36693,6,0,B|336:372|336:372|304:308,1,127.5
264,120,37371,1,0,0:0:0:0:
264,120,37455,2,0,L|272:52,1,53.125,2|0,0:2|2:0,0:0:0:0:
192,84,37625,2,0,L|356:96,1,159.375,2|0,0:2|0:0,0:0:0:0:
432,116,37964,1,0,0:0:0:0:
360,148,38049,6,0,L|356:288,1,127.5,4|0,0:0|0:0,0:0:0:0:
320,344,38642,1,0,0:0:0:0:
320,344,38727,2,0,B|300:360|300:360|200:356,1,85
316,224,39066,1,2,0:2:0:0:
432,364,39235,1,2,0:2:0:0:
224,348,39405,6,2,L|100:340,1,85,2|0,0:0|0:0,0:0:0:0:
56,268,39659,1,2,0:0:0:0:
56,268,39744,2,0,L|98:270,1,42.5,2|0,0:0|0:0,0:0:0:0:
228,204,39913,2,0,L|185:201,1,42.5,2|0,0:0|2:0,0:0:0:0:
48,108,40083,2,2,L|90:110,1,42.5,2|0,0:0|0:0,0:0:0:0:
280,120,40252,1,0,0:0:0:0:
124,180,40421,2,2,L|132:248,1,42.5,0|2,0:0|0:0,0:0:0:0:
152,368,40591,1,0,0:0:0:0:
152,368,40760,6,0,P|220:352|164:296,1,170,0|0,0:0|0:0,0:0:0:0:
24,316,41608,1,2,0:2:0:0:
224,332,41777,1,2,0:2:0:0:
24,316,41947,2,0,L|20:264,1,42.5,2|0,0:2|0:0,0:0:0:0:
60,200,42116,6,2,B|92:236|92:236|100:296,1,85
224,332,42455,2,2,L|320:324,1,85,2|2,0:0|0:0,0:0:0:0:
445,194,42794,6,0,L|452:236,1,42.5,0|0,0:0|2:0,0:0:0:0:
457,170,43049,2,0,L|464:212,1,42.5,0|0,0:0|2:0,0:0:0:0:
469,146,43303,2,0,L|476:188,1,42.5,0|0,0:0|0:0,0:0:0:0:
488,312,43472,6,0,B|432:308|432:308|392:344|392:344|320:340,1,170,4|0,0:0|0:0,0:0:0:0:
156,176,44320,1,0,0:0:0:0:
156,176,44405,2,0,L|216:184,1,42.5,0|2,0:0|2:0,0:0:0:0:
316,112,44574,1,0,0:0:0:0:
316,112,44659,2,0,L|273:117,1,42.5,0|2,0:0|2:0,0:0:0:0:
96,112,44828,6,0,P|68:168|88:232,1,127.5
232,324,45506,1,2,0:2:0:0:
274,322,45590,1,0,0:0:0:0:
316,320,45675,1,0,0:0:0:0:
232,324,45845,2,2,L|340:320,1,85,2|2,0:2|0:2,0:0:0:0:
136,352,46184,6,2,B|48:360|48:360|12:316,1,127.5,0|0,0:0|0:0,0:0:0:0:
160,272,46862,2,2,B|89:278|89:278|60:243,1,85,0|0,0:2|2:0,0:0:0:0:
184,192,47201,2,2,B|113:198|113:198,1,42.5,0|0,0:2|2:0,0:0:0:0:
208,112,47371,2,2,B|137:118|137:118,1,42.5,0|0,0:2|2:0,0:0:0:0:
232,32,47540,6,2,L|224:168,1,127.5,0|0,0:0|0:0,0:0:0:0:
248,296,48218,1,0,0:0:0:0:
248,296,48303,2,0,L|240:228,1,42.5,2|0,0:2|2:0,0:0:0:0:
224,159,48472,2,0,L|217:286,1,127.5,2|0,0:2|0:0,0:0:0:0:
220,368,48811,1,0,0:0:0:0:
248,296,48896,6,0,L|360:292,2,95.6250036478044,4|0|0,0:0|0:0|0:0,0:0:0:0:
168,304,49489,2,0,L|184:364,1,42.5
224,160,49744,1,2,0:2:0:0:
32,144,49913,2,0,L|48:204,1,42.5,2|0,0:2|0:0,0:0:0:0:
134,89,50083,2,0,L|124:48,1,42.5,2|0,0:2|0:0,0:0:0:0:
252,80,50252,6,2,L|360:76,1,85,2|0,0:0|0:0,0:0:0:0:
428,80,50506,1,2,0:0:0:0:
428,80,50591,2,0,L|417:121,1,42.5,2|0,0:0|2:0,0:0:0:0:
328,200,50760,2,0,L|338:158,1,42.5,2|0,0:0|2:0,0:0:0:0:
500,152,50930,2,2,L|489:193,1,42.5,2|0,0:0|2:0,0:0:0:0:
392,272,51099,1,0,0:0:0:0:
392,272,51269,2,2,L|403:231,1,42.5,0|0,0:0|2:0,0:0:0:0:
500,152,51438,1,0,0:0:0:0:
500,152,51608,5,0,0:0:0:0:
444,348,51947,2,0,B|396:364|396:364|316:340,1,101.999996887207,0|0,0:0|2:0,0:0:0:0:
332,344,52201,1,0,0:0:0:0:
332,344,52455,2,0,B|284:328|284:328|204:352,1,101.999996887207,0|0,0:0|2:0,0:0:0:0:
220,348,52710,1,0,0:0:0:0:
204,352,52794,2,0,L|116:344,1,50.9999984436036
76,360,52964,6,0,L|80:220,1,101.999996887207
80,244,53218,1,0,0:0:0:0:
144,200,53303,2,0,L|272:208,1,101.999996887207
260,208,53557,1,0,0:0:0:0:
336,192,53642,2,0,B|352:144|352:144|332:84,1,101.999996887207,0|0,0:0|2:0,0:0:0:0:
272,48,53896,2,0,L|152:52,1,101.999996887207,0|0,0:0|2:0,0:0:0:0:
92,56,54150,1,0,0:0:0:0:
88,72,54235,1,0,0:0:0:0:
84,88,54320,6,0,B|68:168|68:168|112:196,1,118.999996368408,4|0,0:0|2:0,0:0:0:0:
172,148,54659,2,0,L|304:144,1,118.999996368408,0|0,0:0|2:0,0:0:0:0:
324,220,54998,2,0,L|460:224,1,118.999996368408,8|0,0:0|2:0,0:0:0:0:
476,148,55337,2,0,B|492:100|492:100|464:24,1,118.999996368408,0|0,0:0|2:0,0:0:0:0:
480,300,55676,2,0,B|424:316|424:316|368:292,1,118.999996368408,0|0,0:0|2:0,0:0:0:0:
324,220,56015,2,0,L|316:92,1,118.999996368408,0|0,0:0|2:0,0:0:0:0:
260,356,56354,6,0,L|156:360,1,85,8|0,0:0|0:0,0:0:0:0:
28,280,56693,2,0,L|132:284,1,85,8|0,0:0|0:0,0:0:0:0:
176,104,57032,6,0,L|164:212,1,85,0|2,0:0|0:2,0:0:0:0:
166,188,57286,1,2,0:2:0:0:
166,188,57371,1,2,0:2:0:0:
264,268,57540,1,2,0:2:0:0:
264,268,57625,1,2,0:2:0:0:
264,268,57710,1,10,0:2:0:0:
384,56,57964,1,0,0:2:0:0:
492,332,58218,1,0,0:2:0:0:
472,240,58388,6,0,L|372:236,1,85,0|2,0:0|0:2,0:0:0:0:
387,236,58642,1,2,0:2:0:0:
387,236,58727,1,2,0:2:0:0:
264,268,58896,1,2,0:2:0:0:
264,268,58981,1,2,0:2:0:0:
264,268,59066,1,10,0:2:0:0:
496,144,59320,1,0,0:0:0:0:
200,92,59574,1,0,0:0:0:0:
356,36,59744,5,4,0:0:0:0:
356,36,59913,2,0,L|352:136,1,85,2|2,2:0|2:0,0:0:0:0:
264,268,60252,1,0,0:0:0:0:
264,268,60337,1,0,0:0:0:0:
264,268,60421,1,8,0:0:0:0:
200,92,60591,1,2,2:0:0:0:
200,92,60760,1,2,2:0:0:0:
360,176,60930,5,0,0:0:0:0:
200,92,61099,1,0,0:0:0:0:
179,271,61269,2,0,L|264:268,1,85,2|2,2:0|2:0,0:0:0:0:
444,108,61608,2,0,L|452:36,2,42.5,0|0|8,0:0|0:0|0:0,0:0:0:0:
412,300,61947,1,2,0:2:0:0:
308,96,62116,2,0,L|196:100,1,85,8|2,0:0|0:2,0:0:0:0:
16,112,62455,5,2,0:2:0:0:
24,140,62540,1,0,0:0:0:0:
32,168,62625,1,0,0:0:0:0:
140,192,62794,1,8,0:0:0:0:
244,156,62964,1,2,0:2:0:0:
252,184,63049,1,0,0:0:0:0:
260,212,63134,1,0,0:0:0:0:
368,188,63303,1,8,0:0:0:0:
464,240,63472,2,0,L|492:328,1,85,2|8,0:2|0:0,0:0:0:0:
288,352,63811,5,0,0:0:0:0:
272,348,63896,1,0,0:0:0:0:
256,344,63981,1,0,0:0:0:0:
240,340,64066,1,0,0:0:0:0:
224,336,64150,2,0,L|272:308,1,42.5,8|0,0:0|2:0,0:0:0:0:
384,312,64320,1,0,0:0:0:0:
388,327,64405,1,0,0:0:0:0:
393,343,64490,1,0,0:0:0:0:
397,359,64575,1,0,0:0:0:0:
402,375,64659,2,0,L|353:347,1,42.5,8|0,0:0|2:0,0:0:0:0:
303,249,64828,1,0,0:0:0:0:
314,238,64913,1,0,0:0:0:0:
325,226,64998,1,8,0:0:0:0:
337,214,65083,1,0,0:0:0:0:
348,202,65167,6,0,L|348:257,7,42.5
428,144,65845,2,0,L|436:76,1,42.5,8|0,0:0|0:0,0:0:0:0:
352,72,66015,1,0,0:0:0:0:
335,73,66099,1,0,0:0:0:0:
318,74,66184,1,0,0:0:0:0:
301,75,66269,1,0,0:0:0:0:
284,76,66354,1,0,0:0:0:0:
267,77,66438,1,0,0:0:0:0:
250,78,66523,5,4,0:0:0:0:
176,196,66693,2,0,L|172:252,2,42.5
160,28,67032,1,0,0:0:0:0:
100,152,67201,2,0,L|12:148,1,85,8|0,0:0|0:0,0:0:0:0:
232,300,67540,2,0,L|320:296,1,85,8|0,0:0|0:0,0:0:0:0:
472,184,67879,5,0,0:0:0:0:
324,152,68049,1,0,0:0:0:0:
328,168,68133,1,0,0:0:0:0:
332,184,68218,1,0,0:0:0:0:
500,268,68388,1,0,0:0:0:0:
408,112,68557,6,0,L|396:16,1,85,8|0,0:0|0:0,0:0:0:0:
280,248,68896,2,0,P|320:264|392:240,1,85
484,84,69235,2,0,L|472:-12,1,85
232,176,69574,5,0,0:0:0:0:
384,268,69744,1,0,0:0:0:0:
384,268,69828,1,0,0:0:0:0:
384,268,69913,2,0,B|492:264|492:264|468:296,1,141.666666666667,8|0,0:0|0:0,0:0:0:0:
420,348,70252,1,8,0:0:0:0:
56,336,70591,6,0,L|32:263,1,56.6666666666667,4|2,0:0|0:2,0:0:0:0:
123,293,70930,2,0,L|110:202,1,85.0000032424928,0|2,0:0|0:2,0:0:0:0:
196,262,71269,2,0,L|201:97,1,113.333333333333,0|2,0:0|0:2,0:0:0:0:
274,242,71608,2,0,L|303:103,1,141.666666666667,0|2,0:0|0:2,0:0:0:0:
336,16,71947,6,0,P|392:68|384:152,1,141.666666666667,4|2,0:0|0:2,3:0:0:0:
303,103,72286,2,0,P|285:177|209:212,1,113.333333333333,0|2,0:0|0:2,0:0:0:0:
212,118,72625,2,0,P|156:135|104:98,1,85.0000032424928,0|2,0:0|0:2,0:0:0:0:
168,52,72964,2,0,P|142:28|140:-4,1,56.6666666666667,0|2,0:0|0:2,0:0:0:0:
336,16,73303,6,0,L|388:24,1,28.3333333333333,4|0,0:0|2:0,0:0:0:0:
456,112,73529,1,2,0:2:0:0:
456,112,73642,2,0,L|404:120,1,42.5000016212464,8|0,0:0|2:0,0:0:0:0:
268,188,73868,1,2,0:2:0:0:
268,188,73981,2,0,L|361:202,1,56.6666666666667,0|0,0:0|2:0,0:0:0:0:
504,280,74207,1,2,0:2:0:0:
504,280,74320,2,0,L|410:294,1,70.8333333333333,8|0,0:0|2:0,0:0:0:0:
200,360,74546,1,2,0:2:0:0:
200,360,74659,6,0,L|336:376,1,113.333333333333,4|0,0:0|0:0,0:0:0:0:
392,360,74998,1,0,0:0:0:0:
412,324,75111,1,0,0:0:0:0:
412,280,75224,1,0,0:0:0:0:
396,232,75337,1,0,0:0:0:0:
356,192,75450,1,0,0:0:0:0:
296,172,75563,1,0,0:0:0:0:
228,172,75676,1,0,0:0:0:0:
160,196,75789,1,0,0:0:0:0:
112,260,75902,1,0,0:0:0:0:
92,344,76015,5,4,0:0:0:0:
28,20,81438,6,0,L|52:124,1,95.6250036478044
116,152,81947,2,0,L|137:245,1,85
80,300,82455,2,0,L|101:393,1,85
220,256,82794,6,0,L|328:264,1,95.6250036478044
360,336,83303,2,0,L|262:343,1,85
268,184,83811,2,0,L|365:191,1,85
352,190,84066,1,0,0:0:0:0:
352,190,84150,5,0,0:0:0:0:
196,248,84405,1,0,0:0:0:0:
72,136,84659,1,0,0:0:0:0:
228,78,84914,1,0,0:0:0:0:
352,190,85167,5,0,0:0:0:0:
244,168,85337,1,0,0:0:0:0:
136,148,85506,1,0,0:0:0:0:
204,300,85760,1,0,0:0:0:0:
336,200,86015,1,0,0:0:0:0:
352,190,86099,2,0,L|356:92,1,85
220,22,86438,1,0,0:0:0:0:
204,12,86523,2,0,L|206:96,1,85
204,300,86862,5,4,0:0:0:0:
444,240,87201,1,0,0:0:0:0:
144,136,87540,1,0,0:0:0:0:
476,52,87879,2,0,L|472:164,1,85,2|0,0:2|2:0,0:0:0:0:
444,240,88218,6,0,P|376:276|280:236,1,170
116,288,88896,1,0,0:0:0:0:
291,248,89235,2,0,P|252:236|192:256,1,85,2|0,0:2|2:0,0:0:0:0:
116,288,89574,6,0,L|120:184,1,85,0|0,0:0|2:0,0:0:0:0:
276,64,89913,2,0,L|279:148,1,85,0|0,0:0|2:0,0:0:0:0:
452,200,90252,2,0,L|364:188,1,85,0|0,0:0|2:0,0:0:0:0:
196,224,90591,1,2,0:2:0:0:
296,320,90760,1,2,0:2:0:0:
296,140,90930,6,0,L|300:32,1,85,0|0,0:0|2:0,0:0:0:0:
120,200,91269,2,0,P|116:248|136:280,1,85,0|0,0:0|2:0,0:0:0:0:
384,348,91608,2,0,P|403:311|398:269,1,85,0|0,0:0|2:0,0:0:0:0:
236,208,91947,1,2,0:2:0:0:
428,176,92116,1,2,0:2:0:0:
260,128,92286,5,4,0:0:0:0:
293,268,92455,1,0,0:0:0:0:
155,227,92625,1,8,0:0:0:0:
236,208,92794,1,0,0:0:0:0:
269,348,92963,1,0,0:0:0:0:
131,307,93133,1,0,0:0:0:0:
293,268,93303,1,8,0:0:0:0:
431,309,93473,1,0,0:0:0:0:
268,348,93642,5,0,0:0:0:0:
130,307,93811,1,0,0:0:0:0:
235,208,93981,1,8,0:0:0:0:
212,288,94150,1,0,0:0:0:0:
74,247,94319,1,0,0:0:0:0:
179,148,94489,1,0,0:0:0:0:
131,307,94659,1,8,0:0:0:0:
97,167,94828,1,0,0:0:0:0:
235,208,94998,5,0,0:0:0:0:
260,212,95083,1,0,0:0:0:0:
284,216,95167,1,0,0:0:0:0:
308,220,95252,1,0,0:0:0:0:
340,228,95337,5,8,0:0:0:0:
372,236,95421,1,0,0:0:0:0:
404,244,95506,1,0,0:0:0:0:
436,252,95591,1,0,0:0:0:0:
476,264,95676,5,0,0:0:0:0:
436,272,95760,1,0,0:0:0:0:
396,280,95845,1,0,0:0:0:0:
356,288,95930,1,0,0:0:0:0:
304,296,96015,5,8,0:0:0:0:
256,304,96099,1,0,0:0:0:0:
204,312,96184,1,0,0:0:0:0:
152,320,96269,1,0,0:0:0:0:
92,332,96354,5,0,0:0:0:0:
212,340,96523,1,0,0:0:0:0:
332,348,96693,1,0,0:0:0:0:
452,356,96862,1,0,0:0:0:0:
496,168,97032,6,0,L|380:192,1,85
256,192,97371,2,0,L|174:208,1,42.5
144,240,97540,2,0,L|62:256,1,42.5
24,268,97710,6,0,L|232:311,1,187.000005706787,4|8,0:0|0:0,0:0:0:0:
338,146,98218,1,2,0:2:0:0:
327,139,98303,1,2,0:2:0:0:
316,132,98388,2,0,L|224:150,1,93.5000028533936,2|0,0:2|0:0,0:0:0:0:
140,340,98727,2,0,L|231:358,1,93.5000028533936,8|0,0:0|0:0,0:0:0:0:
428,92,99066,6,0,B|352:88|352:88|320:96|320:96|208:88,1,187.000005706787,0|8,0:0|0:0,0:0:0:0:
88,48,99574,1,2,0:2:0:0:
88,48,99659,1,2,0:2:0:0:
88,48,99744,2,0,L|24:40,2,46.7500014266968,2|8|0,0:2|0:0|0:0,0:0:0:0:
116,176,100083,1,8,0:0:0:0:
144,304,100252,1,2,0:2:0:0:
77,379,100421,6,0,P|14:321|64:252,1,187.000005706787,0|8,0:0|0:0,0:0:0:0:
216,248,100930,2,0,L|292:252,1,46.7500014266968,2|2,0:2|0:2,0:0:0:0:
320,196,101099,2,0,P|340:240|324:300,1,93.5000028533936,2|0,0:2|0:0,0:0:0:0:
116,176,101438,2,0,P|110:130|129:88,1,93.5000028533936,8|0,0:0|0:0,0:0:0:0:
268,24,101777,5,0,0:0:0:0:
256,136,101947,1,0,0:0:0:0:
164,72,102116,1,8,0:0:0:0:
360,88,102286,1,2,0:2:0:0:
360,88,102371,1,2,0:2:0:0:
360,88,102455,1,2,0:2:0:0:
164,72,102625,1,0,0:0:0:0:
360,88,102794,2,0,L|480:96,1,93.5000028533936,8|0,0:0|0:2,0:0:0:0:
512,40,103049,1,0,0:2:0:0:
480,112,103133,6,0,L|468:304,1,187.000005706787,4|8,0:0|0:0,0:0:0:0:
264,112,103642,1,2,0:2:0:0:
264,112,103727,1,2,0:2:0:0:
264,112,103811,2,0,L|252:-16,1,93.5000028533936
92,264,104150,2,0,L|84:376,1,93.5000028533936,8|0,0:0|0:0,0:0:0:0:
200,208,104489,5,0,0:0:0:0:
48,124,104659,1,0,0:0:0:0:
48,124,104744,1,0,0:0:0:0:
48,124,104828,1,8,0:0:0:0:
264,112,104998,2,0,P|300:144|288:220,1,93.5000028533936,2|0,0:2|0:0,0:0:0:0:
176,304,105337,1,0,0:0:0:0:
124,160,105506,2,0,P|116:112|152:60,1,93.5000028533936,8|2,0:0|0:2,0:0:0:0:
328,48,105845,5,2,0:2:0:0:
296,208,106015,1,2,0:2:0:0:
344,64,106184,2,0,L|327:148,1,46.7500014266968,8|0,0:0|2:0,0:0:0:0:
276,220,106354,2,0,L|259:304,1,46.7500014266968,8|0,0:0|2:0,0:0:0:0:
336,356,106523,5,2,0:2:0:0:
456,280,106693,1,2,0:2:0:0:
312,356,106862,2,0,L|248:352,1,46.7500014266968,8|0,0:0|2:0,0:0:0:0:
256,232,107032,2,0,L|192:228,1,46.7500014266968,8|0,0:0|2:0,0:0:0:0:
200,108,107201,5,2,0:0:0:0:
388,160,107371,1,0,0:0:0:0:
244,316,107540,1,10,0:0:0:0:
272,152,107710,1,2,0:0:0:0:
428,252,107879,6,2,P|444:316|392:380,1,127.500004863739,2|0,0:2|2:0,0:0:0:0:
370,304,108133,2,2,L|244:316,1,127.500004863739,2|0,0:2|2:0,0:0:0:0:
172,280,108388,1,2,0:2:0:0:
164,264,108472,1,2,0:2:0:0:
156,248,108557,5,4,0:0:0:0:
332,224,108727,1,2,0:2:0:0:
188,128,108896,2,0,L|192:212,1,50.9999984436036,8|0,0:0|2:0,0:0:0:0:
248,312,109066,2,0,L|252:396,1,50.9999984436036,8|0,0:0|2:0,0:0:0:0:
88,292,109235,5,2,0:2:0:0:
248,232,109405,1,2,0:2:0:0:
392,360,109574,2,0,L|380:292,1,50.9999984436036,8|0,0:0|2:0,0:0:0:0:
392,156,109744,2,0,L|396:80,1,50.9999984436036,8|0,0:0|2:0,0:0:0:0:
500,240,109913,5,0,0:0:0:0:
332,252,110083,1,0,0:0:0:0:
332,252,110167,1,0,0:0:0:0:
332,252,110252,2,0,L|216:248,1,101.999996887207,8|2,0:0|0:2,0:0:0:0:
100,72,110591,2,0,L|216:68,1,101.999996887207
201,68,110845,1,0,0:0:0:0:
201,68,110930,1,8,0:0:0:0:
40,184,111099,1,2,0:2:0:0:
40,184,111184,1,2,0:2:0:0:
40,184,111269,5,2,0:2:0:0:
148,312,111438,1,2,0:2:0:0:
260,216,111608,2,0,P|300:176|380:192,1,101.999996887207,8|0,0:0|0:0,0:0:0:0:
420,304,111947,2,0,L|412:364,1,50.9999984436036,2|0,0:2|2:0,0:0:0:0:
332,252,112116,1,2,0:2:0:0:
220,360,112286,2,0,L|152:356,1,50.9999984436036,8|0,0:0|2:0,0:0:0:0:
176,236,112455,2,0,L|108:232,1,50.9999984436036,8|0,0:0|2:0,0:0:0:0:
132,112,112625,5,0,0:0:0:0:
72,292,112794,2,0,P|48:252|64:188,1,101.999996887207,0|8,0:0|0:0,0:0:0:0:
220,360,113133,1,2,0:2:0:0:
220,360,113218,1,2,0:2:0:0:
220,360,113303,2,0,L|288:352,2,53.125,2|8|0,0:2|0:0|0:0,0:0:0:0:
268,220,113642,1,8,0:0:0:0:
316,80,113811,1,2,0:2:0:0:
420,184,113981,6,0,P|460:248|420:336,2,159.375,4|8|8,0:0|0:0|0:0,0:0:0:0:
268,220,114659,2,0,L|140:224,1,106.25
88,204,114913,1,0,0:0:0:0:
164,196,114998,2,0,L|270:192,1,106.25,8|2,0:0|0:2,0:0:0:0:
344,188,115252,1,2,0:2:0:0:
420,184,115337,5,2,0:2:0:0:
384,360,115506,1,0,0:0:0:0:
492,172,115676,1,8,0:0:0:0:
456,372,115845,1,2,0:2:0:0:
388,252,116015,2,0,L|264:260,1,106.25,2|0,0:2|0:0,0:0:0:0:
120,112,116354,2,0,L|226:118,1,106.25,8|0,0:0|0:0,0:0:0:0:
226,118,116693,5,4,0:0:0:0:
24,56,117032,1,0,0:0:0:0:
120,112,117201,1,0,0:0:0:0:
226,118,117371,1,0,0:0:0:0:
320,72,117540,1,0,0:0:0:0:
428,76,117710,1,0,0:0:0:0:
512,140,117879,1,0,0:0:0:0:
448,251,118049,5,0,0:0:0:0:
428,247,118133,1,0,0:0:0:0:
408,243,118218,1,0,0:0:0:0:
388,239,118303,1,0,0:0:0:0:
344,271,118388,5,0,0:0:0:0:
320,276,118472,1,0,0:0:0:0:
296,281,118557,1,0,0:0:0:0:
272,286,118642,1,0,0:0:0:0:
244,243,118727,5,0,0:0:0:0:
216,237,118811,1,0,0:0:0:0:
188,232,118896,1,0,0:0:0:0:
160,226,118981,1,0,0:0:0:0:
128,267,119066,5,0,0:0:0:0:
96,273,119150,1,0,0:0:0:0:
64,280,119235,1,0,0:0:0:0:
32,286,119320,1,0,0:0:0:0:
0,292,119405,1,4,0:0:0:0:
256,192,119489,12,0,120760,0:0:0:0:
