osu file format v9

[General]
AudioFilename: Eagle - ICARUS.mp3
AudioLeadIn: 1000
PreviewTime: 32572
Countdown: 0
SampleSet: Normal
StackLeniency: 0.7
Mode: 0
LetterboxInBreaks: 1

[Editor]
DistanceSpacing: 0.8
BeatDivisor: 4
GridSize: 8

[Metadata]
Title:ICARUS
Artist:Eagle
Creator:Muya
Version:Normal
Source:beatmania IIDX
Tags:15 DJ TROOPERS kors k faust

[Difficulty]
HPDrainRate:2
CircleSize:3
OverallDifficulty:4
ApproachRate:4
SliderMultiplier:1.2
SliderTickRate:1

[Events]
//Background and Video events
0,0,"BG.jpg"
//Break Periods
2,56458,64462
//Storyboard Layer 0 (Background)
//Storyboard Layer 1 (Fail)
//Storyboard Layer 2 (Pass)
//Storyboard Layer 3 (Foreground)
//Storyboard Sound Samples
//Background Colour Transformations
3,100,163,162,255

[TimingPoints]
1714,340.909090909091,4,1,1,70,1,0
56259,476.190476190476,4,1,1,70,1,0
65782,-100,4,1,1,70,0,0
65901,-100,4,2,1,70,0,0
73401,458.015267175573,4,1,1,70,1,0
77065,441.176470588235,4,1,1,70,1,0
80594,425.531914893617,4,1,1,70,1,0
82296,410.958904109589,4,1,1,70,1,0
83939,397.350993377483,4,1,1,70,1,0
85528,384.615384615385,4,1,1,70,1,0
87066,372.670807453416,4,1,1,70,1,0
88556,361.44578313253,4,1,1,70,1,0
90001,350.877192982456,4,1,1,70,1,0
91404,340.909090909091,4,1,1,70,1,0
92767,331.491712707182,4,1,1,70,1,0
93429,322.58064516129,4,1,1,70,1,0
94074,314.13612565445,4,1,1,70,1,0
94702,306.122448979592,4,1,1,70,1,0
95314,298.507462686567,4,1,1,70,1,0
96508,284.36018957346,4,1,1,70,1,0
97645,271.493212669683,4,1,1,70,1,0
98730,259.74025974026,4,1,1,70,1,0
99768,248.96265560166,4,1,1,70,1,0
100763,239.043824701195,4,1,1,70,1,0
101719,340.909090909091,4,1,1,70,1,0
123537,-100,4,1,1,5,0,0

[HitObjects]
32,80,1714,2,0,B|-16:144|-16:248|48:312,2,240,4|0|0
216,32,3759,2,0,B|240:96|216:152,1,120
144,88,4441,2,0,B|88:200|144:328,1,240
328,360,5804,2,0,B|384:248|328:120,1,240
216,280,7168,6,0,B|176:352|80:376|-8:352,2,240
312,112,9214,2,0,B|360:72|424:80,1,120
384,168,9895,2,4,B|384:360,2,180
296,208,11259,2,0,B|240:224|176:208,1,120,8|0
120,136,11941,2,0,B|64:120|0:136,1,120,8|0
56,216,12623,6,0,B|40:264|56:312,4,90,4|0|0|0|0
144,264,13986,2,0,B|160:216|144:168,4,90,0|0|0|0|0
240,240,15350,2,0,B|240:328,4,90
304,168,16714,2,0,B|304:80,4,90
400,144,18077,6,0,B|448:264|392:392,1,240,4|0
224,288,19441,2,0,B|176:168|232:40,1,240,4|0
64,160,20804,5,4
160,328,21486,1,0
352,328,22168,1,4
448,160,22850,1,0
304,32,23532,5,4
304,128,23873,1,0
224,80,24214,1,0
224,176,24555,1,0
144,128,24895,5,0
144,224,25236,1,0
64,176,25577,1,0
64,272,25918,1,0
144,320,26259,6,0,B|200:352|288:336,1,120,4|0
328,272,26941,2,0,B|272:240|184:256,1,120,0|0
120,232,27623,2,0,B|48:136,1,120
112,64,28304,2,0,B|184:160,1,120
256,96,28986,5,4
304,176,29327,1,0
352,96,29668,1,0
400,176,30009,1,0
448,256,30350,5,4
400,336,30691,1,0
352,256,31032,1,0
304,336,31373,1,0
216,296,31714,6,0,B|96:296,1,120,4|0
136,208,32395,2,0,B|16:208,1,120
0,112,33077,2,0,B|40:72|104:56|176:72,2,180,4|4|8
80,168,34441,5,4
152,232,34782,2,8,B|216:280|312:280|376:232,1,240
448,168,35804,1,0
376,104,36145,2,8,B|312:56|216:56|152:104,1,240
224,168,37168,2,0,B|248:232|224:288,1,120,0|8
144,344,37850,2,0,B|120:280|144:224,1,120,0|8
128,128,38532,2,0,B|152:80|216:56|288:80,2,180,0|0|8
48,72,39895,5,0
48,168,40236,2,0,B|48:288,2,120,8|0|8
128,120,41259,1,0
128,216,41600,2,0,B|128:336,2,120,8|0|8
216,256,42623,5,0
296,312,42964,2,8,B|352:208|304:72,1,240
224,24,43986,1,4
416,56,44668,1,4
392,256,45350,5,4
312,312,45691,2,8,B|216:344|120:312|80:240,1,240
48,176,46714,1,0
128,120,47055,2,8,B|224:88|320:120|360:192,1,240
432,216,48077,2,0,B|416:352,1,120,0|8
328,368,48759,2,0,B|312:232,1,120,0|8
232,304,49441,2,0,B|128:312|64:248,2,180,0|0|8
232,208,50804,5,0
312,152,51145,2,0,B|336:96|312:32,2,120,8|0|8
232,96,52168,1,0
152,152,52509,2,0,B|128:208|152:272,2,120,8|0|8
208,72,53532,2,0,B|136:16|24:40,2,180,4|0|0
88,224,55236,1,0
168,280,55577,2,0,B|280:344|424:304,1,240,0|4
472,40,65782,6,0,B|520:128|480:232,2,180,4|0|0
392,96,67687,1,0
296,112,68163,1,0
200,96,68639,1,0
120,40,69116,1,0
72,128,69592,6,0,B|-8:288,2,180
152,184,71497,2,0,B|128:248|152:312,1,120
232,352,72449,2,0,B|256:288|232:224,1,120
296,152,73401,6,0,B|416:152,1,120,4|8
440,56,74317,2,0,B|320:56,1,120,0|8
224,80,75233,2,0,B|160:96|96:80|56:32,2,180,0|0|8
296,152,77065,6,0,B|320:216|296:280,1,120,4|8
224,216,77947,2,0,B|200:280|224:344,1,120,0|8
312,352,78829,2,0,B|496:352,2,180,0|0|8
352,264,80594,6,0,B|400:280|456:256|472:208|464:160,2,180,4|0|8
368,168,82296,2,0,B|368:80|320:48|256:40|192:48|144:80|144:168,1,360,0|8
160,264,83939,6,0,B|112:280|56:256|40:208|48:160,2,180,4|0|8
200,176,85528,2,0,B|232:152|280:152|312:176,1,120,0|8
256,256,86297,2,0,B|256:376,1,120,0|8
352,360,87066,6,0,B|408:248|352:128,1,240,4|8
176,32,88556,2,0,B|120:144|176:264,1,240,0|8
304,112,90001,6,0,B|360:96|424:112,1,120,4|8
480,192,90702,2,0,B|424:208|360:192,1,120,0|8
272,160,91404,2,0,B|168:88|40:120,1,240,0|8
8,208,92426,1,0
104,232,92767,6,0,B|80:288|104:352,1,120,4|8
184,296,93429,2,0,B|208:240|184:176,1,120,0|8
128,96,94074,2,0,B|248:96,1,120,0|8
328,40,94702,2,0,B|448:40,1,120,0|8
496,128,95314,5,4
456,216,95612,1,8
360,240,95911,2,0,B|296:224|264:168,1,120,0|8
200,96,96508,5,0
104,112,96792,1,8
32,176,97076,2,0,B|0:232|16:296,1,120,0|8
256,192,97645,12,4,101719
0,64,104446,6,0,B|56:48|120:64,3,120,0|8|0|8
192,128,105809,2,0,B|248:144|312:128,3,120,0|8|0|8
392,80,107173,6,0,B|448:216,1,120,0|8
352,232,107855,2,0,B|408:368,1,120,0|8
304,336,108537,2,0,B|184:384|56:336,1,240,0|4
8,264,109559,1,8
104,248,109900,6,0,B|136:192|104:120,1,120,4|8
24,184,110582,2,0,B|-8:128|24:56,1,120,0|8
112,40,111264,1,0
200,80,111605,2,0,B|320:80,2,120,8|0|8
160,168,112628,6,0,B|128:224|160:288,1,120,0|8
232,224,113309,2,0,B|264:280|232:344,1,120,0|8
328,328,113991,2,0,B|440:368,3,120,0|8|0|8
488,288,115355,6,0,B|504:240|488:200,4,90,0|0|0|0|8
408,240,116719,2,0,B|392:192|408:152,4,90,0|0|0|0|8
400,336,118082,1,0
312,296,118423,2,8,B|248:256|160:248|80:272,1,240
96,176,119446,2,0,B|24:160|0:88,2,120,0|8|0
104,80,120469,1,8
184,32,120809,5,0
224,120,121150,2,8,B|256:192|344:224|448:192,1,240
384,112,122173,2,0,B|424:80|472:80,4,90,0|0|0|0|8
256,192,123537,12,0,126264
