osu file format v9

[General]
AudioFilename: Eagle - ICARUS.mp3
AudioLeadIn: 1000
PreviewTime: 32572
Countdown: 0
SampleSet: Normal
StackLeniency: 0.7
Mode: 0
LetterboxInBreaks: 1

[Editor]
DistanceSpacing: 0.7
BeatDivisor: 4
GridSize: 4

[Metadata]
Title:ICARUS
Artist:Eagle
Creator:Muya
Version:Hyper
Source:beatmania IIDX
Tags:15 DJ TROOPERS kors k faust

[Difficulty]
HPDrainRate:5
CircleSize:4
OverallDifficulty:6
ApproachRate:8
SliderMultiplier:1.4
SliderTickRate:1

[Events]
//Background and Video events
0,0,"BG.jpg"
//Break Periods
2,56459,63128
//Storyboard Layer 0 (Background)
//Storyboard Layer 1 (Fail)
//Storyboard Layer 2 (Pass)
//Storyboard Layer 3 (Foreground)
//Storyboard Sound Samples
//Background Colour Transformations
3,100,163,162,255

[TimingPoints]
1714,340.909090909091,4,1,1,35,1,0
10961,-100,4,1,1,5,0,0
12452,-100,4,1,1,40,0,0
56259,476.190476190476,4,1,1,70,1,0
63639,-100,4,2,1,30,0,0
65544,-100,4,1,1,40,0,0
73401,458.015267175573,4,1,1,50,1,0
77065,441.176470588235,4,1,1,50,1,0
80594,425.531914893617,4,1,1,50,1,0
82296,410.958904109589,4,1,1,70,1,0
83939,397.350993377483,4,1,1,50,1,0
85528,384.615384615385,4,1,1,50,1,0
87066,372.670807453416,4,1,1,50,1,0
88556,361.44578313253,4,1,1,50,1,0
90001,350.877192982456,4,1,1,50,1,0
91404,340.909090909091,4,1,1,50,1,0
92767,331.491712707182,4,1,1,50,1,0
93429,322.58064516129,4,1,1,50,1,0
94074,314.13612565445,4,1,1,50,1,0
94702,306.122448979592,4,1,1,50,1,0
95314,298.507462686567,4,1,1,50,1,0
96508,284.36018957346,4,1,1,50,1,0
97645,271.493212669683,4,1,1,50,1,0
98730,259.74025974026,4,1,1,50,1,0
99768,248.96265560166,4,1,1,50,1,0
100763,239.043824701195,4,1,1,50,1,0
101719,340.909090909091,4,1,1,50,1,0
101761,-100,4,1,1,5,0,0
102912,-100,4,1,1,35,0,0
104275,-100,4,1,1,50,0,0
114034,-100,4,1,1,5,0,0
115184,-100,4,1,1,50,0,0
123579,-100,4,1,1,5,0,0

[HitObjects]
256,192,1714,5,0
468,228,2396,1,0
468,228,2566,1,0
392,304,2907,2,0,B|344:280|344:280|248:280,1,140
120,168,3418,2,0,B|168:192|168:192|256:192,1,140,0|8
252,192,4101,1,0
252,192,4441,1,0
156,288,5122,5,8
156,288,5293,1,0
360,224,5634,2,0,B|284:224,1,70
156,288,5975,2,0,B|224:288,1,70
360,160,6315,2,0,B|284:160,1,70,0|8
208,228,6827,1,0
208,228,7168,6,0,B|224:228|224:228|256:264|256:264|288:228|288:228|388:228,1,210
304,156,7850,2,0,B|288:156|288:156|256:120|256:120|224:156|224:156|124:156,1,210,8|0
208,228,8531,2,0,B|279:228,1,70
416,352,8872,2,0,B|360:308|360:308|280:308,1,140,0|8
36,228,9554,1,0
80,320,9724,1,0
108,320,9810,1,0
136,320,9895,5,0
476,156,10406,1,0
36,36,10918,1,0
256,192,11089,12,0,12282
384,260,12622,6,0,B|448:260|448:260|480:224,2,105
300,360,13389,2,0,B|288:340|288:340|288:260,1,105
128,124,13815,1,0
128,124,13986,6,0,B|64:124|64:124|32:160,2,105
212,24,14753,2,0,B|224:44|224:44|224:124,1,105
384,252,15179,1,0
384,252,15349,6,0,B|356:224|356:224|284:224,1,105
128,188,15861,2,0,B|156:160|156:160|228:160,1,105
328,160,16372,1,0
356,60,16543,1,0
328,60,16628,1,0
300,60,16713,6,0,B|256:32|256:32|212:60,1,105
36,156,17224,2,0,B|80:184|80:184|124:156,1,105
124,156,17736,1,0
192,252,17906,1,0
208,236,17992,1,0
228,220,18077,6,0,B|268:188|268:188|324:172,1,105
476,348,18588,2,0,B|428:348|428:348|392:288,1,105
320,228,19099,2,0,B|304:280|304:280|284:280,1,70
288,280,19440,2,0,B|236:264|180:280,1,105
36,152,19952,2,0,B|88:168|144:152,1,105
140,152,20463,2,0,B|156:100|156:100|176:100,1,70
291,108,20804,6,0,B|347:156|420:156,1,140
348,276,21315,2,0,B|292:228|219:228,1,140
128,208,21827,1,0
52,260,21997,1,0
52,260,22168,6,0,B|96:288|96:288|160:300,1,105
388,192,22679,2,0,B|344:220|344:220|280:232,1,105
256,352,23190,1,0
256,352,23361,1,0
368,284,23531,5,0
372,280,23872,1,0
376,276,24213,1,0
380,272,24554,1,0
472,88,24895,6,0,B|364:88,1,105
324,192,25406,2,0,B|436:192,1,105
428,192,25747,1,0
476,328,25918,1,0
476,328,26088,1,0
476,328,26259,6,0,B|444:312|444:312|428:272|428:272|404:260,1,105
296,284,26770,2,0,B|272:296|272:296|256:336|256:336|224:351,1,105
92,320,27281,1,0
156,188,27452,1,0
156,188,27537,1,0
156,188,27622,6,0,B|136:228|148:272|148:272|172:284,1,105
356,188,28134,2,0,B|376:228|364:272|364:272|340:284,1,105
256,120,28645,2,0,B|256:192,1,70
188,248,28986,5,0
324,248,29157,1,0
184,252,29327,1,0
328,252,29498,1,0
180,256,29668,1,0
332,256,29839,1,0
176,260,30009,1,0
336,260,30179,1,0
172,328,30350,5,0
172,328,30520,1,0
340,328,30691,1,0
340,328,30861,1,0
172,328,31032,1,0
172,328,31202,1,0
340,328,31373,1,0
340,328,31543,1,0
256,328,31713,6,0,B|256:368,14,35
120,352,33077,1,4
396,228,33332,1,4
92,52,33588,1,4
92,52,33759,1,0
84,88,33844,1,0
80,120,33929,1,0
88,156,34014,1,0
104,188,34099,1,8
116,352,34440,6,0,B|220:352,1,105,4|0
220,352,34781,1,8
64,288,34952,2,0,B|180:288,1,105
168,288,35293,1,0
256,96,35463,1,8
256,288,35634,1,0
396,224,35804,6,0,B|288:224,1,105
292,224,36145,1,8
448,160,36315,2,0,B|340:160,1,105
344,160,36656,1,8
320,64,36827,1,0
216,64,36997,1,0
144,140,37168,6,0,B|176:160|176:160|284:160,1,140,0|8
360,336,37679,2,0,B|292:336,1,70
152,264,38020,2,0,B|220:264,1,70,0|8
328,264,38361,1,0
328,264,38531,2,0,B|352:252|352:252|376:208|376:208|404:192,1,105,0|8
400,194,38873,1,8
292,156,39043,2,0,B|268:168|268:168|244:212|244:212|216:228,1,105,0|8
220,228,39384,1,8
36,228,39554,1,0
56,244,39639,1,0
76,260,39724,1,8
96,276,39810,1,0
116,292,39895,6,0,B|172:308|172:308|228:308,1,105
218,308,40236,1,8
396,240,40406,2,0,B|340:224|340:224|284:224,1,105
292,224,40747,1,8
220,308,40918,1,8
144,232,41088,1,0
92,136,41259,6,0,B|120:120|120:120|148:136|148:136|224:136,1,140,0|8
420,32,41770,2,0,B|392:48|392:48|364:32|364:32|288:32,1,140,0|8
220,112,42281,1,0
316,156,42452,1,0
328,176,42537,1,0
340,196,42622,6,0,B|464:196,1,105
445,196,42963,1,8
396,352,43134,2,0,B|292:352,1,105
292,352,43474,1,0
196,312,43645,1,8
220,208,43815,1,0
320,240,43986,5,0
320,240,44242,1,0
320,240,44497,1,0
220,104,44668,1,0
220,104,44923,1,0
368,156,45179,1,8
368,156,45349,6,0,B|384:192,1,35
476,320,45605,2,0,B|456:352,1,35
292,328,45861,2,0,B|276:292,1,35
148,192,46117,2,0,B|128:228,1,35
220,192,46372,1,8
232,212,46457,1,0
244,232,46543,1,0
256,252,46628,1,0
268,272,46713,6,0,B|380:272,1,105
373,272,47054,1,8
256,352,47224,2,0,B|132:352,1,105
104,348,47651,2,0,B|76:300,1,35,0|8
180,256,47906,2,0,B|156:220,1,35
256,88,48077,6,0,B|300:64|300:64|364:64,1,105,0|0
356,64,48418,1,8
480,160,48588,2,0,B|328:160,1,140
248,240,49099,1,8
292,348,49270,1,0
316,348,49355,1,0
340,348,49440,6,0,B|480:348,1,140,0|8
444,248,49952,2,0,B|400:224|400:224|336:224,1,105
348,224,50293,1,8
256,172,50463,5,0
232,164,50548,1,0
208,156,50634,1,0
184,148,50719,1,0
160,140,50804,6,0,B|124:160,1,35
36,264,51060,2,0,B|68:284,1,35,0|8
272,324,51315,2,0,B|244:360,1,35
68,280,51571,2,0,B|104:260,1,35
256,240,51827,1,8
280,248,51912,1,0
304,256,51997,1,0
328,264,52082,1,0
352,272,52168,6,0,B|400:252|400:252|464:252,1,105
453,252,52509,1,8
472,136,52679,2,0,B|424:160|424:160|368:160,1,105
372,160,53020,1,8
176,120,53190,1,0
180,120,53276,1,0
184,120,53361,1,0
188,120,53446,1,0
192,120,53531,6,0,B|220:88|296:88|324:124,1,140
138,228,54043,2,0,B|124:196|140:160,2,70
320,264,54554,2,0,B|296:296|220:296|192:264,1,140
372,160,55065,2,0,B|388:196|373:228,1,70
256,192,55407,12,0,56259
192,140,63878,6,0,B|256:156|256:156|336:136,1,140
344,228,64830,1,0
256,348,65306,1,0
172,228,65782,1,0
76,192,66020,6,0,B|120:192,1,35
256,108,66378,1,0
272,132,66497,1,0
288,156,66616,1,0
392,260,66854,2,0,B|340:260,1,35
220,260,67211,5,0
236,284,67330,1,0
252,308,67449,1,0
268,332,67568,1,0
284,352,67687,1,0
480,328,67925,2,0,B|480:284,1,35
392,156,68282,1,0
392,156,68401,1,0
392,156,68520,1,0
392,156,68639,6,0,B|360:224,1,70
256,228,68997,2,0,B|224:300,1,70
228,292,69354,1,0
32,144,69592,6,0,B|100:176|175:139,1,140
168,140,70187,1,0
168,140,70306,2,0,B|168:96,1,35
356,228,70663,2,0,B|356:264,1,35
356,264,71020,1,0
168,240,71258,5,0
168,240,71497,2,0,B|156:276|168:312,1,70
292,352,71973,1,0
316,348,72092,1,0
340,344,72211,1,0
364,340,72330,1,0
388,336,72449,5,8
476,192,72687,1,8
452,196,72806,1,8
428,200,72925,1,8
256,228,73163,2,8,B|232:232,3,17.5
256,228,73401,2,0,B|292:276|268:328|268:328|224:344,1,140,0|8
56,292,74088,2,0,B|20:244|44:192|44:192|88:176,1,140
180,160,74775,1,8
220,64,75004,1,0
240,80,75118,1,0
260,96,75233,6,0,B|316:140|316:140|388:140,1,140,0|8
440,228,75920,1,0
416,228,76034,1,0
392,228,76149,2,0,B|344:288,1,70
204,348,76721,1,0
204,348,76836,1,8
308,352,77065,1,0
144,224,77506,6,0,B|216:224,1,70
216,224,77837,1,0
368,156,78057,1,0
368,156,78167,2,0,B|296:156,1,70,0|8
252,76,78609,1,0
228,76,78719,1,0
204,76,78829,1,0
148,224,79050,2,0,B|224:224,1,70
312,164,79491,5,0
320,188,79601,1,0
328,212,79712,1,0
328,236,79822,1,0
320,260,79932,1,0
312,284,80042,1,0
36,228,80263,1,0
60,232,80373,1,0
84,232,80484,1,0
108,228,80594,5,0
108,228,80806,1,0
108,228,81019,1,8
184,156,81232,2,0,B|224:148,1,35
392,36,81551,2,0,B|352:44,1,35
256,64,81870,1,8
308,156,82083,5,0
332,156,82189,1,0
356,156,82296,1,0
356,156,82501,2,0,B|392:180,1,35
476,252,82809,1,0
464,272,82912,1,0
452,292,83015,1,0
440,312,83117,1,0
344,352,83323,2,0,B|304:352,1,35
168,236,83631,2,0,B|204:236,1,35
116,324,83939,5,0
220,328,84137,1,0
168,236,84336,1,8
168,236,84535,2,0,B|184:196,1,35
344,148,84833,2,0,B|328:188,1,35
292,276,85131,1,8
364,352,85329,1,0
388,352,85429,1,0
412,352,85528,5,0
480,228,85816,1,8
480,228,86104,1,0
292,124,86297,1,0
284,124,86585,1,8
276,124,86874,1,0
268,124,87066,6,0,B|220:156|220:156|132:156,1,140,0|8
80,228,87625,1,0
124,308,87811,6,0,B|172:276|172:276|260:276,1,140,0|8
344,280,88370,1,0
356,300,88463,1,0
368,320,88556,5,0
256,352,88736,2,0,B|236:324,1,35
136,188,89007,2,0,B|160:224,1,35
156,216,89278,2,0,B|132:244|88:256,1,70
36,156,89549,2,0,B|60:128|104:116,1,70
92,120,89821,6,0,B|160:120,1,70
344,156,90351,1,8
364,244,90527,1,0
292,300,90702,2,0,B|152:300,1,140,0|8
256,192,91404,1,0
256,192,91744,1,0
76,228,92085,6,0,B|36:228,2,35
108,316,92426,2,0,B|72:316,2,35
108,316,92767,6,0,B|152:344|152:344|244:344,1,140,0|8
428,344,93429,1,0
332,188,93751,1,8
144,192,94074,1,0
324,188,94388,1,8
136,192,94702,1,0
316,188,95008,5,0
292,276,95161,1,0
260,364,95314,1,0
100,280,95612,2,0,B|140:304|140:304|232:304,1,140,8|0
416,316,96209,5,0
444,228,96358,1,0
476,136,96508,1,0
476,136,96792,1,0
400,84,96934,1,0
324,36,97076,1,0
324,36,97361,6,0,B|256:56,1,70
172,100,97645,2,0,B|240:120,1,70
316,164,97916,2,0,B|248:184,1,70
168,228,98187,2,0,B|236:248,1,70
324,276,98459,5,0
328,268,98595,1,0
332,260,98730,1,0
336,252,98859,1,0
340,244,98989,1,0
344,236,99119,1,0
348,228,99249,1,0
352,220,99379,1,0
356,212,99509,1,0
360,204,99639,1,0
440,156,99768,6,0,B|476:156,14,35
360,104,100763,2,0,B|396:104,16,35
256,192,101761,12,0,102741
148,156,103082,5,0
220,156,103253,1,0
292,156,103423,1,0
364,228,103594,1,0
292,228,103764,1,0
220,228,103934,1,0
220,228,104105,2,0,B|232:264,1,35
292,352,104446,6,0,B|400:352,1,105
396,352,104787,1,8
468,228,104957,2,0,B|360:228,1,105
364,228,105298,1,0
308,156,105469,1,0
216,156,105639,1,0
216,156,105809,6,0,B|168:124|112:116,1,105
36,228,106321,2,0,B|84:260|140:268,1,105
132,268,106662,1,8
216,280,106832,2,0,B|216:348,1,70
216,348,107173,5,0
308,348,107344,1,0
380,292,107514,1,0
368,272,107599,1,0
356,252,107684,1,0
344,232,107770,1,0
332,212,107855,2,0,B|260:212,1,70
188,156,108196,1,0
208,140,108281,1,0
228,124,108366,1,0
248,108,108451,1,0
268,92,108537,6,0,B|300:80|336:92,1,70
332,212,108878,1,0
316,228,108963,1,0
300,244,109048,1,0
280,260,109133,1,0
260,276,109219,2,0,B|228:288|192:276,2,70
332,336,109730,2,0,B|332:360,4,17.5
332,336,110156,6,0,B|352:336|352:336|372:300|372:300|424:284,1,105,0|8
480,156,110667,2,0,B|460:156|460:156|440:192|440:192|388:208,1,105,0|8
308,216,111094,1,0
256,140,111264,6,0,B|212:176|216:240,1,105
215,232,111605,1,0
88,284,111775,2,0,B|132:248|128:184,1,105
128,192,112116,1,8
128,191,112287,2,0,B|40:192,1,70
220,88,112628,6,0,B|204:124|220:160,1,70
244,156,112883,1,0
268,156,112969,1,0
344,192,113139,1,0
368,192,113224,1,0
392,192,113309,2,0,B|408:228|392:264,1,70
328,316,113650,2,0,B|292:316,4,35,8|8|0|0|0
256,192,114034,12,0,115014
480,132,115355,6,0,B|452:160|452:160|384:160,1,105
292,244,115866,2,0,B|314:276,1,35
388,160,116122,2,0,B|368:132,1,35
284,132,116378,1,8
208,168,116548,1,0
188,180,116633,1,0
168,192,116719,6,0,B|124:212|124:212|68:212,1,105
156,304,117230,2,0,B|200:284|200:284|256:284,1,105
256,284,117571,1,8
340,288,117741,1,0
344,264,117826,1,0
348,240,117912,1,0
352,216,117997,1,0
356,192,118082,6,0,B|460:192,1,105
460,192,118423,1,8
396,108,118594,2,0,B|292:108,1,105
292,108,118934,1,8
224,156,119105,2,0,B|208:192|208:192|224:224,1,70
292,264,119446,1,0
292,264,119701,1,8
292,264,119957,2,0,B|256:280,1,35
36,356,120213,2,0,B|72:340,1,35
144,308,120469,1,0
132,284,120554,1,0
120,260,120639,1,0
108,236,120724,1,0
96,212,120809,6,0,B|120:200|120:200|144:212|144:212|196:212,1,105
196,212,121150,1,8
416,172,121321,2,0,B|392:184|392:184|368:172|368:172|316:172,1,105
320,172,121662,1,8
316,172,121832,2,0,B|300:208|300:208|316:240,1,70
384,352,122173,2,0,B|344:316|288:316,1,105
288,316,122514,1,0
124,228,122684,2,0,B|164:264|220:264,1,105
220,264,123025,1,8
256,192,123196,6,0,B|256:120,2,70,0|0|4
256,192,123622,12,0,126264
