osu file format v14

[General]
AudioFilename: woobcer.mp3
AudioLeadIn: 0
PreviewTime: 98758
Countdown: 0
SampleSet: None
StackLeniency: 0.6
Mode: 0
LetterboxInBreaks: 0
WidescreenStoryboard: 1

[Editor]
Bookmarks: 44758,49216,86416
DistanceSpacing: 0.5
BeatDivisor: 4
GridSize: 32
TimelineZoom: 3.399999

[Metadata]
Title:Hypersonik
TitleUnicode:Hypersonik
Artist:Eagle
ArtistUnicode:Eagle
Creator:EvilElvis
Version:NeilPerry
Source:Beatmania IIDX SPADA
Tags:kors k NeilPerry
BeatmapID:1104818
BeatmapSetID:517959

[Difficulty]
HPDrainRate:6
CircleSize:4
OverallDifficulty:8
ApproachRate:9.3
SliderMultiplier:1.92
SliderTickRate:1

[Events]
//Background and Video events
0,0,"hypersonic.jpg",0,0
//Break Periods
2,77016,85862
//Storyboard Layer 0 (Background)
//Storyboard Layer 1 (Fail)
//Storyboard Layer 2 (Pass)
//Storyboard Layer 3 (Foreground)
//Storyboard Sound Samples

[TimingPoints]
16,342.857142857143,4,1,0,80,1,0
6187,-71.4285714285714,4,1,0,80,0,0
9616,-142.857142857143,4,1,0,80,0,0
10987,-100,4,1,0,80,0,0
13044,-71.4285714285714,4,1,0,80,0,0
13387,-125,4,1,0,80,0,0
14416,-71.4285714285714,4,1,0,80,0,0
14758,-100,4,1,0,80,0,0
16473,-71.4285714285714,4,1,0,80,0,0
16816,-125,4,1,0,80,0,0
17158,-71.4285714285714,4,1,0,80,0,0
17673,-62.5,4,1,0,80,0,0
18530,-71.4285714285714,4,1,0,80,0,0
18873,-71.4285714285714,4,1,0,10,0,0
19044,-100,4,1,0,80,0,0
19901,-71.4285714285714,4,1,0,80,0,0
20244,-62.5,4,1,0,80,0,0
20758,-83.3333333333333,4,1,0,80,0,0
21101,-71.4285714285714,4,1,0,80,0,0
21616,-125,4,1,0,80,0,0
21958,-125,4,1,0,30,0,0
23330,-125,4,1,0,40,0,0
24016,-125,4,1,0,50,0,0
24701,-100,4,1,0,50,0,0
25387,-100,4,1,0,55,0,0
26073,-100,4,1,0,60,0,0
26758,-100,4,1,0,65,0,0
27444,-83.3333333333333,4,1,0,70,0,0
28816,-83.3333333333333,4,1,0,80,0,0
31730,-83.3333333333333,4,1,0,30,0,0
32244,-83.3333333333333,4,1,0,80,0,0
32587,-125,4,1,0,80,0,0
32930,-71.4285714285714,4,1,0,80,0,0
35330,-58.8235294117647,4,1,0,80,0,0
36016,-71.4285714285714,4,1,0,80,0,0
36273,-58.8235294117647,4,1,0,80,0,0
37901,-52.6315789473684,4,1,0,80,0,0
38416,-62.5,4,1,0,80,0,0
38758,-125,4,1,0,80,0,0
39101,-71.4285714285714,4,1,0,80,0,0
39444,-62.5,4,1,0,80,0,0
40130,-125,4,1,0,80,0,0
40387,-71.4285714285714,4,1,0,80,0,0
40816,-125,4,1,0,80,0,0
41158,-71.4285714285714,4,1,0,80,0,0
41501,-50,4,1,0,80,0,0
41844,-100,4,1,0,80,0,0
42530,-71.4285714285714,4,1,0,80,0,0
43216,-62.5,4,1,0,80,0,0
43558,-71.4285714285714,4,1,0,80,0,0
44244,-58.8235294117647,4,1,0,80,0,0
45273,-66.6666666666667,4,1,0,80,0,0
46987,-76.9230769230769,4,1,0,80,0,0
48016,-62.5,4,1,0,80,0,0
48873,-100,4,1,0,80,0,0
49387,-71.4285714285714,4,1,0,80,0,0
49730,-58.8235294117647,4,1,0,80,0,0
50758,-66.6666666666667,4,1,0,80,0,0
51101,-58.8235294117647,4,1,0,80,0,0
52130,-100,4,1,0,80,0,0
52816,-66.6666666666667,4,1,0,80,0,0
52987,-125,4,1,0,80,0,0
54873,-83.3333333333333,4,1,0,80,0,0
55216,-62.5,4,1,0,80,0,0
55558,-71.4285714285714,4,1,0,80,0,0
56587,-62.5,4,1,0,80,0,0
57616,-100,4,1,0,80,0,0
57958,-62.5,4,1,0,80,0,0
58301,-55.5555555555556,4,1,0,80,0,0
58644,-142.857142857143,4,1,0,80,0,0
58987,-71.4285714285714,4,1,0,80,0,0
59330,-100,4,1,0,80,0,0
59673,-71.4285714285714,4,1,0,80,0,0
60016,-58.8235294117647,4,1,0,80,0,0
60358,-71.4285714285714,4,1,0,80,0,0
61730,-83.3333333333333,4,1,0,80,0,0
62073,-62.5,4,1,0,80,0,0
63101,-100,4,1,0,80,0,0
63444,-62.5,4,1,0,80,0,0
63787,-55.5555555555556,4,1,0,80,0,0
64130,-83.3333333333333,4,1,0,80,0,0
64816,-66.6666666666667,4,1,0,80,0,0
65244,-200,4,1,0,80,0,0
65501,-62.5,4,1,0,80,0,0
65844,-71.4285714285714,4,1,0,80,0,0
67216,-83.3333333333333,4,1,0,80,0,0
67558,-66.6666666666667,4,1,0,80,0,0
67901,-83.3333333333333,4,1,0,80,0,0
68587,-142.857142857143,4,1,0,80,0,0
68930,-66.6666666666667,4,1,0,80,0,0
69273,-55.5555555555556,4,1,0,80,0,0
69616,-142.857142857143,4,1,0,80,0,0
69958,-71.4285714285714,4,1,0,80,0,0
70301,-100,4,1,0,80,0,0
70558,-62.5,4,1,0,80,0,0
70987,-83.3333333333333,4,1,0,80,0,0
71330,-66.6666666666667,4,1,0,80,0,0
71673,-71.4285714285714,4,1,0,80,0,0
74073,-83.3333333333333,4,1,0,80,0,0
74416,-100,4,1,0,80,0,0
74758,-142.857142857143,4,1,0,80,0,0
76558,-200,4,1,0,80,0,0
86416,-100,4,1,0,80,0,0
87787,-100,4,1,0,40,0,0
92930,-83.3333333333333,4,1,0,40,0,0
93273,-83.3333333333333,4,1,0,80,0,0
93616,-125,4,1,0,80,0,0
95673,-83.3333333333333,4,1,0,80,0,0
98416,-200,4,1,0,80,0,0
98758,-50,4,1,0,80,0,1
99101,-66.6666666666667,4,1,0,80,0,1
100131,-50,4,1,0,80,0,1
100473,-66.6666666666667,4,1,0,80,0,1
101501,-50,4,1,0,80,0,1
101844,-66.6666666666667,4,1,0,80,0,1
102873,-50,4,1,0,80,0,1
103216,-66.6666666666667,4,1,0,80,0,1
104244,-50,4,1,0,80,0,1
104587,-66.6666666666667,4,1,0,80,0,1
105616,-50,4,1,0,80,0,1
105958,-66.6666666666667,4,1,0,80,0,1
107673,-62.5,4,1,0,80,0,1
108016,-55.5555555555556,4,1,0,80,0,1
108358,-50,4,1,0,80,0,1
109901,-83.3333333333333,4,1,0,80,0,1
110073,-55.5555555555556,4,1,0,80,0,1
110587,-71.4285714285714,4,1,0,80,0,1
110758,-100,4,1,0,80,0,1
111101,-50,4,1,0,80,0,1
111444,-66.6666666666667,4,1,0,80,0,1
112816,-55.5555555555556,4,1,0,80,0,1
113330,-71.4285714285714,4,1,0,80,0,1
113501,-100,4,1,0,80,0,1
114530,-58.8235294117647,4,1,0,80,0,1
115044,-142.857142857143,4,1,0,80,0,1
115216,-58.8235294117647,4,1,0,80,0,1
116073,-66.6666666666667,4,1,0,80,0,1
116244,-100,4,1,0,80,0,1
117958,-55.5555555555556,4,1,0,80,0,1
120701,-55.5555555555556,4,1,0,80,0,0

[Colours]
Combo1 : 21,251,141
Combo2 : 159,64,255
Combo3 : 255,106,255
Combo4 : 255,140,85

[HitObjects]
117,130,16,6,0,L|246:125,1,96
452,63,358,2,0,L|323:68,1,96
212,126,701,1,0,0:0:0:0:
253,286,2587,5,0,0:0:0:0:
253,273,2758,1,0,0:0:0:0:
253,273,3273,5,0,0:0:0:0:
253,273,3787,5,0,0:0:0:0:
256,192,4130,12,0,5330,0:0:0:0:
185,79,5501,6,0,B|157:112|157:112|162:191,1,96
268,362,5844,2,0,B|296:329|296:329|291:250,1,96
105,218,6187,2,0,B|143:230|143:230|167:208|167:208|196:218|196:218|215:209|241:213,1,134.399995898438
391,104,8073,5,0,0:0:0:0:
391,117,8158,1,0,0:0:0:0:
391,130,8244,1,0,0:0:0:0:
391,130,8758,5,0,0:0:0:0:
284,88,9101,5,0,0:0:0:0:
465,74,9273,1,0,0:0:0:0:
462,52,9616,6,0,B|419:17|419:17|317:29|317:29|283:78,1,201.599993847656
338,226,10301,1,0,0:0:0:0:
380,106,10473,1,0,0:0:0:0:
225,222,10644,1,0,0:0:0:0:
183,102,10816,1,0,0:0:0:0:
268,27,10987,6,0,B|292:62|292:62|285:151,1,96
263,313,11330,1,0,0:0:0:0:
269,312,11673,6,0,L|400:305,1,96
463,264,12016,1,0,0:0:0:0:
375,216,12187,2,0,P|357:258|376:325,1,96
468,253,12530,1,0,0:0:0:0:
367,90,12701,1,0,0:0:0:0:
367,90,13044,6,0,P|390:144|367:227,1,134.399995898438
263,361,13387,2,0,L|257:313,1,38.4
242,195,13558,1,0,0:0:0:0:
150,289,13730,1,0,0:0:0:0:
150,289,14073,5,0,0:0:0:0:
263,361,14244,2,0,L|257:313,1,38.4
283,134,14416,2,0,B|252:104|252:104|238:225,1,134.399995898438
376,286,14758,6,0,P|414:261|423:243,1,48
405,119,14930,1,0,0:0:0:0:
226,26,15101,6,0,P|188:51|179:69,1,48
241,194,15273,1,0,0:0:0:0:
320,40,15444,1,0,0:0:0:0:
272,32,15529,1,0,0:0:0:0:
225,25,15615,1,0,0:0:0:0:
44,88,15787,6,0,L|124:85,1,48
273,116,15958,1,0,0:0:0:0:
189,131,16044,2,0,P|168:163|162:200,1,48
271,361,16301,1,0,0:0:0:0:
297,290,16386,1,0,0:0:0:0:
234,249,16473,2,0,P|203:291|277:325,1,134.399995898438
473,232,16816,6,0,L|351:211,1,115.2
164,187,17158,2,0,P|162:236|248:225,1,134.399995898438
340,44,17501,1,0,0:0:0:0:
145,217,17673,6,0,P|143:266|233:250,1,153.6
341,36,18016,1,0,0:0:0:0:
343,28,18187,1,0,0:0:0:0:
460,259,18530,6,0,B|418:255|395:275|395:275|355:254|355:254|322:280|322:280|287:276|245:296,1,201.599993847656
174,303,18873,1,0,0:0:0:0:
436,381,19044,2,0,L|445:322,1,48
357,161,19216,2,0,P|411:187|436:170,1,96
294,86,19558,2,0,P|289:26|262:13,1,96
167,190,19901,6,0,B|248:126|261:233|374:149,1,201.599993847656
406,105,20244,2,0,P|373:151|324:166,1,76.8
240,71,20416,1,0,0:0:0:0:
304,101,20501,1,0,0:0:0:0:
347,45,20587,1,0,0:0:0:0:
360,256,20758,6,0,P|359:287|374:325,1,57.5999982421876
469,224,20930,2,0,P|440:196|401:180,1,57.5999982421876
305,171,21101,2,0,P|278:198|260:249,1,67.1999979492188
355,348,21273,2,0,P|411:332|428:313,1,67.1999979492188
385,0,21444,1,0,0:0:0:0:
379,68,21529,1,0,0:0:0:0:
370,136,21616,2,0,B|350:100|350:100|307:86|307:86|261:107,1,115.2
137,190,21958,6,0,P|170:188|183:183,1,38.4
209,171,22130,2,0,P|178:183|160:198,1,38.4
143,204,22301,2,0,P|176:202|189:197,1,38.4
215,185,22473,2,0,P|184:197|166:212,1,38.4
195,344,22644,6,0,P|162:342|149:337,1,38.4
123,325,22816,2,0,P|154:337|172:352,1,38.4
189,358,22987,2,0,P|156:356|143:351,1,38.4
117,339,23159,2,0,P|148:351|166:366,1,38.4
262,269,23330,6,0,P|295:267|308:262,1,38.4
334,250,23502,2,0,P|303:262|285:277,1,38.4
268,283,23673,2,0,P|301:281|314:276,1,38.4
340,264,23845,2,0,P|309:276|291:291,1,38.4
372,149,24016,6,0,P|339:147|326:142,1,38.4
300,130,24188,2,0,P|331:142|349:157,1,38.4
366,163,24359,2,0,P|333:161|320:156,1,38.4
294,144,24531,2,0,P|325:156|343:171,1,38.4
128,144,24701,6,0,P|164:142|182:137,1,48
207,123,24873,2,0,P|173:137|147:155,1,48
135,160,25044,2,0,P|171:157|190:150,1,48
214,139,25216,2,0,P|180:152|160:170,1,48
313,257,25387,6,0,P|276:254|259:249,1,48
234,236,25559,2,0,P|268:249|294:267,1,48
307,272,25730,2,0,P|270:269|252:262,1,48
227,251,25902,2,0,P|261:264|280:281,1,48
107,348,26073,6,0,P|144:345|161:340,1,48
186,327,26245,2,0,P|152:340|126:358,1,48
113,363,26416,2,0,P|150:360|168:353,1,48
193,342,26588,2,0,P|159:355|140:372,1,48
401,345,26758,6,0,P|364:342|347:337,1,48
322,324,26930,2,0,P|356:337|382:355,1,48
395,360,27101,2,0,P|358:357|340:350,1,48
315,339,27273,2,0,P|349:352|368:369,1,48
201,234,27444,6,0,P|247:233|269:219,1,57.5999982421876
389,137,27616,2,0,P|343:138|321:152,1,57.5999982421876
207,248,27787,2,0,P|253:247|275:233,1,57.5999982421876
395,151,27959,2,0,P|349:152|327:166,1,57.5999982421876
404,306,28130,6,0,P|428:277|433:238,1,57.5999982421876
424,103,28301,2,0,P|404:123|394:150,1,57.5999982421876
389,301,28473,2,0,P|413:272|418:233,1,57.5999982421876
409,98,28644,2,0,P|389:118|379:145,1,57.5999982421876
298,232,28816,6,0,P|254:238|222:252,1,57.5999982421876
125,369,28987,2,0,P|153:366|181:358,1,57.5999982421876
293,220,29158,2,0,P|249:226|217:240,1,57.5999982421876
120,357,29329,2,0,P|148:354|176:346,1,57.5999982421876
137,243,29501,6,0,P|134:196|141:167,1,57.5999982421876
215,27,29673,2,0,P|218:74|211:103,1,57.5999982421876
150,246,29844,2,0,P|147:199|154:170,1,57.5999982421876
228,30,30016,2,0,P|231:77|224:106,1,57.5999982421876
244,204,30187,5,0,0:0:0:0:
278,202,30272,1,0,0:0:0:0:
309,187,30358,1,0,0:0:0:0:
330,161,30444,1,0,0:0:0:0:
342,82,30530,5,0,0:0:0:0:
375,87,30615,1,0,0:0:0:0:
404,106,30701,1,0,0:0:0:0:
422,136,30787,1,0,0:0:0:0:
430,215,30873,5,0,0:0:0:0:
396,222,30958,1,0,0:0:0:0:
362,218,31044,1,0,0:0:0:0:
331,203,31130,1,0,0:0:0:0:
263,130,31216,5,0,0:0:0:0:
257,187,31301,1,0,0:0:0:0:
251,244,31387,1,0,0:0:0:0:
245,301,31473,1,0,0:0:0:0:
237,362,31558,5,0,0:0:0:0:
107,303,31730,2,0,P|98:317|89:343,10,28.7999991210938
237,362,32244,1,0,0:0:0:0:
396,216,32416,1,0,0:0:0:0:
274,195,32587,2,0,B|318:205|318:205|335:195|335:195|350:209|350:209|408:219,1,115.2
402,324,32930,6,0,B|455:297|455:297|487:220|487:220|465:145,1,201.599993847656
422,23,33273,2,0,L|409:121,1,67.1999979492188
379,214,33444,1,0,0:0:0:0:
379,214,33530,1,0,0:0:0:0:
379,214,33616,2,0,L|309:254,1,67.1999979492188
182,312,33787,2,0,L|252:352,1,67.1999979492188
195,224,33958,2,0,B|87:214|110:305|-5:304,1,201.599993847656
32,173,34301,6,0,P|46:137|71:111,1,67.1999979492188
206,29,34473,1,0,0:0:0:0:
206,29,34558,1,0,0:0:0:0:
206,29,34644,2,0,P|217:80|200:120,1,67.1999979492188
195,224,34816,1,0,0:0:0:0:
195,224,34901,2,0,P|258:239|287:312,1,134.399995898438
199,363,35158,2,0,P|154:334|144:299,1,67.1999979492188
64,102,35330,2,0,P|24:183|135:151,1,244.80000466919
274,253,35673,6,0,B|221:260|195:223|195:223|172:263|131:290|86:299|35:290,1,244.80000466919
3,270,36016,2,0,P|45:292|84:287,1,67.1999979492188
241,141,36187,1,0,0:0:0:0:
301,83,36273,2,0,B|270:61|270:61|248:95|248:95|263:135|263:135|253:204,1,163.200003112793
438,222,36530,1,0,0:0:0:0:
438,222,36616,1,0,0:0:0:0:
438,222,36701,2,0,B|398:215|366:243|366:243|316:223|316:223|277:254|277:254|238:246|178:275,1,244.80000466919
124,363,37044,6,0,P|93:325|86:287,1,81.6000015563965
133,30,37216,1,0,0:0:0:0:
133,30,37301,1,0,0:0:0:0:
133,30,37387,2,0,P|164:75|161:122,1,81.6000015563965
97,172,37558,1,0,0:0:0:0:
97,189,37644,1,0,0:0:0:0:
98,205,37730,2,0,L|218:197,1,81.6000015563965
317,24,37901,6,0,B|282:58|282:58|311:111,1,91.1999975646973
465,245,38073,2,0,B|500:211|500:211|471:158,1,91.1999975646973
402,93,38244,2,0,L|386:224,1,91.1999975646973
251,297,38416,6,0,B|359:207|359:324|477:236,1,230.4
404,291,38758,2,0,L|311:283,1,76.8
104,241,39016,1,0,0:0:0:0:
112,262,39101,2,0,L|212:271,1,67.1999979492188
349,190,39273,2,0,L|249:199,1,67.1999979492188
155,74,39444,2,0,B|209:30|209:30|189:206,1,230.4
346,228,39787,6,0,B|261:234|261:234|215:272|215:272|123:293,1,230.4
226,308,40130,2,0,L|338:301,1,76.8
438,177,40387,2,0,B|464:217|464:217|444:323,1,134.399995898438
346,228,40644,2,0,L|352:152,1,67.1999979492188
295,19,40816,2,0,L|290:89,1,38.4
188,140,40987,1,0,0:0:0:0:
188,140,41073,1,0,0:0:0:0:
188,140,41158,6,0,P|156:92|156:57,1,67.1999979492188
258,201,41330,2,0,P|241:229|188:254,1,67.1999979492188
25,216,41501,2,0,B|75:198|75:198|124:226,1,96
74,312,41673,5,0,0:0:0:0:
73,297,41758,1,0,0:0:0:0:
70,283,41844,2,0,L|58:344,1,48
197,325,42016,2,0,L|209:386,1,48
315,325,42187,2,0,L|305:372,1,48
442,283,42358,2,0,L|451:330,1,48
256,223,42530,6,0,B|380:211|353:296|454:281,1,201.599993847656
450,168,42873,2,0,P|455:137|444:85,1,67.1999979492188
299,91,43044,5,0,0:0:0:0:
298,105,43130,1,0,0:0:0:0:
227,82,43216,2,0,L|140:73,1,76.8
57,156,43387,5,0,0:0:0:0:
54,172,43473,1,0,0:0:0:0:
131,165,43558,2,0,L|235:176,1,67.1999979492188
254,303,43730,2,0,P|217:324|171:326,1,67.1999979492188
11,269,43901,6,0,B|125:247|92:355|219:324,1,201.599993847656
188,179,44244,2,0,P|153:200|222:224,1,163.200003112793
412,134,44501,1,0,0:0:0:0:
433,162,44587,2,0,L|337:151,1,81.6000015563965
106,188,44758,2,0,L|202:177,1,81.6000015563965
296,48,44930,2,0,B|256:14|256:14|276:215,1,244.80000466919
339,337,45273,6,0,B|307:328|293:303|293:303|238:311|238:311|209:265|209:265|175:270|130:253,1,216.000008239746
162,262,45616,1,0,0:0:0:0:
215,99,45787,5,0,0:0:0:0:
215,99,45873,2,0,B|321:132|321:132|290:152,1,144.000005493164
269,267,46130,2,0,L|347:308,1,72.0000027465821
457,231,46301,2,0,B|398:247|398:247|308:200|308:200|291:144,1,216.000008239746
407,162,46644,6,0,B|495:209|495:209|450:234,1,144.000005493164
269,267,46987,2,0,L|254:341,1,62.3999971435548
128,360,47158,1,0,0:0:0:0:
128,360,47244,1,0,0:0:0:0:
128,360,47330,2,0,L|113:286,1,62.3999971435548
210,144,47501,1,0,0:0:0:0:
209,159,47587,1,0,0:0:0:0:
250,232,47673,2,0,P|176:189|123:264,1,187.199991430664
122,256,48016,6,0,B|138:141|91:79|91:79|88:124|75:150,1,230.4
15,95,48358,2,0,L|95:79,1,76.8
254,26,48530,1,0,0:0:0:0:
254,26,48616,1,0,0:0:0:0:
254,26,48701,1,0,0:0:0:0:
251,283,48873,6,0,P|291:279|312:272,1,48
387,153,49044,2,0,P|363:120|346:105,1,48
167,106,49216,2,0,P|150:142|146:164,1,48
240,360,49387,6,0,L|268:129,1,201.599993847656
379,23,49730,2,0,B|418:50|418:50|417:125|417:125|373:165,1,163.200003112793
192,224,49987,2,0,B|230:201|265:159|265:159|258:190|277:225,1,163.200003112793
494,83,50244,2,0,B|451:69|451:69|393:83,1,81.6000015563965
209,78,50416,1,0,0:0:0:0:
197,124,50501,1,0,0:0:0:0:
160,156,50587,1,0,0:0:0:0:
112,159,50673,1,0,0:0:0:0:
100,77,50758,6,0,B|87:120|118:162|118:162|84:158|84:158|107:212|75:268,1,216.000008239746
17,217,51101,2,0,B|101:205|79:289|187:270,1,163.200003112793
255,328,51358,2,0,P|195:295|137:360,1,163.200003112793
356,360,51616,2,0,P|375:324|370:260,1,81.6000015563965
273,171,51787,1,0,0:0:0:0:
318,183,51872,1,0,0:0:0:0:
363,166,51958,1,0,0:0:0:0:
389,125,52044,1,0,0:0:0:0:
311,104,52130,6,0,B|249:82|249:82|163:105,1,144
50,228,52473,5,0,0:0:0:0:
66,231,52558,1,0,0:0:0:0:
76,160,52644,5,0,0:0:0:0:
91,162,52730,1,0,0:0:0:0:
102,92,52816,6,0,L|179:102,1,72.0000027465821
175,200,52987,6,0,L|176:253,1,38.4
374,186,53158,2,0,L|354:248,1,38.4
266,310,53330,2,0,L|262:362,1,38.4
99,321,53501,5,0,0:0:0:0:
430,269,53844,1,0,0:0:0:0:
245,53,54187,1,0,0:0:0:0:
204,131,54358,5,0,0:0:0:0:
241,138,54443,1,0,0:0:0:0:
279,134,54529,1,0,0:0:0:0:
180,150,54701,5,0,0:0:0:0:
239,172,54786,1,0,0:0:0:0:
300,150,54873,2,0,B|260:149|252:129|252:129|238:135|238:135|229:125|229:125|215:132|215:132|174:154|110:117,1,172.799994726563
68,79,55216,2,0,B|40:111|40:111|61:167,1,76.8
184,321,55387,5,0,0:0:0:0:
184,321,55473,1,0,0:0:0:0:
184,321,55558,2,0,B|140:292|140:292|46:304,1,134.399995898438
297,240,55816,1,0,0:0:0:0:
297,318,55901,2,0,P|320:345|358:358,1,67.1999979492188
431,257,56073,1,0,0:0:0:0:
431,257,56158,1,0,0:0:0:0:
431,257,56244,6,0,L|343:283,1,67.1999979492188
282,135,56416,2,0,L|367:111,1,67.1999979492188
483,147,56587,2,0,B|426:159|426:159|397:184|397:184|301:210,1,153.6
212,175,56844,2,0,P|204:117|220:83,1,76.8
474,70,57101,6,0,L|484:163,1,76.8
404,275,57273,1,0,0:0:0:0:
431,102,57444,2,0,L|422:19,1,76.8
270,270,57616,6,0,B|287:281|318:271|318:271|345:289|345:289|371:277|371:277|391:268|432:281,1,144
394,184,57958,2,0,B|370:161|353:130|353:130|337:209|337:209|352:245|343:309,1,230.4
172,260,58301,2,0,B|203:261|215:280|215:280|237:280|246:259|246:259|263:277|301:263,2,115.199996484375
96,233,58644,2,0,P|29:189|15:156,1,100.799996923828
119,72,58987,6,0,P|88:122|172:92,1,201.599993847656
183,84,59330,2,0,P|153:102|171:52,1,96
309,52,59587,1,0,0:0:0:0:
302,126,59673,2,0,L|292:221,1,67.1999979492188
228,341,59844,2,0,P|199:324|178:291,1,67.1999979492188
483,210,60016,2,0,B|369:176|377:287|256:269,1,244.80000466919
138,241,60358,6,0,P|114:247|180:275,1,201.599993847656
219,170,60701,2,0,P|223:142|217:89,1,67.1999979492188
18,135,60873,1,0,0:0:0:0:
18,135,60958,1,0,0:0:0:0:
18,135,61044,2,0,B|77:117|77:117|163:139,1,134.399995898438
346,75,61301,1,0,0:0:0:0:
285,121,61387,2,0,L|190:95,1,67.1999979492188
72,225,61558,2,0,L|159:246,1,67.1999979492188
299,286,61730,6,0,P|308:322|297:365,1,57.5999982421876
140,297,61901,2,0,P|134:269|143:224,1,57.5999982421876
220,103,62073,2,0,B|267:69|267:69|229:256,1,230.4
208,355,62416,1,0,0:0:0:0:
330,168,62587,6,0,L|351:65,1,76.8
125,48,62758,2,0,B|65:62|65:62|166:115|166:115|231:100,1,230.4
349,73,63101,6,0,B|294:72|294:72|261:105|261:105|194:100,1,144
168,227,63444,2,0,P|197:185|244:287,1,230.4
151,313,63787,2,0,B|176:307|176:307|193:349|239:361|239:361|257:383,2,115.199996484375
81,370,64130,2,0,B|57:321|75:278|75:278|92:236|73:186,1,172.799994726563
27,104,64473,5,0,0:0:0:0:
168,227,64644,1,0,0:0:0:0:
185,27,64816,2,0,L|172:139,1,72.0000027465821
168,227,64987,1,0,0:0:0:0:
168,227,65073,2,0,P|230:213|254:202,1,72.0000027465821
405,123,65244,6,0,P|370:114|351:114,1,48
266,129,65501,2,0,B|381:98|356:223|504:204,1,230.4
445,278,65844,6,0,B|440:239|471:206|471:206|386:230|379:310,1,201.599993847656
295,384,66187,2,0,L|315:306,1,67.1999979492188
266,129,66359,1,0,0:0:0:0:
266,129,66444,1,0,0:0:0:0:
266,129,66530,2,0,B|285:171|285:171|262:274,1,134.399995898438
176,206,66787,1,0,0:0:0:0:
98,224,66873,2,0,L|3:250,1,67.1999979492188
136,324,67044,2,0,L|223:345,1,67.1999979492188
363,342,67216,6,0,P|380:312|387:272,1,57.5999982421876
265,128,67387,1,0,0:0:0:0:
397,134,67558,2,0,B|360:134|337:109|337:109|305:139|244:123,1,144.000005493164
143,83,67816,1,0,0:0:0:0:
143,83,67901,2,0,P|137:123|149:160,1,57.5999982421876
223,280,68073,1,0,0:0:0:0:
279,48,68244,1,0,0:0:0:0:
452,208,68416,1,0,0:0:0:0:
236,133,68587,6,0,P|184:191|186:242,1,100.799996923828
258,206,68930,2,0,B|216:192|184:210|184:210|189:185|189:185|144:208|106:207|71:186,1,216.000008239746
88,88,69273,2,0,P|136:126|165:69,2,115.199996484375
23,128,69616,2,0,B|-5:165|-5:165|1:246,1,100.799996923828
134,296,69958,6,0,P|165:346|81:316,1,201.599993847656
70,308,70301,2,0,P|100:326|82:276,1,96
79,190,70558,2,0,L|187:182,1,76.8
343,120,70758,5,0,0:0:0:0:
262,66,70873,5,0,0:0:0:0:
264,174,70987,6,0,P|233:133|171:203,1,172.799994726563
336,229,71330,6,0,B|298:239|272:274|272:274|235:256|235:256|209:283|209:283|165:265|133:299,1,216.000008239746
244,372,71673,2,0,P|248:344|242:291,1,67.1999979492188
100,215,71844,1,0,0:0:0:0:
100,215,71930,1,0,0:0:0:0:
100,215,72016,2,0,B|70:240|70:240|60:300|60:300|87:341,1,134.399995898438
299,300,72273,1,0,0:0:0:0:
220,290,72358,2,0,L|139:281,1,67.1999979492188
1,363,72530,2,0,L|82:354,1,67.1999979492188
237,379,72701,6,0,P|239:346|229:297,1,67.1999979492188
102,206,72873,1,0,0:0:0:0:
315,208,73044,2,0,B|261:180|261:180|149:200,1,134.399995898438
90,124,73301,2,0,L|243:98,1,134.399995898438
387,160,73558,6,0,P|399:197|397:253,1,67.1999979492188
354,356,73730,1,0,0:0:0:0:
385,145,73901,2,0,P|394:107|419:67,1,67.1999979492188
481,228,74073,2,0,B|380:217|404:282|276:269,1,172.799994726563
240,210,74416,2,0,B|192:268|192:268|235:328,1,144
332,193,74758,2,0,L|329:168,14,16.7999994873047
221,93,75444,6,0,L|284:90,1,33.5999989746094
374,88,75616,1,0,0:0:0:0:
374,88,75701,1,0,0:0:0:0:
333,208,75873,1,0,0:0:0:0:
333,208,75958,2,0,L|322:261,1,33.5999989746094
272,348,76130,2,0,L|267:327,9,16.7999994873047
358,316,76558,2,0,P|395:281|402:271,1,48
444,207,76816,5,0,0:0:0:0:
150,157,86416,6,0,L|275:154,1,96
399,84,86758,1,0,0:0:0:0:
372,64,86843,1,0,0:0:0:0:
339,68,86929,1,0,0:0:0:0:
318,92,87015,1,0,0:0:0:0:
318,125,87100,1,0,0:0:0:0:
409,213,87273,1,0,0:0:0:0:
409,231,87358,1,0,0:0:0:0:
408,248,87444,1,0,0:0:0:0:
481,350,87616,1,0,0:0:0:0:
355,345,87787,6,0,L|247:338,1,96
137,289,88130,1,0,0:0:0:0:
151,289,88387,2,0,L|138:396,1,96
54,383,88644,2,0,L|63:318,1,48
0,225,88816,2,0,B|58:214|97:225|97:225|79:236|66:264,1,144
237,162,89158,6,0,B|179:151|140:162|140:162|158:173|171:201,1,144
98,226,89501,1,0,0:0:0:0:
352,226,89758,2,0,L|481:223,1,96
496,128,90016,2,0,L|442:129,1,48
361,125,90187,2,0,P|316:159|369:227,1,144
351,225,90530,6,0,L|342:372,1,144
257,331,90873,1,0,0:0:0:0:
257,316,91130,2,0,L|156:309,1,96
97,265,91387,2,0,P|125:241|148:229,1,48
231,95,91558,2,0,B|204:138|204:138|216:261,1,144
318,383,91901,6,0,B|345:340|345:340|333:217,1,144
416,149,92244,1,0,0:0:0:0:
418,132,92501,2,0,P|370:138|339:193,1,96
447,226,92758,2,0,P|478:198|487:181,1,48
324,188,92930,2,0,B|239:169|243:236|159:234,1,172.799994726563
59,217,93273,5,0,0:0:0:0:
62,200,93358,1,0,0:0:0:0:
66,183,93444,1,0,0:0:0:0:
69,166,93530,1,0,0:0:0:0:
51,118,93616,2,0,L|39:185,1,38.4
167,117,93787,2,0,L|179:184,1,38.4
211,292,93958,5,0,0:0:0:0:
211,309,94044,1,0,0:0:0:0:
211,326,94130,1,0,0:0:0:0:
212,344,94215,1,0,0:0:0:0:
183,367,94301,2,0,P|164:345|155:322,1,38.4
286,255,94473,2,0,P|307:259|340:278,1,38.4
424,354,94644,5,0,0:0:0:0:
424,336,94729,1,0,0:0:0:0:
424,319,94815,1,0,0:0:0:0:
424,302,94901,1,0,0:0:0:0:
456,273,94987,2,0,P|468:244|473:225,1,38.4
434,110,95158,2,0,P|423:138|418:164,1,38.4
327,200,95330,5,0,0:0:0:0:
296,191,95415,1,0,0:0:0:0:
269,183,95501,1,0,0:0:0:0:
240,176,95587,1,0,0:0:0:0:
170,144,95673,2,0,P|212:139|240:141,1,57.5999982421876
367,278,95844,2,0,P|325:283|297:281,1,57.5999982421876
115,253,96016,5,0,0:0:0:0:
207,50,96187,1,0,0:0:0:0:
194,291,96358,5,0,0:0:0:0:
121,71,96530,1,0,0:0:0:0:
271,329,96701,5,0,0:0:0:0:
36,92,96872,1,0,0:0:0:0:
46,207,97044,5,0,0:0:0:0:
284,32,97215,1,0,0:0:0:0:
384,263,97387,6,0,L|236:248,1,115.199996484375
379,282,98073,6,0,L|231:267,1,115.199996484375
15,205,98416,2,0,L|108:214,1,72
167,226,98758,6,0,B|133:181|133:181|137:224|117:268|117:268|124:291|114:336,1,192
202,378,99016,1,0,0:0:0:0:
202,378,99101,2,0,L|205:299,1,72.0000027465821
211,90,99273,1,0,0:0:0:0:
211,90,99358,2,0,P|262:121|285:153,1,72.0000027465821
133,182,99530,1,0,0:0:0:0:
133,182,99616,2,0,P|90:177|59:158,1,72.0000027465821
135,17,99787,6,0,L|117:116,1,72.0000027465821
211,214,99958,2,0,L|229:313,1,72.0000027465821
208,364,100130,6,0,B|260:368|285:335|285:335|318:338|342:365,1,144.000005493164
492,354,100387,1,0,0:0:0:0:
492,354,100473,2,0,L|390:366,1,72.0000027465821
383,263,100644,1,0,0:0:0:0:
383,263,100730,2,0,P|395:213|422:172,1,72.0000027465821
458,48,100901,1,0,0:0:0:0:
458,48,100987,2,0,P|466:92|464:144,1,72.0000027465821
304,120,101158,5,0,0:0:0:0:
300,138,101244,1,0,0:0:0:0:
237,228,101330,5,0,0:0:0:0:
232,210,101415,1,0,0:0:0:0:
202,117,101501,6,0,B|70:99|70:99|104:122|122:151,1,192
60,253,101758,1,0,0:0:0:0:
60,253,101844,2,0,P|43:214|43:181,1,72.0000027465821
176,290,102016,1,0,0:0:0:0:
176,290,102102,2,0,P|193:329|193:362,1,72.0000027465821
31,348,102273,1,0,0:0:0:0:
31,348,102358,2,0,P|95:346|114:331,1,72.0000027465821
344,234,102530,6,0,L|260:225,1,72.0000027465821
73,102,102701,2,0,L|157:111,1,72.0000027465821
315,120,102873,6,0,B|269:100|228:133|228:133|204:187|123:197,1,192
29,243,103130,1,0,0:0:0:0:
29,243,103216,2,0,P|74:263|87:290,1,72.0000027465821
160,379,103387,1,0,0:0:0:0:
160,379,103473,2,0,P|180:334|207:321,1,72.0000027465821
344,234,103644,1,0,0:0:0:0:
344,234,103730,6,0,L|243:218,1,72.0000027465821
81,180,103901,2,0,L|182:196,1,72.0000027465821
262,46,104073,2,0,B|236:67|236:67|231:120,1,72.0000027465821
392,315,104244,6,0,B|436:283|436:283|442:193|442:193|400:155,1,192
272,229,104501,1,0,0:0:0:0:
272,229,104587,2,0,L|367:235,1,72.0000027465821
261,349,104758,1,0,0:0:0:0:
261,349,104844,2,0,L|166:355,1,72.0000027465821
79,248,105016,1,0,0:0:0:0:
79,248,105102,2,0,L|174:254,1,72.0000027465821
286,223,105273,6,0,P|285:176|265:135,1,72.0000027465821
180,30,105444,2,0,P|145:67|134:104,1,72.0000027465821
164,255,105616,6,0,P|206:221|118:209,1,192
92,333,105873,1,0,0:0:0:0:
92,333,105958,2,0,B|56:335|56:335|19:362,1,72.0000027465821
252,375,106130,1,0,0:0:0:0:
252,375,106216,1,0,0:0:0:0:
252,375,106301,2,0,B|250:339|250:339|223:302,1,72.0000027465821
121,189,106473,2,0,L|224:177,1,72.0000027465821
448,159,106644,5,0,0:0:0:0:
448,174,106730,1,0,0:0:0:0:
364,228,106816,5,0,0:0:0:0:
356,215,106901,1,0,0:0:0:0:
353,121,106987,6,0,B|325:170|325:170|321:296,1,144.000005493164
424,361,107244,1,0,0:0:0:0:
424,361,107330,2,0,P|383:336|346:329,1,72.0000027465821
123,337,107501,5,0,0:0:0:0:
123,337,107587,1,0,0:0:0:0:
123,337,107673,2,0,P|165:313|218:314,1,76.8
407,207,107844,5,0,0:0:0:0:
407,207,107929,1,0,0:0:0:0:
407,207,108015,2,0,P|354:193|303:204,1,76.8
146,18,108187,5,0,0:0:0:0:
146,18,108273,1,0,0:0:0:0:
146,18,108358,2,0,B|118:53|118:53|134:101,1,96
250,19,108530,2,0,B|278:54|278:54|257:114,1,96
85,176,108701,6,0,B|57:211|57:211|73:259,1,96
300,188,108873,2,0,B|328:223|328:223|307:283,1,96
116,356,109044,1,0,0:0:0:0:
116,356,109130,2,0,B|196:298|196:298|276:368,1,192
374,228,109387,5,0,0:0:0:0:
297,221,109472,1,0,0:0:0:0:
220,215,109558,1,0,0:0:0:0:
144,208,109644,1,0,0:0:0:0:
67,202,109729,1,0,0:0:0:0:
205,89,109901,6,0,L|286:85,1,57.5999982421876
385,47,110073,6,0,B|355:23|355:23|341:46|341:46|357:85|341:124|341:124|340:176,1,172.799994726563
443,258,110330,1,0,0:0:0:0:
458,262,110416,2,0,P|411:284|393:332,1,86.3999973632813
155,284,110587,2,0,P|202:306|215:347,1,67.1999979492188
296,370,110758,2,0,B|289:344|303:318|303:318|289:276|289:276|302:253|298:210,1,144
217,167,111101,6,0,B|266:132|266:132|338:135|338:135|405:184,1,192
364,54,111358,1,0,0:0:0:0:
364,54,111444,2,0,L|265:50,1,72.0000027465821
50,144,111616,1,0,0:0:0:0:
50,144,111701,1,0,0:0:0:0:
50,144,111787,2,0,B|120:143|160:107|160:107|126:147|142:200,1,216.000008239746
231,355,112130,5,0,0:0:0:0:
230,339,112216,1,0,0:0:0:0:
279,283,112301,5,0,0:0:0:0:
278,268,112387,1,0,0:0:0:0:
328,212,112473,6,0,B|372:82|372:82|284:152,1,216.000008239746
132,89,112816,2,0,B|153:48|153:48|233:29|233:29|273:52,1,172.799994726563
198,216,113073,1,0,0:0:0:0:
198,216,113158,2,0,L|214:115,1,86.3999973632813
82,243,113330,2,0,L|68:339,1,67.1999979492188
288,330,113501,2,0,B|236:295|236:295|202:304|202:304|120:290,1,144
135,166,113844,5,0,0:0:0:0:
151,149,113929,1,0,0:0:0:0:
173,137,114015,1,0,0:0:0:0:
196,133,114101,1,0,0:0:0:0:
220,136,114186,1,0,0:0:0:0:
241,146,114272,1,0,0:0:0:0:
298,204,114358,5,0,0:0:0:0:
293,281,114444,1,0,0:0:0:0:
287,364,114530,2,0,B|255:354|255:354|221:398,1,81.6000015563965
379,309,114701,2,0,B|411:299|411:299|445:343,1,81.6000015563965
197,258,114873,2,0,B|165:248|165:248|131:292,1,81.6000015563965
288,351,115044,2,0,L|284:405,1,33.5999989746094
404,218,115216,6,0,B|275:236|302:336|184:352,1,244.80000466919
24,309,115558,2,0,P|82:313|56:399,1,163.200003112793
162,247,115816,1,0,0:0:0:0:
162,247,115901,2,0,P|166:264|204:236,1,81.6000015563965
314,101,116073,2,0,P|310:84|274:107,1,72.0000027465821
118,134,116244,2,0,B|167:115|196:130|196:130|220:176|278:186,1,144
400,195,116587,5,0,0:0:0:0:
376,194,116672,1,0,0:0:0:0:
353,203,116758,1,0,0:0:0:0:
336,220,116844,1,0,0:0:0:0:
327,241,116929,1,0,0:0:0:0:
326,265,117015,1,0,0:0:0:0:
334,288,117101,1,0,0:0:0:0:
350,305,117187,1,0,0:0:0:0:
371,315,117272,5,0,0:0:0:0:
344,266,117358,1,0,0:0:0:0:
290,248,117444,1,0,0:0:0:0:
239,271,117530,1,0,0:0:0:0:
171,254,117615,5,0,0:0:0:0:
144,190,117701,1,0,0:0:0:0:
180,130,117787,1,0,0:0:0:0:
250,121,117873,1,0,0:0:0:0:
223,195,117958,6,0,P|216:147|77:133,1,172.799994726563
77,245,118216,1,0,0:0:0:0:
77,245,118301,2,0,P|53:270|118:379,1,172.799994726563
285,339,118558,1,0,0:0:0:0:
285,339,118644,2,0,P|249:289|131:318,1,172.799994726563
363,258,118901,1,0,0:0:0:0:
363,258,118987,6,0,P|385:228|447:210,1,86.3999973632813
254,171,119158,2,0,P|232:141|170:123,1,86.3999973632813
488,79,119330,6,0,B|367:70|361:189|236:170,1,259.199992089844
102,238,119673,5,0,0:0:0:0:
108,251,119758,1,0,0:0:0:0:
124,252,119844,1,0,0:0:0:0:
127,233,119930,1,0,0:0:0:0:
94,225,120016,5,0,0:0:0:0:
103,245,120101,1,0,0:0:0:0:
129,247,120187,1,0,0:0:0:0:
133,217,120273,1,0,0:0:0:0:
80,205,120358,5,0,0:0:0:0:
93,234,120443,1,0,0:0:0:0:
132,238,120529,1,0,0:0:0:0:
138,193,120615,1,0,0:0:0:0:
92,163,120701,5,0,0:0:0:0:
