osu file format v12

[General]
AudioFilename: VY2VY1V3.mp3
AudioLeadIn: 0
PreviewTime: 14120
Countdown: 0
SampleSet: Normal
StackLeniency: 0.7
Mode: 0
LetterboxInBreaks: 0

[Editor]
Bookmarks: 69407,97049,110764,131121
DistanceSpacing: 1.8
BeatDivisor: 4
GridSize: 4

[Metadata]
Title:Hurting for a Very Hurtful Pain
TitleUnicode:とても痛い痛がりたい
Artist:EZFG
ArtistUnicode:そっとうP
Creator:tutuhaha
Version:Insane
Source:
Tags:VY2 VY1V3 Vocaloid vocaloid2 VY1
BeatmapID:204672
BeatmapSetID:46848

[Difficulty]
HPDrainRate:7
CircleSize:4
OverallDifficulty:8
ApproachRate:8
SliderMultiplier:2.6
SliderTickRate:2

[Events]
//Background and Video events
0,0,"BG.jpg",0,0
Video,0,"VY2VY1V3.flv"
//Break Periods
2,97044,109799
//Storyboard Layer 0 (Background)
//Storyboard Layer 1 (Fail)
//Storyboard Layer 2 (Pass)
//Storyboard Layer 3 (Foreground)
//Storyboard Sound Samples
//Background Colour Transformations
3,100,0,0,0

[TimingPoints]
845,428.571428571429,4,1,1,80,1,0
7702,-100,4,1,1,50,0,0
11131,-100,4,1,1,60,0,0
13702,-100,4,1,1,70,0,0
14559,-100,4,1,1,80,0,0
53559,-100,4,1,1,60,0,0
55273,-100,4,2,1,60,0,0
55702,-100,4,1,1,80,0,0
94702,-100,4,1,1,60,0,0
96416,-100,4,2,1,40,0,0
96844,-100,4,2,1,50,0,0
110559,-100,4,1,1,70,0,0
124274,-100,4,2,1,50,0,0
127702,-100,4,2,1,60,0,0
130273,-100,4,2,1,70,0,0
131131,-100,4,1,1,80,0,0
146130,-100,4,1,1,60,0,0
149559,-100,4,2,1,40,0,0
151702,-100,4,1,1,80,0,0
165416,-100,4,1,1,90,0,0
179130,-100,4,1,1,100,0,0

[Colours]
Combo1 : 95,95,95
Combo2 : 255,0,0
Combo3 : 190,190,190

[HitObjects]
88,68,7702,2,0,P|156:88|188:156,1,130,8|8,0:0|0:0,0:0:0:0:
148,260,8130,1,8,0:0:0:0:
328,336,8452,1,0,0:0:0:0:
328,336,8559,2,0,P|300:272|324:208,1,130,8|8,0:0|0:0,0:0:0:0:
404,120,8987,1,8,0:0:0:0:
148,64,9416,6,0,P|68:84|88:248,1,260,8|8,0:0|0:0,0:0:0:0:
172,320,10059,1,8,0:0:0:0:
188,192,10273,2,0,L|220:128,2,65,8|0|8,0:0|0:0|0:0,0:0:0:0:
172,320,10702,1,8,0:0:0:0:
428,268,11130,6,0,P|416:196|348:156,1,130,8|8,0:0|0:0,0:0:0:0:
248,128,11559,1,8,0:0:0:0:
76,220,11880,1,0,0:0:0:0:
76,220,11987,2,0,P|132:264|212:248,1,130,8|8,0:0|0:0,0:0:0:0:
296,192,12416,1,8,0:0:0:0:
60,84,12844,6,0,P|168:40|248:144,1,260,8|8,0:0|0:0,0:0:0:0:
172,244,13487,2,0,L|128:296,1,65,8|0,0:0|0:0,0:0:0:0:
92,332,13702,2,0,P|160:328|220:368,1,130,8|8,0:0|0:0,0:0:0:0:
264,356,14023,1,0,0:0:0:0:
316,352,14130,2,0,L|460:328,1,130,8|8,0:0|0:0,0:0:0:0:
464,136,14559,6,0,B|336:160|336:160|248:128,1,195,12|0,0:0|0:0,0:0:0:0:
204,104,14987,2,0,L|48:32,1,130,8|0,0:0|0:0,0:0:0:0:
12,228,15416,5,8,0:0:0:0:
64,240,15523,1,0,0:0:0:0:
104,276,15630,1,0,0:0:0:0:
128,320,15737,1,0,0:0:0:0:
140,372,15844,2,0,P|208:360|248:308,1,130,8|0,0:0|0:0,0:0:0:0:
396,280,16273,6,0,L|264:224,1,130,12|0,0:0|0:0,0:0:0:0:
256,152,16594,1,0,0:0:0:0:
256,152,16702,2,0,L|104:152,1,130,8|0,0:0|0:0,0:0:0:0:
236,40,17130,5,8,0:0:0:0:
280,68,17237,1,0,0:0:0:0:
332,76,17344,1,0,0:0:0:0:
384,64,17452,1,0,0:0:0:0:
420,28,17559,2,0,P|472:88|464:160,1,130,8|0,0:0|0:0,0:0:0:0:
356,336,17987,6,0,P|320:260|388:176,1,195,12|0,0:0|0:0,0:0:0:0:
432,240,18416,2,0,P|452:272|428:368,1,130,8|0,0:0|0:0,0:0:0:0:
356,336,18737,5,0,0:0:0:0:
356,336,18845,2,0,L|280:368,1,65,8|0,0:0|0:0,0:0:0:0:
216,312,19059,2,0,L|275:286,1,65
288,212,19273,2,0,P|280:148|208:112,1,130,8|0,0:0|0:0,0:0:0:0:
88,48,19702,5,12,0:0:0:0:
56,88,19809,1,0,0:0:0:0:
44,140,19916,1,0,0:0:0:0:
52,192,20023,1,0,0:0:0:0:
72,240,20130,2,0,L|152:240,1,65,8|0,0:0|0:0,0:0:0:0:
233,336,20345,2,0,L|168:336,1,65
120,312,20559,5,8,0:0:0:0:
128,260,20666,1,0,0:0:0:0:
164,224,20773,1,0,0:0:0:0:
212,208,20880,1,0,0:0:0:0:
264,216,20987,2,0,P|320:264|388:264,1,130,8|0,0:0|0:0,0:0:0:0:
480,32,21416,6,0,P|384:44|352:152,1,195,12|0,0:0|0:0,0:0:0:0:
356,204,21845,2,0,P|432:228|488:200,1,130,8|0,0:0|0:0,0:0:0:0:
472,132,22166,5,0,0:0:0:0:
472,132,22273,2,0,L|392:104,1,65,8|0,0:0|0:0,0:0:0:0:
400,20,22487,2,0,L|461:41,1,65
410,110,22702,2,0,P|336:136|276:100,1,130,8|0,0:0|0:0,0:0:0:0:
68,52,23130,6,0,P|112:112|100:184,1,130,12|0,0:0|0:0,0:0:0:0:
72,236,23452,1,0,0:0:0:0:
72,236,23559,2,0,L|184:352,1,130,8|0,0:0|0:0,0:0:0:0:
256,204,23987,5,8,0:0:0:0:
280,160,24095,1,0,0:0:0:0:
324,132,24202,1,0,0:0:0:0:
376,128,24309,1,0,0:0:0:0:
428,136,24416,2,0,P|476:84|488:20,1,130,8|0,0:0|0:0,0:0:0:0:
256,52,24845,6,0,P|168:40|80:112,1,195,12|0,0:0|0:0,0:0:0:0:
64,176,25273,2,0,P|92:240|160:272,1,130,8|0,0:0|0:0,0:0:0:0:
204,316,25595,5,0,0:0:0:0:
204,316,25702,2,0,P|240:256|328:260,1,130,8|0,0:0|0:0,0:0:0:0:
372,248,26023,1,0,0:0:0:0:
372,248,26130,2,0,L|496:156,1,130,8|0,0:0|0:0,0:0:0:0:
296,24,26559,5,12,0:0:0:0:
256,60,26666,1,0,0:0:0:0:
244,112,26773,1,0,0:0:0:0:
248,164,26880,1,0,0:0:0:0:
280,204,26987,1,8,0:0:0:0:
240,236,27095,1,0,0:0:0:0:
188,244,27202,1,0,0:0:0:0:
140,224,27309,1,0,0:0:0:0:
108,180,27416,6,0,L|80:112,1,65,8|0,0:0|0:0,0:0:0:0:
144,44,27630,2,0,L|168:104,1,65
108,180,27845,2,0,L|76:364,1,130,8|0,0:0|0:0,0:0:0:0:
426,308,28273,6,0,L|404:180,1,130,12|0,0:0|0:0,0:0:0:0:
364,112,28595,1,0,0:0:0:0:
364,112,28702,2,0,L|380:48,2,65,8|0|0,0:0|0:0|0:0,0:0:0:0:
296,252,29130,6,0,P|240:308|172:312,1,130,8|0,0:0|0:0,0:0:0:0:
128,272,29452,1,0,0:0:0:0:
128,272,29559,2,0,L|-20:228,1,130,8|0,0:0|0:0,0:0:0:0:
124,36,29987,6,0,L|200:32,1,65,8|0,0:0|0:0,0:0:0:0:
160,112,30202,2,0,L|16:120,1,130,0|8,0:0|0:0,0:0:0:0:
32,172,30523,1,0,0:0:0:0:
40,224,30630,1,0,0:0:0:0:
76,260,30737,1,0,0:0:0:0:
128,272,30845,6,0,P|176:220|244:224,1,130,8|0,0:0|0:0,0:0:0:0:
292,268,31166,1,0,0:0:0:0:
292,268,31273,2,0,P|264:196|296:136,1,130,8|0,0:0|0:0,0:0:0:0:
492,44,31702,6,0,P|464:120|348:148,1,195,8|0,0:0|0:0,0:0:0:0:
284,148,32130,2,0,L|208:92,1,65,8|0,0:0|0:0,0:0:0:0:
172,160,32345,2,0,L|96:104,1,65
44,104,32559,6,0,P|36:172|88:232,1,130,8|0,0:0|0:0,0:0:0:0:
268,348,32987,1,8,0:0:0:0:
252,300,33095,1,0,0:0:0:0:
212,264,33202,1,0,0:0:0:0:
160,252,33309,1,0,0:0:0:0:
108,260,33416,6,0,P|64:220|68:136,1,130,8|0,0:0|0:0,0:0:0:0:
228,28,33845,2,0,L|292:68,1,65,8|0,0:0|0:0,0:0:0:0:
264,140,34059,2,0,L|208:105,1,65
132,104,34273,6,0,P|128:168|72:208,1,130,8|0,0:0|0:0,0:0:0:0:
272,340,34702,2,0,L|348:356,1,65,8|0,0:0|0:0,0:0:0:0:
300,264,34916,2,0,L|236:250,1,65
232,172,35130,5,12,0:0:0:0:
220,120,35237,1,0,0:0:0:0:
188,80,35345,1,0,0:0:0:0:
140,56,35452,1,0,0:0:0:0:
88,48,35559,2,0,P|64:112|8:152,1,130,8|0,0:0|0:0,0:0:0:0:
32,224,35880,5,0,0:0:0:0:
32,224,35987,2,0,P|56:296|116:328,2,130,8|0|8,0:0|0:0|0:0,0:0:0:0:
180,168,36630,1,0,0:0:0:0:
224,372,36845,6,0,P|260:320|328:308,1,130,12|0,0:0|0:0,0:0:0:0:
400,304,37166,1,0,0:0:0:0:
400,304,37273,2,0,P|460:264|468:192,1,130,8|0,0:0|0:0,0:0:0:0:
436,144,37595,5,0,0:0:0:0:
436,144,37702,2,0,L|400:80,2,65,8|0|0,0:0|0:0|0:0,0:0:0:0:
300,220,38130,1,8,0:0:0:0:
156,276,38345,1,0,0:0:0:0:
296,88,38559,6,0,P|340:48|420:48,1,130,12|0,0:0|0:0,0:0:0:0:
480,76,38880,1,0,0:0:0:0:
480,76,38987,2,0,P|456:144|392:176,1,130,8|0,0:0|0:0,0:0:0:0:
336,204,39309,5,0,0:0:0:0:
336,204,39416,2,0,L|268:172,2,65,8|0|0,0:0|0:0|0:0,0:0:0:0:
272,336,39845,2,0,P|208:352|128:320,1,130,8|0,0:0|0:0,0:0:0:0:
60,116,40273,5,12,0:0:0:0:
112,128,40380,1,0,0:0:0:0:
148,164,40487,1,0,0:0:0:0:
332,328,40702,5,8,0:0:0:0:
288,304,40809,1,0,0:0:0:0:
264,256,40916,1,0,0:0:0:0:
268,204,41023,1,0,0:0:0:0:
296,160,41130,6,0,P|328:136|344:92,1,65,8|0,0:0|0:0,0:0:0:0:
404,72,41345,2,0,P|420:104|428:152,1,65
387,236,41559,2,0,P|360:184|296:160,1,130,8|0,0:0|0:0,0:0:0:0:
64,36,41987,6,0,P|32:100|56:168,1,130,6|0,0:0|0:0,0:0:0:0:
76,228,42309,1,0,0:0:0:0:
76,228,42416,2,0,P|144:200|168:140,1,130,2|0,0:0|0:0,0:0:0:0:
192,76,42737,5,0,0:0:0:0:
192,76,42845,2,0,P|256:32|324:52,1,130,2|0,0:0|0:0,0:0:0:0:
364,88,43166,1,0,0:0:0:0:
364,88,43273,2,0,P|372:168|496:200,1,195,2|0,0:0|0:0,0:0:0:0:
472,132,43702,5,6,0:0:0:0:
424,148,43809,1,0,0:0:0:0:
392,192,43916,1,0,0:0:0:0:
392,244,44023,1,0,0:0:0:0:
420,288,44130,2,0,P|384:352|312:360,1,130,2|0,0:0|0:0,0:0:0:0:
184,316,44559,6,0,L|252:280,2,65,2|0|0,0:0|0:0|0:0,0:0:0:0:
108,304,44880,1,0,0:0:0:0:
108,304,44987,2,0,P|96:220|44:196,1,130,2|0,0:0|0:0,0:0:0:0:
256,68,45416,6,0,P|324:40|388:68,1,130,6|0,0:0|0:0,0:0:0:0:
404,128,45737,1,0,0:0:0:0:
404,128,45844,2,0,P|452:176|444:248,1,130,2|0,0:0|0:0,0:0:0:0:
400,296,46166,5,0,0:0:0:0:
400,296,46273,2,0,P|340:264|324:196,1,130,2|0,0:0|0:0,0:0:0:0:
256,168,46594,1,0,0:0:0:0:
256,168,46702,2,0,P|200:120|84:172,1,195,2|0,0:0|0:0,0:0:0:0:
40,96,47130,5,6,0:0:0:0:
88,76,47237,1,0,0:0:0:0:
140,88,47344,1,0,0:0:0:0:
168,132,47452,1,0,0:0:0:0:
168,184,47559,1,2,0:0:0:0:
132,224,47666,1,0,0:0:0:0:
80,236,47773,2,0,P|88:308|144:348,1,130,0|2,0:0|0:0,0:0:0:0:
188,292,48094,6,0,L|244:256,2,65
236,356,48416,2,0,L|352:276,1,130,2|0,0:0|0:0,0:0:0:0:
392,52,48844,6,0,P|328:80|328:160,1,130,6|0,0:0|0:0,0:0:0:0:
304,212,49166,1,0,0:0:0:0:
304,212,49273,2,0,P|236:196|200:140,1,130,2|0,0:0|0:0,0:0:0:0:
152,88,49594,5,0,0:0:0:0:
152,88,49702,2,0,P|84:88|40:152,1,130,2|0,0:0|0:0,0:0:0:0:
40,208,50023,1,0,0:0:0:0:
40,208,50130,2,0,L|176:296,1,130,2|0,0:0|0:0,0:0:0:0:
292,340,50559,5,6,0:0:0:0:
264,296,50666,1,0,0:0:0:0:
256,244,50773,1,0,0:0:0:0:
268,192,50880,1,0,0:0:0:0:
304,152,50987,2,0,P|368:116|388:48,1,130,2|0,0:0|0:0,0:0:0:0:
236,28,51416,6,0,L|144:56,1,65,2|0,0:0|0:0,0:0:0:0:
88,108,51630,2,0,L|168:128,1,65
168,204,51844,2,0,P|100:204|48:264,1,130,2|0,0:0|0:0,0:0:0:0:
64,320,52166,5,0,0:0:0:0:
64,320,52273,2,0,L|208:368,1,130,6|0,0:0|0:0,0:0:0:0:
240,304,52594,1,0,0:0:0:0:
240,304,52702,2,0,P|236:256|248:224,1,65,2|0,0:0|0:0,0:0:0:0:
312,208,52916,2,0,P|316:256|304:288,1,65
160,244,53130,2,0,P|140:172|76:148,2,130,2|0|2,0:0|0:0|0:0,0:0:0:0:
256,192,53666,12,2,55273,0:0:0:0:
256,276,55702,6,0,P|328:264|372:140,1,195,12|0,0:0|0:0,0:0:0:0:
328,100,56130,2,0,P|284:64|192:88,1,130,8|0,0:0|0:0,0:0:0:0:
92,168,56559,6,0,L|32:216,1,65,8|0,0:0|0:0,0:0:0:0:
60,284,56773,2,0,L|128:264,1,65
184,312,56987,2,0,P|224:360|312:360,1,130,8|0,0:0|0:0,0:0:0:0:
444,196,57416,6,0,P|368:180|316:224,1,130,12|0,0:0|0:0,0:0:0:0:
252,224,57737,1,0,0:0:0:0:
252,224,57844,2,0,P|188:188|172:128,1,130,8|0,0:0|0:0,0:0:0:0:
280,24,58273,6,0,L|356:56,1,65,8|0,0:0|0:0,0:0:0:0:
368,120,58487,2,0,L|300:144,1,65
336,216,58702,2,0,P|324:276|256:308,1,130,8|0,0:0|0:0,0:0:0:0:
40,252,59130,6,0,P|76:168|188:176,1,195,12|0,0:0|0:0,0:0:0:0:
192,240,59559,2,0,P|188:312|136:352,1,130,8|0,0:0|0:0,0:0:0:0:
72,324,59880,5,0,0:0:0:0:
72,324,59987,2,0,L|4:296,1,65,8|0,0:0|0:0,0:0:0:0:
12,208,60202,2,0,L|72:232,1,65
116,168,60416,2,0,P|176:132|248:156,1,130,8|0,0:0|0:0,0:0:0:0:
448,56,60844,5,12,0:0:0:0:
472,104,60952,1,0,0:0:0:0:
464,156,61059,1,0,0:0:0:0:
428,196,61166,1,0,0:0:0:0:
384,220,61273,2,0,P|364:180|328:160,1,65,8|0,0:0|0:0,0:0:0:0:
248,200,61487,2,0,P|272:228|308:244,1,65
348,228,61702,5,8,0:0:0:0:
356,176,61809,1,0,0:0:0:0:
340,128,61916,1,0,0:0:0:0:
304,92,62023,1,0,0:0:0:0:
252,80,62130,2,0,P|192:88|152:152,1,130,8|0,0:0|0:0,0:0:0:0:
40,348,62559,6,0,P|120:332|136:220,1,195,12|0,0:0|0:0,0:0:0:0:
92,176,62987,2,0,P|44:152|28:72,1,130,8|0,0:0|0:0,0:0:0:0:
256,36,63416,5,8,0:0:0:0:
280,84,63523,1,0,0:0:0:0:
276,136,63630,1,0,0:0:0:0:
252,184,63737,1,0,0:0:0:0:
208,212,63844,2,0,P|160:172|148:100,1,130,8|0,0:0|0:0,0:0:0:0:
368,32,64273,6,0,P|404:92|384:168,1,130,12|0,0:0|0:0,0:0:0:0:
344,208,64594,1,0,0:0:0:0:
344,208,64702,2,0,P|296:260|308:336,1,130,8|0,0:0|0:0,0:0:0:0:
224,344,65023,5,0,0:0:0:0:
224,344,65130,2,0,L|144:296,1,65,8|0,0:0|0:0,0:0:0:0:
188,224,65344,2,0,L|243:257,1,65
298,316,65559,2,0,P|382:324|426:288,1,130,8|0,0:0|0:0,0:0:0:0:
436,68,65987,6,0,P|360:88|336:220,1,195,12|0,0:0|0:0,0:0:0:0:
388,236,66416,2,0,P|400:180|360:120,1,130,8|0,0:0|0:0,0:0:0:0:
292,92,66737,5,0,0:0:0:0:
292,92,66844,2,0,P|224:104|164:64,1,130,8|0,0:0|0:0,0:0:0:0:
100,48,67166,1,0,0:0:0:0:
100,48,67273,2,0,L|12:152,1,130,8|0,0:0|0:0,0:0:0:0:
152,340,67702,5,12,0:0:0:0:
156,316,67809,1,0,0:0:0:0:
156,292,67916,1,0,0:0:0:0:
148,268,68023,1,0,0:0:0:0:
132,248,68130,1,8,0:0:0:0:
140,196,68237,1,0,0:0:0:0:
172,156,68344,1,0,0:0:0:0:
224,140,68452,1,0,0:0:0:0:
276,148,68559,6,0,L|340:184,1,65,8|0,0:0|0:0,0:0:0:0:
328,88,68773,2,0,L|271:56,1,65
332,179,68987,2,0,L|380:320,1,130,8|0,0:0|0:0,0:0:0:0:
156,352,69416,6,0,P|128:260|216:192,1,195,12|0,0:0|0:0,0:0:0:0:
208,120,69844,2,0,P|288:116|352:216,1,195,8|0,0:0|0:0,0:0:0:0:
304,264,70273,5,8,0:0:0:0:
256,280,70380,1,0,0:0:0:0:
208,264,70487,1,0,0:0:0:0:
180,220,70594,1,0,0:0:0:0:
188,168,70702,2,0,P|220:112|296:96,1,130,8|0,0:0|0:0,0:0:0:0:
476,44,71130,6,0,L|324:20,1,130,8|0,0:0|0:0,0:0:0:0:
120,88,71559,2,0,L|204:84,1,65,8|0,0:0|0:0,0:0:0:0:
200,160,71773,2,0,L|135:163,1,65
148,240,71987,6,0,L|232:236,1,65,8|0,0:0|0:0,0:0:0:0:
200,316,72202,2,0,L|64:320,1,130,0|8,0:0|0:0,0:0:0:0:
296,312,72630,1,0,0:0:0:0:
28,180,72844,5,8,0:0:0:0:
80,168,72952,1,0,0:0:0:0:
120,136,73059,1,0,0:0:0:0:
148,92,73166,1,0,0:0:0:0:
156,40,73273,2,0,L|224:20,1,65,8|0,0:0|0:0,0:0:0:0:
320,80,73487,2,0,L|257:98,1,65
212,176,73702,6,0,P|292:188|336:248,1,130,8|0,0:0|0:0,0:0:0:0:
348,296,74023,1,0,0:0:0:0:
348,296,74130,2,0,P|360:228|428:196,1,130,8|0,0:0|0:0,0:0:0:0:
404,36,74559,6,0,L|336:44,1,65,8|0,0:0|0:0,0:0:0:0:
244,144,74773,2,0,L|309:152,1,65
444,148,74987,2,0,L|468:228,1,65,8|0,0:0|0:0,0:0:0:0:
404,292,75202,2,0,L|428:372,1,65
304,328,75416,6,0,L|236:320,1,65,8|0,0:0|0:0,0:0:0:0:
160,228,75630,2,0,L|224:220,1,65
312,120,75844,2,0,L|304:56,3,65,8|0|0|0,0:0|0:0|0:0|0:0,0:0:0:0:
376,192,76273,6,0,P|344:216|328:256,1,65,8|0,0:0|0:0,0:0:0:0:
364,316,76487,2,0,P|368:355|395:389,1,65
464,360,76702,2,0,P|496:296|484:228,1,130,8|0,0:0|0:0,0:0:0:0:
432,96,77130,6,0,P|348:96|304:56,1,130,8|0,0:0|0:0,0:0:0:0:
240,48,77452,1,0,0:0:0:0:
240,48,77559,2,0,L|100:112,1,130,8|0,0:0|0:0,0:0:0:0:
32,312,77987,6,0,L|88:280,1,65,12|0,0:0|0:0,0:0:0:0:
148,332,78202,2,0,L|212:292,1,65
240,228,78416,2,0,P|228:164|144:140,1,130,8|0,0:0|0:0,0:0:0:0:
76,256,78844,5,8,0:0:0:0:
120,284,78952,1,0,0:0:0:0:
172,292,79059,2,0,P|232:324|304:296,2,130,0|8|0,0:0|0:0|0:0,0:0:0:0:
160,48,79702,5,12,0:0:0:0:
180,96,79809,1,0,0:0:0:0:
216,132,79916,1,0,0:0:0:0:
264,152,80023,1,0,0:0:0:0:
316,160,80130,1,8,0:0:0:0:
364,144,80237,1,0,0:0:0:0:
412,120,80344,1,0,0:0:0:0:
376,272,80559,6,0,L|300:288,1,65,8|0,0:0|0:0,0:0:0:0:
188,222,80773,2,0,L|252:236,1,65
352,354,80987,2,0,L|416:368,2,65,8|0|0,0:0|0:0|0:0,0:0:0:0:
120,340,81416,5,12,0:0:0:0:
120,288,81523,1,0,0:0:0:0:
88,248,81630,1,0,0:0:0:0:
40,224,81737,2,0,P|16:160|56:80,1,130,8|0,0:0|0:0,0:0:0:0:
80,40,82059,2,0,P|104:72|108:112,1,65
164,152,82273,5,8,0:0:0:0:
216,156,82380,1,0,0:0:0:0:
264,136,82487,1,0,0:0:0:0:
288,92,82594,2,0,P|336:48|424:52,1,130,8|0,0:0|0:0,0:0:0:0:
464,84,82916,1,0,0:0:0:0:
436,316,83130,6,0,P|384:272|380:200,1,130,6|0,0:0|0:0,0:0:0:0:
404,140,83452,1,0,0:0:0:0:
404,140,83559,2,0,P|380:60|256:48,1,195,2|0,0:0|0:0,0:0:0:0:
216,80,83987,6,0,P|168:120|96:120,1,130,2|0,0:0|0:0,0:0:0:0:
40,168,84309,1,0,0:0:0:0:
40,168,84416,2,0,P|16:256|120:328,1,195,2|0,0:0|0:0,0:0:0:0:
128,260,84844,6,0,L|188:200,1,65,6|0,0:0|0:0,0:0:0:0:
240,252,85059,2,0,L|194:297,1,65
256,344,85273,2,0,P|336:340|380:288,1,130,2|0,0:0|0:0,0:0:0:0:
416,80,85702,5,2,0:0:0:0:
376,112,85809,1,0,0:0:0:0:
360,160,85916,1,0,0:0:0:0:
364,212,86023,1,0,0:0:0:0:
388,256,86130,1,2,0:0:0:0:
428,288,86237,1,0,0:0:0:0:
480,300,86344,1,0,0:0:0:0:
452,148,86559,6,0,P|376:128|344:60,1,130,6|0,0:0|0:0,0:0:0:0:
280,52,86880,1,0,0:0:0:0:
280,52,86987,2,0,P|200:40|148:128,1,195,2|0,0:0|0:0,0:0:0:0:
96,188,87416,6,0,P|128:240|204:240,1,130,2|0,0:0|0:0,0:0:0:0:
268,224,87737,1,0,0:0:0:0:
268,224,87844,2,0,P|256:140|136:108,1,195,2|0,0:0|0:0,0:0:0:0:
84,108,88273,6,0,L|12:88,2,65,6|0|0,0:0|0:0|0:0,0:0:0:0:
140,336,88702,1,2,0:0:0:0:
180,304,88809,1,0,0:0:0:0:
196,256,88916,1,0,0:0:0:0:
188,204,89023,1,0,0:0:0:0:
152,164,89130,6,0,P|160:88|236:48,1,130,2|0,0:0|0:0,0:0:0:0:
432,80,89559,1,2,0:0:0:0:
276,100,89773,2,0,L|200:116,1,65
140,80,89987,6,0,P|64:108|40:180,1,130,6|0,0:0|0:0,0:0:0:0:
36,228,90309,1,0,0:0:0:0:
36,228,90416,2,0,P|80:296|192:288,1,195,2|0,0:0|0:0,0:0:0:0:
212,220,90844,6,0,P|200:148|248:96,1,130,2|0,0:0|0:0,0:0:0:0:
296,60,91166,1,0,0:0:0:0:
296,60,91273,2,0,L|440:96,1,130,2|0,0:0|0:0,0:0:0:0:
352,316,91702,5,6,0:0:0:0:
332,268,91809,1,0,0:0:0:0:
288,240,91916,1,0,0:0:0:0:
236,228,92023,1,0,0:0:0:0:
188,244,92130,2,0,P|104:268|48:248,1,130,2|0,0:0|0:0,0:0:0:0:
152,40,92559,6,0,L|208:84,1,65,2|0,0:0|0:0,0:0:0:0:
280,116,92773,2,0,L|224:160,1,65
164,200,92987,1,2,0:0:0:0:
112,192,93094,1,0,0:0:0:0:
72,160,93202,1,0,0:0:0:0:
56,112,93309,1,0,0:0:0:0:
64,60,93416,6,0,P|124:36|208:72,1,130,6|0,0:0|0:0,0:0:0:0:
220,120,93737,1,0,0:0:0:0:
220,120,93844,2,0,P|300:112|336:68,1,130,2|0,0:0|0:0,0:0:0:0:
408,56,94166,5,0,0:0:0:0:
408,56,94273,2,0,L|484:96,1,65,2|0,0:0|0:0,0:0:0:0:
468,184,94487,2,0,L|410:153,1,65
340,116,94702,1,2,0:0:0:0:
256,192,94809,12,2,96416,0:0:0:0:
256,192,96844,5,4,0:0:0:0:
272,64,110559,6,0,P|208:48|136:84,1,130,12|0,0:0|0:0,0:0:0:0:
20,160,110987,1,8,0:0:0:0:
256,164,111202,1,0,0:0:0:0:
60,288,111416,1,8,0:0:0:0:
152,72,111630,1,0,0:0:0:0:
208,300,111844,5,8,0:0:0:0:
260,316,111952,1,0,0:0:0:0:
312,312,112059,1,0,0:0:0:0:
356,284,112166,1,0,0:0:0:0:
392,244,112273,2,0,P|412:176|376:108,1,130,12|0,0:0|0:0,0:0:0:0:
256,40,112702,5,8,0:0:0:0:
60,198,112916,1,0,0:0:0:0:
312,185,113130,1,8,0:0:0:0:
100,48,113344,1,0,0:0:0:0:
108,374,113559,2,0,P|168:336|191:283,1,130,8|0,0:0|0:0,0:0:0:0:
176,208,113880,5,0,0:0:0:0:
176,208,113987,2,0,L|276:112,1,130,12|0,0:0|0:0,0:0:0:0:
416,176,114416,1,8,0:0:0:0:
220,48,114630,1,0,0:0:0:0:
328,256,114844,1,8,0:0:0:0:
132,124,115059,1,0,0:0:0:0:
232,336,115273,5,8,0:0:0:0:
212,288,115380,1,0,0:0:0:0:
216,236,115487,1,0,0:0:0:0:
240,188,115594,1,0,0:0:0:0:
284,156,115702,2,0,P|344:112|352:48,1,130,12|0,0:0|0:0,0:0:0:0:
200,44,116130,5,8,0:0:0:0:
412,148,116344,2,0,L|488:180,1,65
452,248,116559,2,0,L|368:232,2,65,8|0|0,0:0|0:0|0:0,0:0:0:0:
144,308,117202,1,0,0:0:0:0:
316,148,117416,6,0,P|316:80|264:24,1,130,12|0,0:0|0:0,0:0:0:0:
204,44,117737,1,0,0:0:0:0:
204,44,117844,2,0,L|40:96,1,130,8|0,0:0|0:0,0:0:0:0:
68,160,118166,6,0,L|0:192,1,65,0|8,0:0|0:0,0:0:0:0:
36,340,118487,1,0,0:0:0:0:
176,152,118702,1,8,0:0:0:0:
256,372,118916,1,0,0:0:0:0:
56,248,119130,5,12,0:0:0:0:
100,280,119237,1,0,0:0:0:0:
152,288,119344,1,0,0:0:0:0:
204,276,119452,1,0,0:0:0:0:
244,244,119559,1,8,0:0:0:0:
384,56,119773,6,0,L|312:80,1,65
308,152,119987,2,0,L|384:168,1,65,8|0,0:0|0:0,0:0:0:0:
392,240,120202,2,0,L|320:264,1,65
308,152,120416,2,0,P|244:112|168:136,1,130,8|0,0:0|0:0,0:0:0:0:
116,140,120737,5,0,0:0:0:0:
116,140,120844,2,0,L|32:92,2,65,12|0|0,0:0|0:0|0:0,0:0:0:0:
48,280,121273,1,8,0:0:0:0:
224,128,121487,1,0,0:0:0:0:
88,380,121702,6,0,P|152:344|176:276,1,130,8|0,0:0|0:0,0:0:0:0:
228,240,122023,1,0,0:0:0:0:
228,240,122130,2,0,L|328:276,1,65,8|0,0:0|0:0,0:0:0:0:
364,160,122344,2,0,L|302:182,1,65
288,344,122559,6,0,P|376:340|412:296,2,130,12|0|8,0:0|0:0|0:0,0:0:0:0:
80,236,123202,1,0,0:0:0:0:
84,184,123309,1,0,0:0:0:0:
112,140,123416,1,8,0:0:0:0:
156,116,123523,1,0,0:0:0:0:
208,108,123630,1,0,0:0:0:0:
424,332,124273,5,2,0:0:0:0:
392,320,124380,1,0,0:0:0:0:
360,308,124487,1,0,0:0:0:0:
328,296,124594,1,0,0:0:0:0:
296,284,124702,1,2,0:0:0:0:
32,240,125130,5,2,0:0:0:0:
64,228,125237,1,0,0:0:0:0:
96,216,125344,1,0,0:0:0:0:
128,204,125452,1,0,0:0:0:0:
160,192,125559,1,2,0:0:0:0:
476,64,125987,6,0,P|424:176|376:20,1,390,2|0,0:0|0:0,0:0:0:0:
476,64,126844,2,0,L|360:132,1,130,2|0,0:0|0:0,0:0:0:0:
328,200,127166,2,0,L|252:192,1,65,0|2,0:0|0:0,0:0:0:0:
88,332,127702,5,6,0:0:0:0:
120,320,127809,1,0,0:0:0:0:
152,308,127916,1,0,0:0:0:0:
184,296,128023,1,0,0:0:0:0:
216,284,128130,1,2,0:0:0:0:
480,240,128559,5,2,0:0:0:0:
448,228,128666,1,0,0:0:0:0:
416,216,128773,1,0,0:0:0:0:
384,204,128880,1,0,0:0:0:0:
352,192,128987,1,2,0:0:0:0:
36,64,129416,6,0,P|88:176|136:20,1,390,2|0,0:0|0:0,0:0:0:0:
36,64,130273,2,0,L|108:92,1,65,2|0,0:0|0:0,0:0:0:0:
184,200,130487,2,0,L|260:192,1,65
364,116,130702,1,2,0:0:0:0:
332,276,131130,6,0,P|296:336|216:360,1,130,6|0,0:0|0:0,0:0:0:0:
172,324,131452,1,0,0:0:0:0:
172,324,131559,2,0,P|128:272|56:276,1,130,2|0,0:0|0:0,0:0:0:0:
92,36,131987,6,0,P|136:96|128:164,1,130,2|0,0:0|0:0,0:0:0:0:
184,208,132309,1,0,0:0:0:0:
184,208,132416,2,0,P|256:212|308:152,1,130,2|0,0:0|0:0,0:0:0:0:
480,32,132844,5,6,0:0:0:0:
444,72,132952,1,0,0:0:0:0:
424,120,133059,1,0,0:0:0:0:
420,172,133166,1,0,0:0:0:0:
432,224,133273,2,0,L|392:292,1,65,2|0,0:0|0:0,0:0:0:0:
304,316,133487,2,0,B|316:244|316:248,1,65
248,208,133702,5,2,0:0:0:0:
264,160,133809,1,0,0:0:0:0:
308,132,133916,1,0,0:0:0:0:
360,132,134023,1,0,0:0:0:0:
404,160,134130,2,0,P|456:200|476:276,1,130,2|0,0:0|0:0,0:0:0:0:
432,324,134452,5,0,0:0:0:0:
432,324,134559,2,0,L|288:364,1,130,6|0,0:0|0:0,0:0:0:0:
236,324,134880,1,0,0:0:0:0:
236,324,134987,2,0,P|184:268|108:276,1,130,2|0,0:0|0:0,0:0:0:0:
52,48,135416,6,0,P|116:80|128:140,1,130,2|0,0:0|0:0,0:0:0:0:
188,184,135737,1,0,0:0:0:0:
188,184,135844,2,0,P|268:152|292:100,1,130,2|0,0:0|0:0,0:0:0:0:
436,68,136273,5,6,0:0:0:0:
300,260,136487,1,0,0:0:0:0:
492,144,136702,2,0,P|420:160|344:60,1,195,2|0,0:0|0:0,0:0:0:0:
280,32,137130,6,0,L|192:44,1,65,2|0,0:0|0:0,0:0:0:0:
200,116,137344,2,0,L|112:104,1,65
56,100,137559,1,2,0:0:0:0:
40,148,137666,1,0,0:0:0:0:
52,200,137773,1,0,0:0:0:0:
92,232,137880,1,0,0:0:0:0:
144,236,137987,6,0,P|212:232|260:288,1,130,6|0,0:0|0:0,0:0:0:0:
316,320,138309,1,0,0:0:0:0:
316,320,138416,2,0,L|472:280,1,130,2|0,0:0|0:0,0:0:0:0:
452,52,138844,6,0,L|368:68,1,65,2|0,0:0|0:0,0:0:0:0:
384,144,139059,2,0,L|447:131,1,65
464,208,139273,2,0,B|396:220|396:220|352:276,1,130,2|0,0:0|0:0,0:0:0:0:
88,336,139702,6,0,L|52:268,1,65,2|0,0:0|0:0,0:0:0:0:
88,200,139916,2,0,L|152:248,1,65
212,192,140130,2,0,L|234:118,1,65,2|0,0:0|0:0,0:0:0:0:
308,95,140344,2,0,L|319:174,1,65
256,320,140559,5,2,0:0:0:0:
280,312,140666,1,0,0:0:0:0:
304,300,140773,1,0,0:0:0:0:
324,284,140880,1,0,0:0:0:0:
336,188,140987,1,2,0:0:0:0:
284,192,141094,1,0,0:0:0:0:
236,216,141202,1,0,0:0:0:0:
204,256,141309,1,0,0:0:0:0:
176,352,141416,6,0,P|104:324|80:256,1,130,6|0,0:0|0:0,0:0:0:0:
68,204,141737,1,0,0:0:0:0:
68,204,141844,2,0,L|24:116,1,65,2|0,0:0|0:0,0:0:0:0:
145,69,142059,2,0,L|116:128,1,65
220,216,142273,6,0,P|204:172|204:144,1,65,2|0,0:0|0:0,0:0:0:0:
296,240,142487,2,0,P|280:284|280:312,1,65
344,356,142702,2,0,P|376:336|404:304,1,65,2|0,0:0|0:0,0:0:0:0:
460,264,142916,2,0,P|476:240|488:192,1,65
348,124,143130,6,0,P|348:60|400:24,1,130,6|0,0:0|0:0,0:0:0:0:
460,76,143452,1,0,0:0:0:0:
460,76,143559,2,0,L|404:208,1,130,2|0,0:0|0:0,0:0:0:0:
332,204,143880,5,0,0:0:0:0:
332,204,143987,2,0,L|240:176,1,65,2|0,0:0|0:0,0:0:0:0:
176,244,144202,2,0,L|256:260,1,65
288,100,144416,2,0,B|216:88|216:88|148:48,1,130,2|0,0:0|0:0,0:0:0:0:
48,260,144844,5,6,0:0:0:0:
60,284,144952,1,0,0:0:0:0:
80,300,145059,1,0,0:0:0:0:
104,308,145166,1,0,0:0:0:0:
196,324,145273,1,2,0:0:0:0:
192,272,145380,1,0,0:0:0:0:
168,228,145487,1,0,0:0:0:0:
124,196,145595,1,0,0:0:0:0:
104,308,145702,6,0,L|136:380,1,65,2|0,0:0|0:0,0:0:0:0:
296,344,145916,2,0,L|269:284,2,65,0|0|2,0:0|0:0|0:0,0:0:0:0:
256,192,146237,12,0,149130,0:0:0:0:
256,192,149559,5,2,0:0:0:0:
288,48,151702,6,0,P|348:104|448:48,1,195,12|0,0:0|0:0,0:0:0:0:
500,112,152130,2,0,L|456:268,1,130,8|0,0:0|0:0,0:0:0:0:
256,340,152559,5,8,0:0:0:0:
208,320,152666,1,0,0:0:0:0:
176,280,152773,1,0,0:0:0:0:
168,228,152880,1,0,0:0:0:0:
180,176,152987,1,8,0:0:0:0:
316,100,153202,1,0,0:0:0:0:
88,156,153416,6,0,P|80:80|120:36,1,130,8|0,0:0|0:0,0:0:0:0:
188,48,153737,1,0,0:0:0:0:
188,48,153845,2,0,L|276:28,1,65,8|0,0:0|0:0,0:0:0:0:
316,100,154059,2,0,L|252:114,1,65
244,192,154273,6,0,P|280:252|356:268,1,130,8|0,0:0|0:0,0:0:0:0:
464,184,154702,1,8,0:0:0:0:
432,144,154809,1,0,0:0:0:0:
380,132,154916,1,0,0:0:0:0:
292,348,155130,6,0,P|360:352|420:292,1,130,8|0,0:0|0:0,0:0:0:0:
372,248,155452,1,0,0:0:0:0:
372,248,155559,2,0,L|280:220,1,65,8|0,0:0|0:0,0:0:0:0:
236,200,155773,6,0,P|216:140|124:120,2,130,0|8|0,0:0|0:0|0:0,0:0:0:0:
52,344,156416,1,8,0:0:0:0:
36,296,156523,1,0,0:0:0:0:
44,244,156630,1,0,0:0:0:0:
76,204,156737,1,0,0:0:0:0:
124,184,156845,6,0,P|196:164|224:48,1,195,8|0,0:0|0:0,0:0:0:0:
156,28,157273,2,0,P|104:32|48:84,1,130,8|0,0:0|0:0,0:0:0:0:
40,160,157595,5,0,0:0:0:0:
40,160,157702,2,0,L|0:224,2,65,8|0|0,0:0|0:0|0:0,0:0:0:0:
256,252,158130,2,0,P|336:228|356:180,1,130,8|0,0:0|0:0,0:0:0:0:
340,112,158452,5,0,0:0:0:0:
340,112,158559,2,0,P|308:44|188:68,1,195,8|0,0:0|0:0,0:0:0:0:
184,128,158987,2,0,L|76:208,1,130,8|0,0:0|0:0,0:0:0:0:
260,356,159416,5,8,0:0:0:0:
296,320,159523,1,0,0:0:0:0:
312,272,159630,1,0,0:0:0:0:
300,220,159737,1,0,0:0:0:0:
272,176,159845,1,8,0:0:0:0:
120,208,160059,1,0,0:0:0:0:
308,68,160273,6,0,L|380:100,2,65,8|0|0,0:0|0:0|0:0,0:0:0:0:
76,44,160702,1,8,0:0:0:0:
52,92,160809,1,0,0:0:0:0:
48,144,160916,1,0,0:0:0:0:
76,188,161023,1,0,0:0:0:0:
124,208,161130,6,0,P|184:236|204:300,1,130,8|0,0:0|0:0,0:0:0:0:
144,344,161452,1,0,0:0:0:0:
144,344,161559,2,0,L|32:320,2,65,8|0|0,0:0|0:0|0:0,0:0:0:0:
368,276,161987,5,12,0:0:0:0:
352,224,162095,1,0,0:0:0:0:
316,188,162202,1,0,0:0:0:0:
268,172,162309,1,0,0:0:0:0:
216,172,162416,1,8,0:0:0:0:
172,196,162523,1,0,0:0:0:0:
136,236,162630,1,0,0:0:0:0:
128,288,162737,1,0,0:0:0:0:
144,344,162845,6,0,P|208:376|280:336,1,130,8|0,0:0|0:0,0:0:0:0:
256,280,163166,1,0,0:0:0:0:
256,280,163273,2,0,L|180:256,2,65,8|0|0,0:0|0:0|0:0,0:0:0:0:
271,58,163702,5,12,0:0:0:0:
319,33,163809,1,0,0:0:0:0:
370,33,163916,1,0,0:0:0:0:
416,56,164023,1,0,0:0:0:0:
452,92,164130,1,8,0:0:0:0:
466,140,164237,1,0,0:0:0:0:
464,194,164345,1,0,0:0:0:0:
432,237,164452,1,0,0:0:0:0:
382,265,164559,6,0,P|314:242|291:163,1,130,8|0,0:0|0:0,0:0:0:0:
348,140,164880,1,0,0:0:0:0:
348,140,164987,2,0,L|418:176,1,65,8|0,0:0|0:0,0:0:0:0:
289,193,165202,2,0,L|220:148,1,65
200,52,165416,6,0,P|168:108|48:80,1,195,12|0,0:0|0:0,0:0:0:0:
12,156,165845,2,0,L|52:308,1,130,8|0,0:0|0:0,0:0:0:0:
268,352,166273,5,8,0:0:0:0:
224,324,166380,1,0,0:0:0:0:
200,280,166487,1,0,0:0:0:0:
200,228,166595,1,0,0:0:0:0:
216,180,166702,1,8,0:0:0:0:
352,100,166916,1,0,0:0:0:0:
124,52,167130,6,0,P|100:116|28:136,1,130,8|0,0:0|0:0,0:0:0:0:
44,216,167452,1,0,0:0:0:0:
44,216,167559,2,0,L|112:328,1,130,8|0,0:0|0:0,0:0:0:0:
276,164,167987,5,8,0:0:0:0:
328,168,168095,1,0,0:0:0:0:
372,196,168202,1,0,0:0:0:0:
396,244,168309,1,0,0:0:0:0:
396,296,168416,2,0,P|352:356|272:356,1,130,8|0,0:0|0:0,0:0:0:0:
96,208,168845,6,0,L|164:192,1,65,12|0,0:0|0:0,0:0:0:0:
232,128,169059,1,0,0:0:0:0:
232,128,169166,2,0,P|160:112|136:40,1,130,8|0,0:0|0:0,0:0:0:0:
212,52,169487,2,0,L|288:36,1,65
348,72,169702,5,8,0:0:0:0:
368,120,169809,1,0,0:0:0:0:
360,172,169916,1,0,0:0:0:0:
328,216,170023,1,0,0:0:0:0:
280,240,170130,2,0,P|160:216|76:344,1,260,8|12,0:0|0:0,0:0:0:0:
308,348,170773,6,0,L|384:316,1,65
440,292,170987,1,8,0:0:0:0:
256,148,171202,2,0,L|180:116,1,65
124,92,171416,6,0,P|96:164|16:192,1,130,8|0,0:0|0:0,0:0:0:0:
48,268,171737,1,0,0:0:0:0:
48,268,171845,2,0,L|4:320,2,65,8|0|0,0:0|0:0|0:0,0:0:0:0:
280,308,172273,6,0,P|316:212|424:196,1,195,12|0,0:0|0:0,0:0:0:0:
464,148,172702,2,0,L|344:56,1,130,8|0,0:0|0:0,0:0:0:0:
128,64,173130,5,8,0:0:0:0:
140,116,173237,1,0,0:0:0:0:
180,148,173345,1,0,0:0:0:0:
228,164,173452,1,0,0:0:0:0:
280,164,173559,1,8,0:0:0:0:
384,48,173773,1,0,0:0:0:0:
272,252,173987,6,0,P|200:264|160:332,1,130,12|0,0:0|0:0,0:0:0:0:
92,332,174309,1,0,0:0:0:0:
92,332,174416,2,0,L|32:268,2,65,8|0|0,0:0|0:0|0:0,0:0:0:0:
328,328,174845,5,8,0:0:0:0:
360,288,174952,1,0,0:0:0:0:
360,236,175059,1,0,0:0:0:0:
340,188,175166,1,0,0:0:0:0:
296,164,175273,2,0,P|228:148|168:184,1,130,8|0,0:0|0:0,0:0:0:0:
8,336,175702,6,0,P|96:304|120:252,1,130,12|0,0:0|0:0,0:0:0:0:
92,200,176023,1,0,0:0:0:0:
92,200,176130,2,0,L|144:120,1,65,8|0,0:0|0:0,0:0:0:0:
68,96,176345,2,0,L|32:150,1,65
196,184,176559,6,0,L|252:144,2,65,8|0|0,0:0|0:0|0:0,0:0:0:0:
172,260,176880,1,0,0:0:0:0:
172,260,176987,2,0,P|244:324|312:312,1,130,8|0,0:0|0:0,0:0:0:0:
460,76,177416,5,12,0:0:0:0:
416,48,177523,1,0,0:0:0:0:
364,40,177630,1,0,0:0:0:0:
312,52,177737,1,0,0:0:0:0:
260,180,177845,5,8,0:0:0:0:
308,196,177952,1,0,0:0:0:0:
360,192,178059,1,0,0:0:0:0:
404,164,178166,1,0,0:0:0:0:
300,101,178273,6,0,P|279:88|240:84,1,65,8|0,0:0|0:0,0:0:0:0:
120,120,178487,2,0,P|98:131|74:163,1,65,0|0,0:0|0:0,0:0:0:0:
112,296,178702,2,0,P|160:328|228:316,1,130,8|0,0:0|0:0,0:0:0:0:
368,272,179023,6,0,L|303:272,1,65,0|12,0:0|0:0,0:0:0:0:
