osu file format v12

[General]
AudioFilename: VY2VY1V3.mp3
AudioLeadIn: 0
PreviewTime: 14120
Countdown: 0
SampleSet: Normal
StackLeniency: 0.7
Mode: 0
LetterboxInBreaks: 0

[Editor]
Bookmarks: 69407,97049,110764,131121
DistanceSpacing: 0.8
BeatDivisor: 4
GridSize: 4

[Metadata]
Title:Hurting for a Very Hurtful Pain
TitleUnicode:とても痛い痛がりたい
Artist:EZFG
ArtistUnicode:そっとうP
Creator:tutuhaha
Version:Hard
Source:
Tags:VY2 VY1V3 Vocaloid vocaloid2 VY1
BeatmapID:204945
BeatmapSetID:46848

[Difficulty]
HPDrainRate:5
CircleSize:4
OverallDifficulty:7
ApproachRate:8
SliderMultiplier:2
SliderTickRate:2

[Events]
//Background and Video events
0,0,"BG.jpg",0,0
Video,0,"VY2VY1V3.flv"
//Break Periods
2,97044,109799
//Storyboard Layer 0 (Background)
//Storyboard Layer 1 (Fail)
//Storyboard Layer 2 (Pass)
//Storyboard Layer 3 (Foreground)
//Storyboard Sound Samples
//Background Colour Transformations
3,100,0,0,0

[TimingPoints]
845,428.571428571429,4,1,1,80,1,0
7702,-100,4,1,1,50,0,0
11131,-100,4,1,1,60,0,0
13702,-100,4,1,1,70,0,0
14559,-100,4,1,1,80,0,0
53559,-100,4,1,1,60,0,0
55273,-100,4,2,1,60,0,0
55702,-100,4,1,1,80,0,0
94702,-100,4,1,1,60,0,0
96416,-100,4,2,1,40,0,0
96844,-100,4,2,1,50,0,0
110559,-100,4,1,1,70,0,0
124274,-100,4,2,1,50,0,0
127702,-100,4,2,1,60,0,0
130273,-100,4,2,1,70,0,0
131131,-100,4,1,1,80,0,0
146130,-100,4,1,1,60,0,0
149559,-100,4,2,1,40,0,0
151702,-100,4,1,1,80,0,0
165416,-100,4,1,1,90,0,0
179130,-100,4,1,1,100,0,0

[Colours]
Combo1 : 95,95,95
Combo2 : 255,0,0
Combo3 : 190,190,190

[HitObjects]
80,120,7702,2,0,P|120:64|260:84,1,200,8|8,0:0|0:0,0:0:0:0:
372,160,8559,2,0,L|268:160,2,100,8|0|8,0:0|0:0|0:0,0:0:0:0:
240,252,9416,5,8,0:0:0:0:
168,288,9630,1,0,0:0:0:0:
96,324,9844,2,0,B|60:288|60:288|48:220,1,100,8|0,0:0|0:0,0:0:0:0:
116,196,10273,2,0,B|152:160|152:160|164:92,2,100,8|0|8,0:0|0:0|0:0,0:0:0:0:
276,316,11130,6,0,P|356:280|336:168,1,200,8|8,0:0|0:0,0:0:0:0:
216,92,11987,2,0,L|340:92,2,100,8|0|8,0:0|0:0|0:0,0:0:0:0:
72,160,12844,5,8,0:0:0:0:
48,236,13059,1,0,0:0:0:0:
60,316,13273,2,0,B|120:296|120:296|152:256,1,100,8|0,0:0|0:0,0:0:0:0:
196,208,13702,2,0,B|218:179|218:179|278:159,1,100,8|0,0:0|0:0,0:0:0:0:
336,212,14130,2,0,P|320:144|432:60,1,200,8|12,0:0|0:0,0:0:0:0:
464,208,14987,5,8,0:0:0:0:
360,328,15416,2,0,L|248:344,1,100,8|0,0:0|0:0,0:0:0:0:
216,276,15844,2,0,P|192:232|116:216,1,100,8|0,0:0|0:0,0:0:0:0:
36,252,16273,6,0,P|100:224|88:96,1,200,12|8,0:0|0:0,0:0:0:0:
164,60,16916,1,0,0:0:0:0:
236,24,17130,2,0,L|348:52,1,100,8|0,0:0|0:0,0:0:0:0:
332,128,17559,2,0,B|216:100,1,100,8|0,0:0|0:0,0:0:0:0:
239,227,17987,6,0,P|312:188|332:128,1,150,12|0,0:0|0:0,0:0:0:0:
344,88,18416,2,0,L|440:40,1,100,8|0,0:0|0:0,0:0:0:0:
464,116,18845,1,8,0:0:0:0:
456,196,19059,1,0,0:0:0:0:
408,260,19273,1,8,0:0:0:0:
328,276,19487,1,0,0:0:0:0:
376,164,19702,6,0,B|320:136|320:136|296:88,1,100,12|0,0:0|0:0,0:0:0:0:
264,32,20130,2,0,L|148:32,1,100,8|0,0:0|0:0,0:0:0:0:
76,116,20559,2,0,L|176:116,1,100,8|0,0:0|0:0,0:0:0:0:
204,192,20987,1,8,0:0:0:0:
344,336,21416,6,0,P|368:264|312:208,1,150,12|0,0:0|0:0,0:0:0:0:
296,184,21845,2,0,B|272:136|272:136|280:72,1,100,8|0,0:0|0:0,0:0:0:0:
340,36,22273,2,0,B|364:84|364:84|356:148,2,100,8|0|8,0:0|0:0|0:0,0:0:0:0:
140,48,23130,6,0,P|148:108|12:160,1,200,12|8,0:0|0:0,0:0:0:0:
56,252,23773,1,0,0:0:0:0:
84,328,23987,2,0,B|140:316|140:316|196:336,1,100,8|0,0:0|0:0,0:0:0:0:
256,352,24416,2,0,B|312:364|312:364|368:344,1,100,8|0,0:0|0:0,0:0:0:0:
412,232,24845,6,0,B|340:200|340:200|312:112,1,150,12|0,0:0|0:0,0:0:0:0:
320,92,25273,2,0,P|292:40|244:28,1,100,8|0,0:0|0:0,0:0:0:0:
144,76,25702,2,0,P|168:120|224:140,1,100,8|0,0:0|0:0,0:0:0:0:
228,176,26023,1,0,0:0:0:0:
244,212,26130,2,0,L|156:288,1,100,8|0,0:0|0:0,0:0:0:0:
264,352,26559,6,0,B|328:296|328:296|456:296,1,200,12|8,0:0|0:0,0:0:0:0:
472,220,27202,1,0,0:0:0:0:
500,144,27416,2,0,P|488:88|444:48,1,100,8|0,0:0|0:0,0:0:0:0:
388,20,27845,1,8,0:0:0:0:
216,120,28273,6,0,L|100:120,2,100,12|0|8,0:0|0:0|0:0,0:0:0:0:
256,188,28916,1,0,0:0:0:0:
308,252,29130,2,0,B|420:252|420:252|488:160,1,200,8|8,0:0|0:0,0:0:0:0:
316,56,29987,6,0,L|432:56,2,100,8|0|8,0:0|0:0|0:0,0:0:0:0:
276,124,30630,1,0,0:0:0:0:
224,188,30845,2,0,B|112:188|112:188|44:96,1,200,8|8,0:0|0:0,0:0:0:0:
244,40,31702,6,0,P|316:44|364:120,1,150,8|0,0:0|0:0,0:0:0:0:
364,140,32130,2,0,P|336:192|288:212,1,100,8|0,0:0|0:0,0:0:0:0:
228,244,32559,1,8,0:0:0:0:
176,304,32773,1,0,0:0:0:0:
120,360,32987,2,0,P|100:312|112:252,1,100,8|0,0:0|0:0,0:0:0:0:
32,172,33416,6,0,P|88:188|148:184,1,100,8|0,0:0|0:0,0:0:0:0:
200,152,33845,2,0,L|284:80,1,100,8|0,0:0|0:0,0:0:0:0:
396,108,34273,2,0,L|304:184,1,100,8|0,0:0|0:0,0:0:0:0:
260,228,34702,1,8,0:0:0:0:
200,284,34916,1,0,0:0:0:0:
104,356,35130,6,0,B|124:304|104:248|104:248|8:248,1,200,12|8,0:0|0:0,0:0:0:0:
16,168,35773,1,0,0:0:0:0:
56,100,35987,2,0,L|160:100,1,100,8|0,0:0|0:0,0:0:0:0:
236,100,36416,1,8,0:0:0:0:
424,172,36845,6,0,P|384:152|356:84,2,100,12|0|8,0:0|0:0|0:0,0:0:0:0:
416,252,37487,1,0,0:0:0:0:
400,332,37702,2,0,L|288:332,1,100,8|0,0:0|0:0,0:0:0:0:
220,332,38130,1,8,0:0:0:0:
104,168,38559,6,0,B|160:184|160:184|216:160,1,100,12|0,0:0|0:0,0:0:0:0:
264,124,38987,2,0,B|302:107|302:107|358:123,1,100,8|0,0:0|0:0,0:0:0:0:
400,192,39416,2,0,P|384:124|480:48,1,200,8|8,0:0|0:0,0:0:0:0:
484,128,40059,1,0,0:0:0:0:
464,248,40273,6,0,P|416:272|360:260,1,100,12|0,0:0|0:0,0:0:0:0:
304,224,40702,2,0,P|259:217|211:241,1,100,8|0,0:0|0:0,0:0:0:0:
132,236,41130,1,8,0:0:0:0:
52,228,41345,1,0,0:0:0:0:
16,156,41559,2,0,L|132:132,1,100,8|0,0:0|0:0,0:0:0:0:
236,140,41987,6,0,P|248:72|372:48,1,200,6|2,0:0|0:0,0:0:0:0:
440,180,42845,2,0,P|400:268|292:260,1,200,2|2,0:0|0:0,0:0:0:0:
68,284,43702,6,0,B|116:268|116:268|160:212,1,100,6|0,0:0|0:0,0:0:0:0:
188,160,44130,1,2,0:0:0:0:
260,124,44344,1,0,0:0:0:0:
340,120,44559,2,0,L|464:160,1,100,2|0,0:0|0:0,0:0:0:0:
432,232,44987,2,0,L|304:224,1,100,2|0,0:0|0:0,0:0:0:0:
260,124,45416,6,0,P|224:52|108:56,1,200,6|2,0:0|0:0,0:0:0:0:
64,204,46273,2,0,P|156:244|240:200,1,200,2|2,0:0|0:0,0:0:0:0:
260,124,46916,1,0,0:0:0:0:
296,52,47130,6,0,L|416:80,1,100,6|0,0:0|0:0,0:0:0:0:
412,152,47559,2,0,L|292:180,1,100,2|0,0:0|0:0,0:0:0:0:
280,248,47987,1,2,0:0:0:0:
228,308,48202,1,0,0:0:0:0:
152,328,48416,2,0,P|128:272|72:256,1,100,2|0,0:0|0:0,0:0:0:0:
4,176,48844,6,0,P|92:200|172:120,1,200,6|2,0:0|0:0,0:0:0:0:
312,64,49702,2,0,P|424:84|448:176,1,200,2|2,0:0|0:0,0:0:0:0:
412,224,50344,1,0,0:0:0:0:
368,292,50559,6,0,B|328:320|328:320|264:316,1,100,6|0,0:0|0:0,0:0:0:0:
224,256,50987,2,0,B|264:228|264:228|328:232,1,100,2|0,0:0|0:0,0:0:0:0:
368,292,51416,1,2,0:0:0:0:
448,296,51630,1,0,0:0:0:0:
488,228,51844,1,2,0:0:0:0:
448,156,52059,1,0,0:0:0:0:
368,152,52273,6,0,P|324:148|280:88,1,100,6|0,0:0|0:0,0:0:0:0:
438,26,52702,2,0,P|408:60|356:72,1,100,2|0,0:0|0:0,0:0:0:0:
285,110,53130,1,2,0:0:0:0:
208,136,53344,1,0,0:0:0:0:
160,200,53559,1,2,0:0:0:0:
256,192,53666,12,2,55273,0:0:0:0:
252,192,55702,6,0,P|220:136|120:132,1,150,12|0,0:0|0:0,0:0:0:0:
104,140,56130,2,0,P|76:192|88:248,1,100,8|0,0:0|0:0,0:0:0:0:
148,276,56559,1,8,0:0:0:0:
228,268,56773,1,0,0:0:0:0:
252,192,56987,2,0,B|308:184|308:184|372:204,1,100,8|0,0:0|0:0,0:0:0:0:
424,292,57416,6,0,P|420:240|456:184,1,100,12|0,0:0|0:0,0:0:0:0:
452,120,57844,2,0,P|448:60|404:20,1,100,8|0,0:0|0:0,0:0:0:0:
344,32,58273,1,8,0:0:0:0:
268,60,58487,1,0,0:0:0:0:
236,132,58702,1,8,0:0:0:0:
132,300,59130,6,0,P|152:240|248:220,1,150,12|0,0:0|0:0,0:0:0:0:
264,232,59559,2,0,P|280:284|264:336,1,100,8|0,0:0|0:0,0:0:0:0:
132,300,59987,2,0,L|24:268,1,100,8|0,0:0|0:0,0:0:0:0:
48,192,60416,2,0,B|160:228,1,100,8|0,0:0|0:0,0:0:0:0:
164,80,60844,5,12,0:0:0:0:
208,148,61059,1,0,0:0:0:0:
280,180,61273,1,8,0:0:0:0:
360,172,61487,1,0,0:0:0:0:
428,132,61702,2,0,P|484:192|464:316,1,200,8|8,0:0|0:0,0:0:0:0:
276,336,62559,6,0,P|296:280|384:264,1,150,12|0,0:0|0:0,0:0:0:0:
392,224,62987,2,0,L|328:124,1,100,8|0,0:0|0:0,0:0:0:0:
280,84,63416,1,8,0:0:0:0:
200,68,63630,1,0,0:0:0:0:
124,92,63844,1,8,0:0:0:0:
60,280,64273,6,0,P|108:248|128:184,1,100,12|0,0:0|0:0,0:0:0:0:
204,216,64702,2,0,P|221:178|269:146,1,100,8|0,0:0|0:0,0:0:0:0:
348,152,65130,1,8,0:0:0:0:
412,200,65344,1,0,0:0:0:0:
428,280,65559,1,8,0:0:0:0:
236,336,65987,6,0,P|232:272|312:224,1,150,12|0,0:0|0:0,0:0:0:0:
292,184,66416,2,0,P|280:124|228:88,1,100,8|0,0:0|0:0,0:0:0:0:
136,76,66844,2,0,P|144:136|188:180,1,100,8|0,0:0|0:0,0:0:0:0:
152,204,67166,1,0,0:0:0:0:
140,240,67273,2,0,L|104:352,1,100,8|0,0:0|0:0,0:0:0:0:
220,292,67702,6,0,P|268:312|336:304,1,100,12|0,0:0|0:0,0:0:0:0:
380,264,68130,2,0,P|408:212|472:196,1,100,8|0,0:0|0:0,0:0:0:0:
448,116,68559,1,8,0:0:0:0:
384,68,68773,1,0,0:0:0:0:
304,76,68987,1,8,0:0:0:0:
152,264,69416,6,0,P|216:220|196:100,1,200,12|8,0:0|0:0,0:0:0:0:
32,212,70273,1,8,0:0:0:0:
32,292,70487,1,0,0:0:0:0:
80,356,70702,1,8,0:0:0:0:
268,292,71130,6,0,P|228:272|156:276,1,100,8|0,0:0|0:0,0:0:0:0:
116,212,71559,2,0,P|160:176|228:176,1,100,8|0,0:0|0:0,0:0:0:0:
280,180,71987,1,8,0:0:0:0:
344,232,72202,1,0,0:0:0:0:
368,308,72416,1,8,0:0:0:0:
172,348,72844,6,0,P|192:308|180:244,1,100,8|0,0:0|0:0,0:0:0:0:
116,212,73273,2,0,P|112:156|140:112,1,100,8|0,0:0|0:0,0:0:0:0:
208,88,73702,1,8,0:0:0:0:
288,96,73916,1,0,0:0:0:0:
344,152,74130,1,8,0:0:0:0:
208,300,74559,6,0,L|80:320,1,100,8|0,0:0|0:0,0:0:0:0:
100,236,74987,2,0,L|-28:216,1,100,8|0,0:0|0:0,0:0:0:0:
32,104,75416,1,8,0:0:0:0:
104,144,75630,1,0,0:0:0:0:
184,156,75844,1,8,0:0:0:0:
264,140,76059,1,0,0:0:0:0:
352,60,76273,6,0,P|308:132|380:236,1,200,12|8,0:0|0:0,0:0:0:0:
436,244,76916,1,0,0:0:0:0:
500,196,77130,2,0,P|460:168|404:172,2,100,8|0|8,0:0|0:0|0:0,0:0:0:0:
356,336,77987,6,0,P|336:248|228:236,1,200,12|8,0:0|0:0,0:0:0:0:
164,264,78630,1,0,0:0:0:0:
128,336,78844,2,0,P|176:340|228:312,1,100,8|0,0:0|0:0,0:0:0:0:
280,264,79273,1,8,0:0:0:0:
184,88,79702,5,12,0:0:0:0:
248,136,79916,1,0,0:0:0:0:
328,152,80130,1,8,0:0:0:0:
408,148,80344,1,0,0:0:0:0:
440,28,80559,2,0,P|384:48|352:88,1,100,8|0,0:0|0:0,0:0:0:0:
328,152,80987,2,0,P|296:200|236:220,1,100,8|0,0:0|0:0,0:0:0:0:
256,336,81416,6,0,P|232:288|164:264,1,100,12|0,0:0|0:0,0:0:0:0:
156,252,81737,2,0,P|68:244|28:168,1,150,8|0,0:0|0:0,0:0:0:0:
48,80,82273,2,0,B|112:72|112:72|156:36,1,100,8|0,0:0|0:0,0:0:0:0:
176,32,82594,2,0,B|240:68|240:68|356:60,1,150,8|0,0:0|0:0,0:0:0:0:
372,168,83130,6,0,L|256:176,1,100,6|0,0:0|0:0,0:0:0:0:
228,240,83559,2,0,P|168:280|76:248,1,150,2|0,0:0|0:0,0:0:0:0:
68,236,83987,2,0,L|96:140,1,100,2|0,0:0|0:0,0:0:0:0:
168,44,84416,2,0,P|236:48|284:136,1,150,2|0,0:0|0:0,0:0:0:0:
316,132,84844,6,0,L|448:116,1,100,6|0,0:0|0:0,0:0:0:0:
444,196,85273,2,0,L|344:208,1,100,2|0,0:0|0:0,0:0:0:0:
304,276,85702,1,2,0:0:0:0:
232,308,85916,1,0,0:0:0:0:
152,304,86130,1,2,0:0:0:0:
84,260,86344,1,0,0:0:0:0:
60,144,86559,6,0,P|124:152|156:192,1,100,6|0,0:0|0:0,0:0:0:0:
212,224,86987,2,0,P|272:192|288:92,1,150,2|0,0:0|0:0,0:0:0:0:
300,76,87416,2,0,L|436:120,1,100,2|0,0:0|0:0,0:0:0:0:
368,224,87844,2,0,P|352:292|420:364,1,150,2|0,0:0|0:0,0:0:0:0:
428,332,88273,6,0,L|496:248,1,100,6|0,0:0|0:0,0:0:0:0:
444,188,88702,2,0,L|512:104,1,100,2|0,0:0|0:0,0:0:0:0:
452,52,89130,1,2,0:0:0:0:
372,52,89344,1,0,0:0:0:0:
300,88,89559,1,2,0:0:0:0:
256,156,89773,1,0,0:0:0:0:
256,236,89987,6,0,P|224:308|96:312,1,200,6|2,0:0|0:0,0:0:0:0:
88,112,90844,2,0,P|164:136|164:252,1,200,2|2,0:0|0:0,0:0:0:0:
108,192,91487,5,0,0:0:0:0:
108,192,91702,2,0,L|216:148,1,100,6|0,0:0|0:0,0:0:0:0:
244,224,92130,2,0,L|336:186,1,100,2|0,0:0|0:0,0:0:0:0:
408,152,92559,1,2,0:0:0:0:
368,84,92773,1,0,0:0:0:0:
292,56,92987,1,2,0:0:0:0:
212,68,93202,1,0,0:0:0:0:
92,52,93416,6,0,P|136:100|72:228,1,200,6|2,0:0|0:0,0:0:0:0:
64,288,94059,1,0,0:0:0:0:
140,312,94273,2,0,L|268:340,1,100,2|0,0:0|0:0,0:0:0:0:
316,348,94702,1,2,0:0:0:0:
256,192,94809,12,2,96416,0:0:0:0:
256,192,96844,5,4,0:0:0:0:
80,60,110559,6,0,B|140:60|140:60|192:96,1,100,12|0,0:0|0:0,0:0:0:0:
328,160,110987,2,0,B|268:160|268:160|216:124,1,100,8|0,0:0|0:0,0:0:0:0:
172,82,111416,1,8,0:0:0:0:
160,160,111630,1,0,0:0:0:0:
208,224,111844,2,0,B|244:248|244:248|244:312,1,100,8|0,0:0|0:0,0:0:0:0:
276,328,112166,1,0,0:0:0:0:
312,348,112273,6,0,P|384:336|412:208,1,200,12|8,0:0|0:0,0:0:0:0:
460,156,112916,1,0,0:0:0:0:
344,188,113130,2,0,P|272:156|256:24,1,200,8|8,0:0|0:0,0:0:0:0:
324,68,113773,1,0,0:0:0:0:
344,188,113987,6,0,B|301:230|301:230|239:241,1,100,12|0,0:0|0:0,0:0:0:0:
97,292,114416,2,0,B|139:249|139:249|201:238,1,100,8|0,0:0|0:0,0:0:0:0:
262,237,114844,1,8,0:0:0:0:
216,173,115059,1,0,0:0:0:0:
164,112,115273,2,0,B|108:96|108:96|72:48,1,100,8|0,0:0|0:0,0:0:0:0:
48,84,115594,1,0,0:0:0:0:
16,108,115702,6,0,P|44:164|0:292,1,200,12|8,0:0|0:0,0:0:0:0:
64,340,116344,1,0,0:0:0:0:
217,315,116559,2,0,B|180:292|180:292|124:288,1,100,8|0,0:0|0:0,0:0:0:0:
256,88,117202,1,0,0:0:0:0:
242,174,117416,6,0,B|274:196|274:196|334:196,1,100,12|0,0:0|0:0,0:0:0:0:
180,120,117844,2,0,B|147:97|147:97|87:97,1,100,8|0,0:0|0:0,0:0:0:0:
180,120,118273,1,8,0:0:0:0:
164,200,118487,1,0,0:0:0:0:
242,174,118702,2,0,P|240:228|216:268,1,100,8|0,0:0|0:0,0:0:0:0:
188,296,119023,1,0,0:0:0:0:
160,324,119130,6,0,B|268:328|268:328|368:368,1,200,12|8,0:0|0:0,0:0:0:0:
428,332,119773,1,0,0:0:0:0:
436,252,119987,2,0,B|385:156|385:156|370:49,1,200,8|8,0:0|0:0,0:0:0:0:
452,76,120630,1,0,0:0:0:0:
436,252,120844,6,0,B|453:288|453:288|505:318,1,100,12|0,0:0|0:0,0:0:0:0:
409,174,121273,2,0,B|391:137|391:137|339:107,1,100,8|0,0:0|0:0,0:0:0:0:
409,174,121702,1,8,0:0:0:0:
354,234,121916,1,0,0:0:0:0:
436,252,122130,2,0,P|407:297|366:320,1,100,8|0,0:0|0:0,0:0:0:0:
328,316,122452,1,0,0:0:0:0:
292,296,122559,6,0,B|224:224|224:224|116:192,1,200,12|8,0:0|0:0,0:0:0:0:
84,128,123202,1,0,0:0:0:0:
240,75,123416,2,0,B|196:88|196:88|144:76,1,100,8|0,0:0|0:0,0:0:0:0:
68,304,124273,6,0,P|132:244|208:320,1,200,2|0,0:0|0:0,0:0:0:0:
444,304,125130,2,0,P|380:244|304:320,1,200,2|0,0:0|0:0,0:0:0:0:
256,152,125987,2,0,P|168:128|188:28,1,200,2|0,0:0|0:0,0:0:0:0:
252,68,126630,1,0,0:0:0:0:
324,104,126844,2,0,P|380:96|408:40,1,100,2|0,0:0|0:0,0:0:0:0:
424,52,127166,1,0,0:0:0:0:
448,44,127273,1,0,0:0:0:0:
444,304,127702,6,0,P|380:244|304:320,1,200,2|0,0:0|0:0,0:0:0:0:
68,304,128559,2,0,P|132:244|208:320,1,200,2|0,0:0|0:0,0:0:0:0:
256,152,129416,2,0,P|344:128|324:28,1,200,2|0,0:0|0:0,0:0:0:0:
260,68,130059,1,0,0:0:0:0:
188,104,130273,6,0,L|120:124,1,50,2|0,0:0|0:0,0:0:0:0:
184,56,130487,2,0,L|113:51,2,50,0|0|0,0:0|0:0|0:0,0:0:0:0:
204,180,131130,6,0,P|152:224|188:352,1,200,6|2,0:0|0:0,0:0:0:0:
360,368,131987,2,0,P|344:292|236:252,1,200,2|2,0:0|0:0,0:0:0:0:
204,180,132630,1,0,0:0:0:0:
144,128,132844,6,0,P|88:96|68:48,1,100,6|0,0:0|0:0,0:0:0:0:
148,48,133273,2,0,P|200:40|256:60,1,100,2|0,0:0|0:0,0:0:0:0:
308,104,133702,1,2,0:0:0:0:
332,180,133916,1,0,0:0:0:0:
312,256,134130,1,2,0:0:0:0:
244,296,134344,1,0,0:0:0:0:
164,288,134559,6,0,P|120:224|0:232,1,200,6|2,0:0|0:0,0:0:0:0:
148,368,135416,2,0,P|244:364|296:260,1,200,2|2,0:0|0:0,0:0:0:0:
256,212,136059,1,0,0:0:0:0:
176,196,136273,6,0,P|120:200|72:236,1,100,6|0,0:0|0:0,0:0:0:0:
20,172,136702,2,0,P|88:128|208:120,1,200,2|2,0:0|0:0,0:0:0:0:
280,144,137344,1,0,0:0:0:0:
348,188,137559,2,0,B|404:176|404:176|448:132,1,100,2|0,0:0|0:0,0:0:0:0:
340,68,137987,6,0,B|292:48|292:48|224:56,2,100,6|0|2,0:0|0:0|0:0,0:0:0:0:
364,268,138844,2,0,B|412:288|412:288|480:280,2,100,2|0|2,0:0|0:0|0:0,0:0:0:0:
184,184,139702,5,6,0:0:0:0:
112,224,139916,1,0,0:0:0:0:
76,296,140130,1,2,0:0:0:0:
68,376,140344,1,0,0:0:0:0:
140,344,140559,2,0,P|200:292|332:308,1,200,2|2,0:0|0:0,0:0:0:0:
392,280,141202,1,0,0:0:0:0:
400,200,141416,6,0,L|296:128,1,100,6|0,0:0|0:0,0:0:0:0:
340,64,141844,2,0,L|444:136,1,100,2|0,0:0|0:0,0:0:0:0:
317,143,142273,2,0,B|216:148|216:148|108:104,1,200,2|2,0:0|0:0,0:0:0:0:
52,76,142916,1,0,0:0:0:0:
11,147,143130,6,0,L|135:169,1,100,6|0,0:0|0:0,0:0:0:0:
150,94,143559,2,0,L|25:71,1,100,2|0,0:0|0:0,0:0:0:0:
109,165,143987,2,0,B|177:240|177:240|284:285,1,200,2|2,0:0|0:0,0:0:0:0:
345,306,144630,1,0,0:0:0:0:
404,248,144844,6,0,B|440:216|440:216|452:160,1,100,6|0,0:0|0:0,0:0:0:0:
328,92,145273,2,0,B|338:142|338:142|374:174,1,100,2|0,0:0|0:0,0:0:0:0:
404,248,145702,1,2,0:0:0:0:
345,306,145916,1,0,0:0:0:0:
268,332,146130,1,2,0:0:0:0:
256,192,146237,12,0,149130,0:0:0:0:
256,192,149559,5,2,0:0:0:0:
416,164,151702,6,0,P|400:84|264:48,1,200,12|8,0:0|0:0,0:0:0:0:
204,212,152559,1,8,0:0:0:0:
140,260,152773,1,0,0:0:0:0:
64,284,152987,1,8,0:0:0:0:
152,104,153416,6,0,P|208:84|268:96,1,100,8|0,0:0|0:0,0:0:0:0:
324,108,153845,2,0,P|360:152|412:176,1,100,8|0,0:0|0:0,0:0:0:0:
424,248,154273,1,8,0:0:0:0:
360,296,154487,1,0,0:0:0:0:
280,304,154702,1,8,0:0:0:0:
88,244,155130,6,0,P|88:136|168:76,1,200,8|8,0:0|0:0,0:0:0:0:
228,104,155773,1,0,0:0:0:0:
300,140,155987,2,0,P|360:144|416:120,2,100,8|0|8,0:0|0:0|0:0,0:0:0:0:
224,324,156845,6,0,L|8:324,1,200,8|8,0:0|0:0,0:0:0:0:
144,164,157702,1,8,0:0:0:0:
216,128,157916,1,0,0:0:0:0:
296,124,158130,1,8,0:0:0:0:
400,296,158559,6,0,P|388:244|464:116,1,200,8|8,0:0|0:0,0:0:0:0:
416,52,159202,1,0,0:0:0:0:
336,40,159416,2,0,P|288:48|228:24,1,100,8|0,0:0|0:0,0:0:0:0:
172,72,159845,2,0,P|112:68|56:96,1,100,8|0,0:0|0:0,0:0:0:0:
44,196,160273,6,0,P|124:232|228:176,2,200,8|8|8,0:0|0:0|0:0,0:0:0:0:
100,140,161345,1,0,0:0:0:0:
160,88,161559,2,0,P|216:72|268:88,1,100,8|0,0:0|0:0,0:0:0:0:
372,44,161987,6,0,P|336:84|328:136,1,100,12|0,0:0|0:0,0:0:0:0:
368,196,162416,1,8,0:0:0:0:
416,260,162630,1,0,0:0:0:0:
468,320,162845,2,0,P|392:360|292:304,1,200,8|8,0:0|0:0,0:0:0:0:
256,244,163487,1,0,0:0:0:0:
220,128,163702,6,0,P|192:88|132:76,1,100,12|0,0:0|0:0,0:0:0:0:
68,88,164130,1,8,0:0:0:0:
48,164,164345,1,0,0:0:0:0:
52,244,164559,2,0,P|96:320|208:312,1,200,8|8,0:0|0:0,0:0:0:0:
256,260,165202,1,0,0:0:0:0:
312,200,165416,6,0,B|408:188|408:188|496:120,1,200,12|8,0:0|0:0,0:0:0:0:
308,56,166273,1,8,0:0:0:0:
232,80,166487,1,0,0:0:0:0:
172,136,166702,1,8,0:0:0:0:
140,332,167130,6,0,P|152:272|128:216,1,100,12|0,0:0|0:0,0:0:0:0:
68,204,167559,2,0,P|56:160|72:100,1,100,8|0,0:0|0:0,0:0:0:0:
120,48,167987,1,8,0:0:0:0:
192,80,168202,1,0,0:0:0:0:
232,148,168416,1,8,0:0:0:0:
368,292,168845,6,0,P|328:252|184:240,1,200,12|8,0:0|0:0,0:0:0:0:
128,288,169487,1,0,0:0:0:0:
60,332,169702,2,0,P|28:280|32:228,1,100,8|0,0:0|0:0,0:0:0:0:
48,164,170130,2,0,P|132:160|200:56,1,200,8|12,0:0|0:0,0:0:0:0:
276,52,170773,5,0,0:0:0:0:
348,84,170987,1,8,0:0:0:0:
396,148,171202,1,0,0:0:0:0:
424,224,171416,2,0,L|328:312,1,100,8|0,0:0|0:0,0:0:0:0:
232,280,171845,2,0,L|305:212,1,100,8|0,0:0|0:0,0:0:0:0:
350,291,172273,6,0,B|268:364|268:364|152:368,1,200,12|8,0:0|0:0,0:0:0:0:
64,204,173130,1,8,0:0:0:0:
144,196,173345,1,0,0:0:0:0:
220,224,173559,1,8,0:0:0:0:
412,172,173987,6,0,P|440:128|440:72,1,100,12|0,0:0|0:0,0:0:0:0:
368,52,174416,2,0,P|312:72|280:112,1,100,8|0,0:0|0:0,0:0:0:0:
248,172,174845,2,0,P|172:228|64:188,1,200,8|8,0:0|0:0,0:0:0:0:
212,52,175702,5,12,0:0:0:0:
288,80,175916,1,0,0:0:0:0:
344,136,176130,1,8,0:0:0:0:
376,212,176345,1,0,0:0:0:0:
376,292,176559,2,0,P|276:280|204:348,1,200,8|8,0:0|0:0,0:0:0:0:
128,352,177202,1,0,0:0:0:0:
176,244,177416,6,0,P|208:196|208:132,1,100,12|0,0:0|0:0,0:0:0:0:
228,76,177845,2,0,P|288:96|344:88,1,100,8|0,0:0|0:0,0:0:0:0:
404,84,178273,1,8,0:0:0:0:
444,152,178487,1,0,0:0:0:0:
444,232,178702,1,8,0:0:0:0:
228,336,179130,5,4,0:0:0:0:
