osu file format v12

[General]
AudioFilename: VY2VY1V3.mp3
AudioLeadIn: 0
PreviewTime: 14120
Countdown: 0
SampleSet: Normal
StackLeniency: 0.7
Mode: 0
LetterboxInBreaks: 0

[Editor]
Bookmarks: 69407,97049,110764,131121
DistanceSpacing: 0.8
BeatDivisor: 4
GridSize: 4

[Metadata]
Title:Hurting for a Very Hurtful Pain
TitleUnicode:とても痛い痛がりたい
Artist:EZFG
ArtistUnicode:そっとうP
Creator:tutuhaha
Version:Easy
Source:
Tags:VY2 VY1V3 Vocaloid vocaloid2 VY1
BeatmapID:205312
BeatmapSetID:46848

[Difficulty]
HPDrainRate:3
CircleSize:3
OverallDifficulty:3
ApproachRate:4
SliderMultiplier:1.4
SliderTickRate:1

[Events]
//Background and Video events
0,0,"BG.jpg",0,0
Video,0,"VY2VY1V3.flv"
//Break Periods
2,97044,109229
//Storyboard Layer 0 (Background)
//Storyboard Layer 1 (Fail)
//Storyboard Layer 2 (Pass)
//Storyboard Layer 3 (Foreground)
//Storyboard Sound Samples
//Background Colour Transformations
3,100,0,0,0

[TimingPoints]
845,428.571428571429,4,1,1,80,1,0
7702,-100,4,1,1,50,0,0
11131,-100,4,1,1,60,0,0
11452,-100,4,1,2,80,0,0
11666,-100,4,1,1,60,0,0
13702,-100,4,1,1,70,0,0
14559,-100,4,1,2,80,0,0
53559,-100,4,1,1,60,0,0
55273,-100,4,2,1,80,0,0
55702,-100,4,1,2,80,0,0
94702,-100,4,1,1,60,0,0
96416,-100,4,2,1,80,0,0
96844,-100,4,2,1,50,0,0
110559,-100,4,1,2,70,0,0
124274,-100,4,2,1,50,0,0
127702,-100,4,2,1,60,0,0
130273,-100,4,2,1,70,0,0
131131,-100,4,1,1,80,0,0
146130,-100,4,1,1,60,0,0
146237,-100,4,1,1,5,0,0
149559,-100,4,2,1,40,0,0
151702,-100,4,1,2,80,0,0
165416,-100,4,1,2,90,0,0
179130,-100,4,1,1,100,0,0

[Colours]
Combo1 : 95,95,95
Combo2 : 255,0,0
Combo3 : 190,190,190

[HitObjects]
108,88,7702,2,0,P|104:160|160:228,1,140,8|8,0:0|0:0,0:0:0:0:
196,312,8559,2,0,P|256:284|328:324,1,140,8|8,0:0|0:0,0:0:0:0:
372,214,9416,2,0,P|408:160|404:88,2,140,8|8|8,0:0|0:0|0:0,0:0:0:0:
300,128,10702,1,8,0:0:0:0:
200,80,11130,6,0,B|140:128|140:128|48:128|48:128|88:176|32:248,1,280,8|8,0:0|0:0,0:0:0:0:
116,316,12416,1,8,0:0:0:0:
196,236,12844,2,0,P|256:268|324:236,1,140,8|8,0:0|0:0,0:0:0:0:
332,356,13702,1,8,0:0:0:0:
444,340,14130,1,8,0:0:0:0:
464,228,14559,6,0,P|452:164|376:112,1,140,12|8,0:0|0:0,0:0:0:0:
296,72,15416,2,0,L|128:72,1,140,8|8,0:0|0:0,0:0:0:0:
80,152,16273,2,0,P|168:208|88:344,1,280,12|8,0:0|0:0,0:0:0:0:
32,256,17559,1,8,0:0:0:0:
32,256,17987,6,0,B|200:240|200:240|296:160,1,280,12|8,0:0|0:0,0:0:0:0:
364,88,19273,1,8,0:0:0:0:
440,168,19702,2,0,P|468:120|452:32,2,140,12|8|8,0:0|0:0|0:0,0:0:0:0:
372,256,20987,1,8,0:0:0:0:
292,336,21416,6,0,B|192:280|192:280|8:280,1,280,12|8,0:0|0:0,0:0:0:0:
64,172,22702,1,8,0:0:0:0:
116,72,23130,2,0,L|256:72,1,140,12|8,0:0|0:0,0:0:0:0:
304,176,23987,2,0,L|452:176,1,140,8|8,0:0|0:0,0:0:0:0:
388,76,24845,6,0,P|312:144|380:300,1,280,12|8,0:0|0:0,0:0:0:0:
456,224,26130,1,8,0:0:0:0:
456,224,26559,2,0,B|368:292|368:292|188:292,1,280,12|8,0:0|0:0,0:0:0:0:
88,292,27845,1,8,0:0:0:0:
36,192,28273,6,0,P|48:116|228:64,1,280,12|8,0:0|0:0,0:0:0:0:
256,168,29559,1,8,0:0:0:0:
304,268,29987,2,0,P|376:256|420:176,2,140,8|8|8,0:0|0:0|0:0,0:0:0:0:
256,168,31273,1,8,0:0:0:0:
208,268,31702,6,0,P|112:244|104:76,1,280,8|8,0:0|0:0,0:0:0:0:
200,36,32987,1,8,0:0:0:0:
312,56,33416,2,0,B|376:84|376:84|468:84,1,140,8|8,0:0|0:0,0:0:0:0:
452,196,34273,2,0,B|388:224|388:224|296:224,1,140,8|8,0:0|0:0,0:0:0:0:
236,300,35130,6,0,P|212:216|32:192,1,280,12|8,0:0|0:0,0:0:0:0:
40,296,36416,1,8,0:0:0:0:
144,340,36845,2,0,B|292:276|292:276|428:276,1,280,12|8,0:0|0:0,0:0:0:0:
468,180,38130,1,8,0:0:0:0:
408,84,38559,6,0,L|268:84,1,140,12|8,0:0|0:0,0:0:0:0:
176,148,39416,1,8,0:0:0:0:
84,212,39845,1,8,0:0:0:0:
148,304,40273,2,0,P|260:312|360:184,1,280,12|8,0:0|0:0,0:0:0:0:
436,108,41559,1,8,0:0:0:0:
328,80,41987,6,0,B|272:44|272:44|180:44,1,140,6|2,0:0|0:0,0:0:0:0:
156,148,42845,2,0,B|100:112|100:112|8:112,1,140,2|2,0:0|0:0,0:0:0:0:
80,212,43702,2,0,P|144:244|212:224,1,140,6|2,0:0|0:0,0:0:0:0:
256,124,44559,1,2,0:0:0:0:
256,124,44987,1,2,0:0:0:0:
328,208,45416,6,0,B|420:208|420:208|480:168,1,140,6|2,0:0|0:0,0:0:0:0:
424,76,46273,2,0,B|384:102|384:102|292:102,1,140,2|2,0:0|0:0,0:0:0:0:
188,140,47130,2,0,P|168:80|76:56,2,140,6|2|2,0:0|0:0|0:0,0:0:0:0:
80,164,48416,1,2,0:0:0:0:
40,268,48844,6,0,L|188:268,1,140,6|2,0:0|0:0,0:0:0:0:
256,352,49702,2,0,L|404:352,1,140,2|2,0:0|0:0,0:0:0:0:
436,248,50559,1,6,0:0:0:0:
392,144,50987,1,2,0:0:0:0:
424,36,51416,2,0,P|364:32|300:80,1,140,2|2,0:0|0:0,0:0:0:0:
208,140,52273,6,0,B|120:140|120:140|52:176,1,140,6|2,0:0|0:0,0:0:0:0:
160,236,53130,2,0,L|316:236,1,140,2|2,0:0|0:0,0:0:0:0:
256,192,53666,12,12,55702,0:0:0:0:
376,276,56559,6,0,P|324:320|128:244,1,280,8|12,0:0|0:0,0:0:0:0:
88,168,57844,1,8,0:0:0:0:
112,60,58273,2,0,L|236:128,1,140,8|8,0:0|0:0,0:0:0:0:
292,224,59130,6,0,P|400:236|472:84,1,280,12|8,0:0|0:0,0:0:0:0:
368,72,60416,1,8,0:0:0:0:
264,112,60844,2,0,P|228:56|148:40,2,140,12|8|8,0:0|0:0|0:0,0:0:0:0:
160,152,62130,1,8,0:0:0:0:
68,216,62559,6,0,B|228:284|228:284|340:244,1,280,12|8,0:0|0:0,0:0:0:0:
364,140,63844,1,8,0:0:0:0:
364,140,64273,2,0,P|324:232|468:340,2,280,12|8|12,0:0|0:0|0:0,0:0:0:0:
260,100,66416,5,8,0:0:0:0:
156,56,66844,2,0,L|0:56,1,140,8|8,0:0|0:0,0:0:0:0:
72,152,67702,2,0,P|152:176|160:356,1,280,12|8,0:0|0:0,0:0:0:0:
92,264,68987,1,8,0:0:0:0:
188,208,69416,6,0,L|340:140,1,140,12|8,0:0|0:0,0:0:0:0:
412,92,70273,1,8,0:0:0:0:
412,92,70702,1,8,0:0:0:0:
448,196,71130,2,0,P|336:176|324:24,1,280,8|8,0:0|0:0,0:0:0:0:
412,92,72416,1,8,0:0:0:0:
324,164,72844,6,0,L|204:256,1,140,8|8,0:0|0:0,0:0:0:0:
108,208,73702,2,0,B|108:132|108:132|52:76,1,140,8|8,0:0|0:0,0:0:0:0:
164,40,74559,2,0,B|248:104|248:104|444:104,1,280,12|8,0:0|0:0,0:0:0:0:
452,212,75844,1,8,0:0:0:0:
392,308,76273,6,0,P|352:264|252:252,2,140,12|8|8,0:0|0:0|0:0,0:0:0:0:
288,352,77559,1,8,0:0:0:0:
176,340,77987,2,0,P|152:240|284:136,1,280,12|8,0:0|0:0,0:0:0:0:
388,140,79273,1,8,0:0:0:0:
274,135,79702,6,0,L|136:52,1,140,12|8,0:0|0:0,0:0:0:0:
56,120,80559,2,0,L|175:192,1,140,8|8,0:0|0:0,0:0:0:0:
204,300,81416,2,0,P|280:244|428:336,2,280,12|8|6,0:0|0:0|0:0,0:0:0:0:
92,288,83559,5,2,0:0:0:0:
24,200,83987,2,0,B|84:156|84:156|88:88,1,140,2|2,0:0|0:0,0:0:0:0:
196,124,84844,2,0,P|256:152|332:104,2,140,6|2|2,0:0|0:0|0:0,0:0:0:0:
256,28,86130,1,2,0:0:0:0:
368,36,86559,6,0,B|448:56|448:56|496:116,1,140,6|2,0:0|0:0,0:0:0:0:
436,204,87416,2,0,B|400:248|400:248|320:268,1,140,2|2,0:0|0:0,0:0:0:0:
216,312,88273,2,0,L|60:312,2,140,6|2|2,0:0|0:0|0:0,0:0:0:0:
256,208,89559,1,2,0:0:0:0:
152,172,89987,6,0,P|112:116|144:28,1,140,6|2,0:0|0:0,0:0:0:0:
228,92,90844,2,0,L|368:92,1,140,2|2,0:0|0:0,0:0:0:0:
384,204,91702,2,0,B|304:204|304:204|272:264,1,140,6|2,0:0|0:0,0:0:0:0:
200,340,92559,1,2,0:0:0:0:
96,300,92987,1,2,0:0:0:0:
36,208,93416,6,0,P|48:152|120:104,1,140,6|2,0:0|0:0,0:0:0:0:
204,40,94273,2,0,P|240:100|312:116,1,140,2|2,0:0|0:0,0:0:0:0:
256,192,94809,12,4,96844,0:0:0:0:
288,72,110559,6,0,P|352:64|420:108,2,140,12|8|8,0:0|0:0|0:0,0:0:0:0:
332,176,111844,1,8,0:0:0:0:
232,224,112273,2,0,P|168:128|128:232,1,280,12|8,0:0|0:0,0:0:0:0:
188,328,113559,1,8,0:0:0:0:
300,312,113987,6,0,P|308:252|384:216,2,140,12|8|8,0:0|0:0|0:0,0:0:0:0:
412,316,115273,1,8,0:0:0:0:
476,224,115702,2,0,P|468:134|383:229,1,280,12|8,0:0|0:0,0:0:0:0:
156,276,117416,5,12,0:0:0:0:
156,276,117844,1,8,0:0:0:0:
60,216,118273,2,0,P|56:152|124:92,1,140,8|8,0:0|0:0,0:0:0:0:
212,64,119130,2,0,B|320:136|320:136|476:116,1,280,12|8,0:0|0:0,0:0:0:0:
468,228,120416,1,8,0:0:0:0:
356,244,120844,6,0,L|184:268,2,140,12|8|8,0:0|0:0|0:0,0:0:0:0:
468,228,122130,1,8,0:0:0:0:
468,116,122559,2,0,B|320:136|320:136|212:64,1,280,12|8,0:0|0:0,0:0:0:0:
84,248,124273,5,2,0:0:0:0:
304,296,125130,1,2,0:0:0:0:
144,140,125987,2,0,P|96:52|44:168,1,280,2|2,0:0|0:0,0:0:0:0:
428,248,127702,5,2,0:0:0:0:
208,296,128559,1,2,0:0:0:0:
368,140,129416,2,0,P|416:52|468:168,1,280,2|0,0:0|0:0,0:0:0:0:
88,272,131130,6,0,L|244:304,1,140,6|2,0:0|0:0,0:0:0:0:
256,192,131987,2,0,P|256:128|336:76,1,140,2|2,0:0|0:0,0:0:0:0:
388,160,132844,1,6,0:0:0:0:
476,88,133273,1,2,0:0:0:0:
476,200,133702,1,2,0:0:0:0:
392,272,134130,1,2,0:0:0:0:
388,160,134559,6,0,P|368:100|288:64,1,140,6|2,0:0|0:0,0:0:0:0:
192,56,135416,2,0,P|128:68|80:148,1,140,2|2,0:0|0:0,0:0:0:0:
48,232,136273,1,6,0:0:0:0:
108,328,136702,1,2,0:0:0:0:
216,304,137130,1,2,0:0:0:0:
156,208,137559,1,2,0:0:0:0:
48,232,137987,6,0,B|48:156|48:156|84:88,1,140,6|2,0:0|0:0,0:0:0:0:
192,100,138844,2,0,B|268:100|268:100|324:70,1,140,2|2,0:0|0:0,0:0:0:0:
400,152,139702,1,6,0:0:0:0:
408,264,140130,1,2,0:0:0:0:
304,308,140559,1,2,0:0:0:0:
296,196,140987,1,2,0:0:0:0:
400,152,141416,6,0,P|392:88|324:44,1,140,6|2,0:0|0:0,0:0:0:0:
232,92,142273,2,0,L|88:96,1,140,2|2,0:0|0:0,0:0:0:0:
56,204,143130,2,0,B|144:204|144:204|200:252,2,140,6|2|2,0:0|0:0|0:0,0:0:0:0:
80,312,144416,1,2,0:0:0:0:
188,344,144844,6,0,L|352:344,2,140,6|2|2,0:0|0:0|0:0,0:0:0:0:
80,312,146130,1,2,0:0:0:0:
256,192,146237,12,2,149559,0:0:0:0:
200,196,151702,6,0,L|40:216,1,140,12|8,0:0|0:0,0:0:0:0:
68,100,152559,1,8,0:0:0:0:
68,100,152987,1,8,0:0:0:0:
172,60,153416,2,0,B|312:88|312:88|416:176,1,280,8|8,0:0|0:0,0:0:0:0:
416,288,154702,1,8,0:0:0:0:
320,344,155130,6,0,P|308:272|344:208,1,140,8|8,0:0|0:0,0:0:0:0:
320,104,155987,1,8,0:0:0:0:
216,68,156416,1,8,0:0:0:0:
212,180,156845,2,0,P|204:248|144:304,2,140,8|8|8,0:0|0:0|0:0,0:0:0:0:
216,68,158130,1,8,0:0:0:0:
320,108,158559,6,0,B|384:80|384:80|472:80,1,140,8|8,0:0|0:0,0:0:0:0:
436,192,159416,2,0,B|464:256|464:256|464:344,1,140,8|8,0:0|0:0,0:0:0:0:
352,316,160273,2,0,P|296:232|132:272,1,280,8|8,0:0|0:0,0:0:0:0:
80,356,161559,1,8,0:0:0:0:
36,252,161987,6,0,L|4:104,1,140,12|8,0:0|0:0,0:0:0:0:
104,60,162845,2,0,L|133:196,1,140,8|8,0:0|0:0,0:0:0:0:
244,212,163702,2,0,P|328:108|464:156,1,280,12|8,0:0|0:0,0:0:0:0:
440,256,164987,1,8,0:0:0:0:
340,312,165416,6,0,L|180:344,1,140,12|8,0:0|0:0,0:0:0:0:
104,288,166273,1,8,0:0:0:0:
56,184,166702,1,8,0:0:0:0:
96,80,167130,2,0,P|216:124|332:16,1,280,12|8,0:0|0:0,0:0:0:0:
416,104,168416,1,8,0:0:0:0:
420,216,168845,6,0,P|352:252|324:332,1,140,12|8,0:0|0:0,0:0:0:0:
216,332,169702,2,0,L|80:268,1,140,8|8,0:0|0:0,0:0:0:0:
76,160,170559,1,12,0:0:0:0:
76,160,170987,1,8,0:0:0:0:
152,76,171416,2,0,P|216:52|308:84,1,140,8|8,0:0|0:0,0:0:0:0:
284,180,172273,5,12,0:0:0:0:
392,216,172702,1,8,0:0:0:0:
332,312,173130,2,0,L|184:332,1,140,8|8,0:0|0:0,0:0:0:0:
84,304,173987,2,0,P|156:192|60:72,1,280,12|8,0:0|0:0,0:0:0:0:
60,192,175273,1,8,0:0:0:0:
172,192,175702,6,0,L|328:192,1,140,12|8,0:0|0:0,0:0:0:0:
308,304,176559,2,0,L|456:304,1,140,8|8,0:0|0:0,0:0:0:0:
436,192,177416,1,12,0:0:0:0:
364,108,177845,1,8,0:0:0:0:
256,84,178273,1,8,0:0:0:0:
144,92,178702,1,8,0:0:0:0:
48,148,179130,5,12,0:0:0:0:
