osu file format v12

[General]
AudioFilename: VY2VY1V3.mp3
AudioLeadIn: 0
PreviewTime: 14120
Countdown: 0
SampleSet: Soft
StackLeniency: 0.9
Mode: 0
LetterboxInBreaks: 0

[Editor]
Bookmarks: 69407,97049,110764,131121
DistanceSpacing: 1
BeatDivisor: 4
GridSize: 4

[Metadata]
Title:Hurting for a Very Hurtful Pain
TitleUnicode:とても痛い痛がりたい
Artist:EZFG
ArtistUnicode:そっとうP
Creator:tutuhaha
Version:Dance
Source:
Tags:VY2 VY1V3 Vocaloid vocaloid2 VY1
BeatmapID:145669
BeatmapSetID:46848

[Difficulty]
HPDrainRate:6
CircleSize:4
OverallDifficulty:8
ApproachRate:9
SliderMultiplier:3.2
SliderTickRate:2

[Events]
//Background and Video events
0,0,"BG.jpg",0,0
Video,0,"VY2VY1V3.flv"
//Break Periods
2,97044,109959
//Storyboard Layer 0 (Background)
//Storyboard Layer 1 (Fail)
//Storyboard Layer 2 (Pass)
//Storyboard Layer 3 (Foreground)
//Storyboard Sound Samples
//Background Colour Transformations
3,100,0,0,0

[TimingPoints]
845,428.571428571429,4,1,1,80,1,0
7702,-100,4,1,1,50,0,0
11131,-100,4,1,1,60,0,0
13702,-100,4,1,1,70,0,0
14559,-100,4,1,1,80,0,0
53559,-100,4,1,1,60,0,0
55273,-100,4,2,1,60,0,0
55702,-100,4,1,1,80,0,0
94702,-100,4,1,1,60,0,0
96416,-100,4,2,1,40,0,0
96844,-100,4,2,1,50,0,0
110559,-100,4,1,1,70,0,0
124274,-100,4,2,1,50,0,0
127702,-100,4,2,1,60,0,0
130273,-100,4,2,1,70,0,0
131131,-100,4,1,1,80,0,0
146130,-100,4,1,1,60,0,0
149559,-100,4,2,1,40,0,0
151702,-100,4,1,1,80,0,0
165416,-100,4,1,1,90,0,0
179130,-100,4,1,1,100,0,0

[Colours]
Combo1 : 95,95,95
Combo2 : 255,0,0
Combo3 : 190,190,190

[HitObjects]
64,72,7702,2,0,B|152:72|152:72|232:32,1,160
464,156,8130,2,0,B|376:156|376:156|296:116,1,160,8|0,0:0|0:0,0:0:0:0:
36,236,8559,2,0,B|124:236|124:236|204:196,1,160
464,312,8987,1,8,0:0:0:0:
304,316,9202,1,0,0:0:0:0:
180,104,9416,6,0,B|128:164|128:164|124:256,1,160,8|0,0:0|0:0,0:0:0:0:
332,104,9844,2,0,B|384:164|384:164|388:256,1,160,8|0,0:0|0:0,0:0:0:0:
200,236,10273,1,8,0:0:0:0:
92,352,10487,1,0,0:0:0:0:
48,200,10702,1,8,0:0:0:0:
144,68,10916,1,8,0:0:0:0:
224,68,11023,1,0,0:0:0:0:
304,68,11130,6,0,B|384:68|384:68|424:84|424:84|480:84,1,160,8|0,0:0|0:0,0:0:0:0:
208,136,11559,2,0,B|128:136|128:136|88:152|88:152|32:152,1,160,8|0,0:0|0:0,0:0:0:0:
304,236,11987,2,0,B|384:236|384:236|424:252|424:252|480:252,1,160,8|0,0:0|0:0,0:0:0:0:
208,304,12416,2,0,B|128:304|128:304|88:320|88:320|32:320,1,160,8|0,0:0|0:0,0:0:0:0:
148,192,12844,6,0,B|128:112|128:112|80:88|80:88|60:52,1,160,8|0,0:0|0:0,0:0:0:0:
364,192,13273,2,0,B|384:112|384:112|432:88|432:88|452:52,1,160,8|0,0:0|0:0,0:0:0:0:
288,32,13702,1,8,0:0:0:0:
256,352,13916,1,8,0:0:0:0:
224,32,14130,1,8,0:0:0:0:
256,352,14344,2,0,B|256:256,1,80
144,56,14559,6,0,B|88:96|88:96|88:160|88:160|128:180|128:180|128:256,1,240,12|0,0:0|0:0,0:0:0:0:
128,324,14987,1,8,0:0:0:0:
204,348,15094,1,0,0:0:0:0:
256,288,15202,1,0,0:0:0:0:
208,224,15309,1,0,0:0:0:0:
232,148,15416,6,0,B|232:68,1,80,8|0,0:0|0:0,0:0:0:0:
312,140,15630,2,0,B|312:220,1,80,0|0,0:0|0:0,0:0:0:0:
324,60,15844,2,0,B|412:60,1,80,8|0,0:0|0:0,0:0:0:0:
492,140,16059,2,0,B|412:140,1,80
436,276,16273,6,0,B|368:276|368:276|352:288|352:288|264:288,1,160,12|0,0:0|0:0,0:0:0:0:
224,228,16594,1,0,0:0:0:0:
20,176,16702,2,0,B|92:176|92:176|108:164|108:164|176:164,1,160,8|0,0:0|0:0,0:0:0:0:
224,100,17023,1,0,0:0:0:0:
435,177,17130,6,0,B|384:116,1,80,8|0,0:0|0:0,0:0:0:0:
344,293,17344,2,0,B|364:216,1,80,0|0,0:0|0:0,0:0:0:0:
292,180,17559,2,0,B|240:118,1,80,8|0,0:0|0:0,0:0:0:0:
200,289,17773,2,0,B|220:212,1,80,0|0,0:0|0:0,0:0:0:0:
164,156,17987,6,0,B|116:156|116:156|88:144|88:144|40:144|40:144|40:196,1,160,12|0,0:0|0:0,0:0:0:0:
68,252,18309,1,0,0:0:0:0:
124,312,18416,2,0,B|172:312|172:312|200:324|200:324|248:324|248:324|248:272,1,160,8|0,0:0|0:0,0:0:0:0:
320,252,18737,1,0,0:0:0:0:
400,240,18845,6,0,B|400:148,1,80,8|0,0:0|0:0,0:0:0:0:
292,28,19059,2,0,B|292:108,1,80
204,268,19273,2,0,B|204:188,1,80,8|0,0:0|0:0,0:0:0:0:
104,44,19487,2,0,B|104:124,1,80
48,272,19702,5,12,0:0:0:0:
112,324,19809,1,0,0:0:0:0:
188,348,19916,1,0,0:0:0:0:
204,268,20023,1,0,0:0:0:0:
196,188,20130,5,8,0:0:0:0:
272,216,20237,1,0,0:0:0:0:
352,220,20345,1,0,0:0:0:0:
364,140,20452,1,0,0:0:0:0:
320,68,20559,6,0,B|352:36|392:28,1,80,8|0,0:0|0:0,0:0:0:0:
496,160,20773,2,0,B|464:192|424:200,1,80
260,256,20987,2,0,B|220:224|220:224|128:200|128:200|104:176,1,160,8|0,0:0|0:0,0:0:0:0:
88,116,21309,1,0,0:0:0:0:
108,276,21416,6,0,B|184:296|184:296|252:356,1,160,12|0,0:0|0:0,0:0:0:0:
324,332,21737,1,0,0:0:0:0:
344,256,21845,2,0,B|344:164|344:164|392:104,1,160,8|0,0:0|0:0,0:0:0:0:
396,32,22166,1,0,0:0:0:0:
324,64,22273,6,0,B|268:132,1,80,8|0,0:0|0:0,0:0:0:0:
145,173,22487,2,0,B|196:112,1,80
208,232,22702,1,8,0:0:0:0:
268,288,22809,1,0,0:0:0:0:
320,228,22916,1,0,0:0:0:0:
384,276,23023,1,0,0:0:0:0:
392,196,23130,6,0,B|392:128|392:128|372:108|372:108|372:32,1,160,12|0,0:0|0:0,0:0:0:0:
448,72,23452,1,0,0:0:0:0:
292,112,23559,2,0,B|232:112|232:112|200:96|200:96|132:96,1,160,8|0,0:0|0:0,0:0:0:0:
108,20,23880,1,0,0:0:0:0:
144,176,23987,6,0,B|192:176|192:176|224:200,1,80,8|0,0:0|0:0,0:0:0:0:
329,288,24202,2,0,B|304:308|304:308|256:308,1,80
108,152,24416,2,0,B|156:152|156:152|188:176,1,80,8|0,0:0|0:0,0:0:0:0:
388,288,24630,2,0,B|362:307|362:307|314:307,1,80
160,312,24845,6,0,B|232:276|232:276|252:240|252:240|368:176,1,240,12|0,0:0|0:0,0:0:0:0:
328,108,25273,1,8,0:0:0:0:
408,104,25380,1,0,0:0:0:0:
452,172,25487,1,0,0:0:0:0:
412,244,25595,1,0,0:0:0:0:
328,108,25702,6,0,B|240:168|240:168|212:160|212:160|168:184,1,160,8|0,0:0|0:0,0:0:0:0:
124,124,26023,1,0,0:0:0:0:
60,272,26130,2,0,B|148:272,1,80,8|0,0:0|0:0,0:0:0:0:
284,340,26345,2,0,B|380:340,1,80
440,316,26559,5,12,0:0:0:0:
476,244,26666,1,0,0:0:0:0:
464,164,26773,1,0,0:0:0:0:
404,112,26880,1,0,0:0:0:0:
352,172,26987,5,8,0:0:0:0:
272,164,27095,1,0,0:0:0:0:
212,112,27202,1,0,0:0:0:0:
132,96,27309,1,0,0:0:0:0:
96,168,27416,6,0,B|96:256,1,80,8|0,0:0|0:0,0:0:0:0:
292,344,27630,2,0,B|292:264,1,80
208,140,27845,2,0,B|208:52|208:52|228:20|228:20|276:20,1,160,8|0,0:0|0:0,0:0:0:0:
460,236,28273,6,0,B|460:324|460:324|440:356|440:356|392:356,1,160,12|0,0:0|0:0,0:0:0:0:
376,280,28595,1,0,0:0:0:0:
324,340,28702,2,0,B|220:340,1,80,8|0,0:0|0:0,0:0:0:0:
108,272,28916,2,0,B|188:272,1,80
304,200,29130,6,0,B|224:200,1,80,8|0,0:0|0:0,0:0:0:0:
148,176,29345,1,0,0:0:0:0:
104,108,29452,1,0,0:0:0:0:
144,40,29559,2,0,B|240:40|240:40|300:68,1,160,8|0,0:0|0:0,0:0:0:0:
360,16,29880,1,0,0:0:0:0:
256,140,29987,6,0,B|360:140,1,80,8|0,0:0|0:0,0:0:0:0:
432,272,30202,2,0,B|328:272,1,80
124,232,30416,2,0,B|228:232,1,80,8|0,0:0|0:0,0:0:0:0:
300,364,30630,2,0,B|196:364,1,80
48,260,30845,6,0,B|48:160|48:160|76:140|76:140|76:96,1,160,8|0,0:0|0:0,0:0:0:0:
116,44,31166,1,0,0:0:0:0:
152,116,31273,2,0,B|152:216|152:216|124:236|124:236|124:280,1,160,8|0,0:0|0:0,0:0:0:0:
84,332,31595,1,0,0:0:0:0:
224,252,31702,6,0,B|224:164|224:164|232:144|232:144|232:88,1,160,8|0,0:0|0:0,0:0:0:0:
288,36,32023,1,0,0:0:0:0:
324,108,32130,2,0,B|412:108,1,80,8|0,0:0|0:0,0:0:0:0:
400,228,32345,2,0,B|492:228,1,80
400,316,32559,6,0,B|336:316|336:316|316:296|316:296|224:296|224:292,1,160,8|0,0:0|0:0,0:0:0:0:
180,248,32880,1,0,0:0:0:0:
136,180,32987,2,0,B|40:180,1,80,8|0,0:0|0:0,0:0:0:0:
168,64,33202,2,0,B|260:64,1,80
404,108,33416,6,0,B|448:108|448:108|480:128,1,80,8|0,0:0|0:0,0:0:0:0:
332,264,33630,2,0,B|288:264|288:264|256:244,1,80
212,100,33845,6,0,B|256:100|256:100|288:120,1,80,8|0,0:0|0:0,0:0:0:0:
140,256,34059,2,0,B|96:256|96:256|64:236,1,80
64,60,34273,5,8,0:0:0:0:
144,60,34380,1,0,0:0:0:0:
212,100,34487,1,0,0:0:0:0:
244,172,34595,1,0,0:0:0:0:
300,228,34702,6,0,B|356:228|356:228|380:204,1,80,8|0,0:0|0:0,0:0:0:0:
404,108,34916,2,0,B|348:108|348:108|324:132,1,80,0|0,0:0|0:0,0:0:0:0:
152,192,35130,6,0,B|232:192,1,80,12|0,0:0|0:0,0:0:0:0:
144,60,35345,2,0,B|60:60,1,80
28,168,35559,2,0,B|28:240|28:240|36:264|36:264|88:304,1,160,8|0,0:0|0:0,0:0:0:0:
156,340,35880,1,0,0:0:0:0:
208,280,35987,6,0,B|304:280,1,80,8|0,0:0|0:0,0:0:0:0:
448,192,36202,2,0,B|368:192,1,80
220,80,36416,2,0,B|280:80|280:80|304:96|304:96|376:96,1,160,8|0,0:0|0:0,0:0:0:0:
432,40,36737,1,0,0:0:0:0:
260,152,36845,6,0,B|188:152|188:152|164:136|164:136|92:136,1,160,12|0,0:0|0:0,0:0:0:0:
52,76,37166,1,0,0:0:0:0:
140,212,37273,2,0,B|52:212,1,80,8|0,0:0|0:0,0:0:0:0:
140,304,37487,2,0,B|228:304,1,80
344,192,37702,6,0,B|264:192,1,80,8|0,0:0|0:0,0:0:0:0:
348,328,37916,2,0,B|440:328,1,80
464,212,38130,2,0,B|464:136|464:136|448:120|448:120|368:120,1,160,8|0,0:0|0:0,0:0:0:0:
388,40,38452,1,0,0:0:0:0:
344,192,38559,6,0,B|264:192|264:192|240:176|240:176|160:176,1,160,12|0,0:0|0:0,0:0:0:0:
204,96,38880,1,0,0:0:0:0:
164,252,38987,2,0,B|76:252,1,80,8|0,0:0|0:0,0:0:0:0:
28,104,39202,2,0,B|128:104,1,80
264,140,39416,6,0,B|308:140|308:140|340:164,1,80,8|0,0:0|0:0,0:0:0:0:
356,320,39630,2,0,B|312:320|312:320|280:296,1,80
224,152,39845,2,0,B|263:133|263:133|303:141,1,80,8|0,0:0|0:0,0:0:0:0:
396,308,40059,2,0,B|356:326|356:326|316:318,1,80
488,156,40273,5,12,0:0:0:0:
412,216,40380,1,0,0:0:0:0:
320,220,40487,2,0,P|284:196|264:144,1,80
172,68,40702,6,0,B|88:68,1,80,8|0,0:0|0:0,0:0:0:0:
36,220,40916,2,0,B|128:220,1,80
304,164,41130,6,0,B|336:240,1,80,8|0,0:0|0:0,0:0:0:0:
208,249,41345,2,0,B|276:292,1,80,8|0,0:0|0:0,0:0:0:0:
176,375,41559,6,0,B|256:372,1,80,8|0,0:0|0:0,0:0:0:0:
408,136,41773,2,0,B|412:216,1,80,8|0,0:0|0:0,0:0:0:0:
304,164,41987,6,0,B|272:128|272:128|156:128,1,160,6|0,0:0|0:0,0:0:0:0:
120,60,42309,1,0,0:0:0:0:
200,200,42416,2,0,B|88:200|88:200|56:164,1,160,2|0,0:0|0:0,0:0:0:0:
20,92,42737,1,0,0:0:0:0:
112,276,42845,6,0,B|223:276|223:276|255:312,1,160,2|0,0:0|0:0,0:0:0:0:
192,360,43166,1,0,0:0:0:0:
316,260,43273,2,0,B|427:260|427:260|459:224,1,160,2|0,0:0|0:0,0:0:0:0:
500,156,43595,1,0,0:0:0:0:
412,336,43702,6,0,B|228:336,1,160,6|0,0:0|0:0,0:0:0:0:
212,180,44023,1,0,0:0:0:0:
228,260,44130,6,0,B|144:260,1,80,2|0,0:0|0:0,0:0:0:0:
56,100,44344,2,0,B|136:100,1,80
316,260,44559,5,2,0:0:0:0:
292,184,44666,1,0,0:0:0:0:
308,104,44773,1,0,0:0:0:0:
364,48,44880,1,0,0:0:0:0:
432,96,44987,2,0,B|432:176|432:176|444:196|444:196|444:264,1,160,2|0,0:0|0:0,0:0:0:0:
500,312,45309,1,0,0:0:0:0:
368,224,45416,6,0,B|256:224|256:224|208:252,1,160,6|0,0:0|0:0,0:0:0:0:
264,312,45737,1,0,0:0:0:0:
180,176,45844,2,0,B|68:176|68:176|20:148,1,160,2|0,0:0|0:0,0:0:0:0:
84,96,46166,1,0,0:0:0:0:
104,256,46273,6,0,B|224:256|224:256|268:224,1,160,2|0,0:0|0:0,0:0:0:0:
320,280,46594,1,0,0:0:0:0:
220,156,46702,2,0,B|344:156|344:156|380:184,1,160,2|0,0:0|0:0,0:0:0:0:
428,232,47023,1,0,0:0:0:0:
304,80,47130,6,0,B|220:80,1,80,6|0,0:0|0:0,0:0:0:0:
48,208,47344,2,0,B|128:208,1,80
440,192,47559,6,0,B|360:192,1,80,2|0,0:0|0:0,0:0:0:0:
184,320,47773,2,0,B|264:320,1,80
256,200,47987,6,0,B|256:132|256:132|240:116|240:116|240:44,1,160,2|0,0:0|0:0,0:0:0:0:
316,28,48309,1,0,0:0:0:0:
164,80,48416,2,0,B|164:149|164:149|180:165|180:165|180:233,1,160,2|0,0:0|0:0,0:0:0:0:
104,208,48737,1,0,0:0:0:0:
248,272,48844,6,0,B|340:272|340:272|372:256|372:256|408:256,1,160,6|0,0:0|0:0,0:0:0:0:
448,324,49166,1,0,0:0:0:0:
388,176,49273,2,0,B|304:176,1,80,2|0,0:0|0:0,0:0:0:0:
164,80,49487,2,0,B|244:80,1,80
176,220,49702,6,0,B|88:220|88:220|60:208|60:208|16:208,1,160,2|0,0:0|0:0,0:0:0:0:
12,128,50023,1,0,0:0:0:0:
36,284,50130,5,2,0:0:0:0:
104,324,50237,1,0,0:0:0:0:
184,328,50344,2,0,B|268:328,1,80
336,232,50559,6,0,B|384:232|384:232|416:212,1,80,6|0,0:0|0:0,0:0:0:0:
348,112,50773,2,0,B|300:112|300:112|268:132,1,80
227,239,50987,2,0,B|200:256|200:256|152:256,1,80,2|0,0:0|0:0,0:0:0:0:
108,60,51202,2,0,B|136:44|136:44|184:44,1,80
260,68,51416,5,2,0:0:0:0:
292,140,51523,1,0,0:0:0:0:
284,220,51630,1,0,0:0:0:0:
224,276,51737,1,0,0:0:0:0:
144,288,51844,2,0,B|120:324|120:324|80:336,1,80,2|0,0:0|0:0,0:0:0:0:
120,144,52059,2,0,B|144:108|144:108|184:96,1,80
292,248,52273,5,6,0:0:0:0:
349,195,52380,1,0,0:0:0:0:
389,121,52487,1,0,0:0:0:0:
399,42,52594,1,0,0:0:0:0:
324,72,52702,5,2,0:0:0:0:
266,123,52809,1,0,0:0:0:0:
225,197,52916,1,0,0:0:0:0:
216,277,53023,1,0,0:0:0:0:
88,216,53130,2,0,B|88:124|88:124|100:104|100:104|100:60,1,160,2|0,0:0|0:0,0:0:0:0:
24,32,53452,1,0,0:0:0:0:
180,80,53559,22,0,L|180:140,28,40
256,192,55273,5,2,0:0:0:0:
256,192,55702,6,0,B|256:136|256:136|268:112|268:112|320:112|320:112|320:68,1,160,12|0,0:0|0:0,0:0:0:0:
380,32,56023,1,0,0:0:0:0:
420,100,56130,2,0,B|440:136|440:136|504:136,1,80,8|0,0:0|0:0,0:0:0:0:
384,208,56344,2,0,B|364:244|364:244|300:244,1,80
220,304,56559,6,0,B|144:356,1,80,8|0,0:0|0:0,0:0:0:0:
40,236,56773,2,0,B|106:190,1,80
172,44,56987,2,0,B|256:44,1,80,8|0,0:0|0:0,0:0:0:0:
384,208,57202,2,0,B|304:208,1,80
228,224,57416,6,0,B|136:224|136:224|112:208|112:208|48:208,1,160,12|0,0:0|0:0,0:0:0:0:
52,132,57737,1,0,0:0:0:0:
168,296,57844,2,0,B|256:296,1,80,8|0,0:0|0:0,0:0:0:0:
276,144,58059,2,0,B|196:144,1,80
356,140,58273,5,8,0:0:0:0:
416,60,58380,1,0,0:0:0:0:
512,92,58487,1,0,0:0:0:0:
512,192,58594,1,0,0:0:0:0:
416,220,58702,2,0,B|400:256|400:256|268:256,1,160,8|0,0:0|0:0,0:0:0:0:
288,176,59023,5,0,0:0:0:0:
208,172,59130,2,0,B|87:172|87:172|71:208,1,160,12|0,0:0|0:0,0:0:0:0:
52,284,59452,1,0,0:0:0:0:
120,96,59559,2,0,B|240:96|240:96|256:60,1,160,8|0,0:0|0:0,0:0:0:0:
192,12,59880,1,0,0:0:0:0:
332,100,59987,6,0,B|396:100|396:100|420:120,1,80,8|0,0:0|0:0,0:0:0:0:
284,256,60202,2,0,B|220:256|220:256|196:276,1,80
88,200,60416,5,8,0:0:0:0:
132,132,60523,1,0,0:0:0:0:
208,156,60630,1,8,0:0:0:0:
256,92,60737,1,0,0:0:0:0:
404,180,60844,6,0,B|448:188|448:188|476:220,1,80,12|0,0:0|0:0,0:0:0:0:
352,324,61059,2,0,B|308:316|308:316|280:284,1,80,0|0,0:0|0:0,0:0:0:0:
248,76,61273,6,0,B|292:84|292:84|320:116,1,80,8|0,0:0|0:0,0:0:0:0:
188,276,61487,2,0,B|144:268|144:268|116:236,1,80,0|0,0:0|0:0,0:0:0:0:
108,84,61702,5,8,0:0:0:0:
168,136,61809,1,0,0:0:0:0:
228,188,61916,1,0,0:0:0:0:
288,240,62023,1,0,0:0:0:0:
352,284,62130,2,0,B|404:220,1,80,8|0,0:0|0:0,0:0:0:0:
432,60,62344,2,0,B|484:124,1,80
320,104,62559,6,0,B|252:164|252:164|236:204|236:204|156:280,1,240,12|0,0:0|0:0,0:0:0:0:
108,216,62987,1,8,0:0:0:0:
84,292,63094,1,0,0:0:0:0:
140,352,63202,1,0,0:0:0:0:
216,332,63309,1,0,0:0:0:0:
108,216,63416,6,0,B|52:216|52:216|24:192,1,80,8|0,0:0|0:0,0:0:0:0:
144,116,63630,2,0,B|200:116|200:116|220:136,1,80,0|0,0:0|0:0,0:0:0:0:
216,244,63844,2,0,P|188:236|148:204,1,80,8|0,0:0|0:0,0:0:0:0:
20,24,64059,2,0,P|64:32|96:64,1,80
144,116,64273,6,0,B|260:116|260:116|288:72,1,160,12|0,0:0|0:0,0:0:0:0:
324,12,64594,1,0,0:0:0:0:
220,188,64702,2,0,B|104:188|104:188|76:144,1,160,8|0,0:0|0:0,0:0:0:0:
40,80,65023,1,0,0:0:0:0:
124,264,65130,6,0,B|220:264,1,80,8|0,0:0|0:0,0:0:0:0:
420,344,65344,2,0,B|340:344,1,80
308,200,65559,2,0,B|388:200,1,80,8|0,0:0|0:0,0:0:0:0:
208,96,65773,2,0,B|128:96,1,80
468,200,65987,6,0,B|376:200|376:200|352:180|352:180|296:180,1,160,12|0,0:0|0:0,0:0:0:0:
252,128,66309,1,0,0:0:0:0:
308,68,66416,2,0,B|400:68|400:68|424:48|424:48|480:48,1,160,8|0,0:0|0:0,0:0:0:0:
488,124,66737,1,0,0:0:0:0:
504,204,66844,6,0,B|444:204|444:204|408:184,1,80,8|0,0:0|0:0,0:0:0:0:
320,316,67059,2,0,B|337:325|337:325|397:325,1,80
340,160,67273,2,0,B|280:160|280:160|244:140,1,80,8|0,0:0|0:0,0:0:0:0:
112,300,67487,2,0,B|129:309|129:309|189:309,1,80
124,164,67702,5,12,0:0:0:0:
136,84,67809,1,0,0:0:0:0:
204,44,67916,1,0,0:0:0:0:
284,60,68023,1,0,0:0:0:0:
408,160,68130,2,0,P|440:176|496:176,1,80,8|0,0:0|0:0,0:0:0:0:
464,36,68344,2,0,P|430:47|390:86,1,80,0|0,0:0|0:0,0:0:0:0:
332,124,68559,5,8,0:0:0:0:
320,204,68666,1,0,0:0:0:0:
252,244,68773,1,0,0:0:0:0:
172,228,68880,1,0,0:0:0:0:
124,164,68987,2,0,B|84:140|84:140|84:12,1,160,8|0,0:0|0:0,0:0:0:0:
388,220,69416,6,0,B|428:244|428:244|428:372,1,160,12|0,0:0|0:0,0:0:0:0:
356,324,69737,1,0,0:0:0:0:
296,272,69844,2,0,B|256:248|256:248|256:120,1,160,8|0,0:0|0:0,0:0:0:0:
308,72,70166,1,0,0:0:0:0:
180,164,70273,6,0,B|180:256,1,80,8|0,0:0|0:0,0:0:0:0:
104,348,70487,2,0,B|104:268,1,80
44,216,70702,2,0,B|44:116|44:116|96:76,1,160,8|0,0:0|0:0,0:0:0:0:
172,84,71023,1,0,0:0:0:0:
256,220,71130,6,0,B|344:220|344:220|400:168,1,160,8|0,0:0|0:0,0:0:0:0:
344,108,71452,1,0,0:0:0:0:
444,232,71559,2,0,B|376:296,1,80,8|0,0:0|0:0,0:0:0:0:
177,293,71773,2,0,B|236:348,1,80
172,212,71987,5,8,0:0:0:0:
96,188,72094,1,0,0:0:0:0:
52,256,72202,1,0,0:0:0:0:
100,320,72309,1,0,0:0:0:0:
177,293,72416,2,0,B|272:256|272:256|280:236|280:236|328:216,1,160,8|0,0:0|0:0,0:0:0:0:
296,144,72737,1,0,0:0:0:0:
352,292,72844,6,0,B|400:264|400:264|416:232,1,80,8|0,0:0|0:0,0:0:0:0:
440,84,73059,2,0,B|488:56|488:56|504:24,1,80
304,76,73273,2,0,B|256:104|256:104|240:136,1,80,8|0,0:0|0:0,0:0:0:0:
216,284,73487,2,0,B|168:312|168:312|152:344,1,80
24,220,73702,6,0,B|116:168|116:168|132:144|132:144|172:124,1,160,8|0,0:0|0:0,0:0:0:0:
124,56,74023,1,0,0:0:0:0:
200,196,74130,2,0,B|292:144|292:144|308:120|308:120|348:100,1,160,8|0,0:0|0:0,0:0:0:0:
300,32,74452,1,0,0:0:0:0:
372,176,74559,6,0,B|408:148|408:148|420:108,1,80,8|0,0:0|0:0,0:0:0:0:
416,240,74773,2,0,B|380:268|380:268|368:308,1,80
240,168,74987,6,0,B|282:150|282:150|303:114,1,80,8|0,0:0|0:0,0:0:0:0:
220,300,75202,2,0,B|177:317|177:317|156:353,1,80,0|0,0:0|0:0,0:0:0:0:
60,220,75416,5,8,0:0:0:0:
80,144,75523,1,0,0:0:0:0:
160,144,75630,1,0,0:0:0:0:
188,216,75737,1,0,0:0:0:0:
128,268,75844,6,0,B|144:304|144:304|177:327,1,80,8|0,0:0|0:0,0:0:0:0:
369,335,76059,2,0,B|354:300|354:300|320:276,1,80
440,228,76273,5,12,0:0:0:0:
432,148,76380,1,0,0:0:0:0:
356,120,76487,1,0,0:0:0:0:
336,40,76594,1,0,0:0:0:0:
256,28,76702,6,0,B|152:28,1,80,8|0,0:0|0:0,0:0:0:0:
40,176,76916,2,0,B|136:176,1,80
350,300,77130,6,0,B|324:300|324:300|304:316|304:316|196:316,1,160,8|0,0:0|0:0,0:0:0:0:
140,372,77452,1,0,0:0:0:0:
224,236,77559,6,0,B|136:236,1,80,8|0,0:0|0:0,0:0:0:0:
88,84,77773,2,0,B|184:84,1,80
352,44,77987,5,12,0:0:0:0:
328,120,78094,1,0,0:0:0:0:
396,164,78202,1,0,0:0:0:0:
400,244,78309,1,0,0:0:0:0:
320,232,78416,6,0,B|216:220|196:104,1,160,8|0,0:0|0:0,0:0:0:0:
236,64,78737,1,0,0:0:0:0:
86,125,78844,6,0,B|136:188,1,80,8|0,0:0|0:0,0:0:0:0:
96,256,79059,2,0,B|145:318,1,80,0|0,0:0|0:0,0:0:0:0:
224,312,79273,2,0,B|304:312,1,80,8|0,0:0|0:0,0:0:0:0:
456,344,79487,2,0,B|376:344,1,80
352,152,79702,6,0,B|368:192|368:192|420:192,1,80,12|0,0:0|0:0,0:0:0:0:
480,152,79916,2,0,B|464:112|464:112|412:112,1,80,0|0,0:0|0:0,0:0:0:0:
280,172,80130,1,8,0:0:0:0:
200,176,80237,1,0,0:0:0:0:
124,148,80344,2,0,P|52:92|68:12,1,160,0|8,0:0|0:0,0:0:0:0:
128,64,80666,5,0,0:0:0:0:
124,148,80773,2,0,L|56:200,1,80
36,272,80987,2,0,B|60:300|60:300|120:300,1,80,8|0,0:0|0:0,0:0:0:0:
216,264,81202,2,0,B|192:236|192:236|132:236,1,80
296,276,81416,5,12,0:0:0:0:
372,248,81523,1,0,0:0:0:0:
424,188,81630,1,0,0:0:0:0:
444,112,81737,2,0,B|396:80|396:80|384:56|384:56|304:20,1,160,0|0,0:0|0:0,0:0:0:0:
172,76,82059,2,0,B|252:76,1,80,8|0,0:0|0:0,0:0:0:0:
68,112,82273,5,8,0:0:0:0:
84,192,82380,1,0,0:0:0:0:
136,252,82487,1,0,0:0:0:0:
216,264,82594,6,0,B|248:232|248:232|392:232,1,160,8|0,0:0|0:0,0:0:0:0:
164,328,82916,2,0,B|128:356|128:356|80:356,1,80
84,192,83130,6,0,B|172:192|172:192|228:140,1,160,6|0,0:0|0:0,0:0:0:0:
280,80,83452,1,0,0:0:0:0:
240,236,83559,2,0,B|328:236|328:236|384:288,1,160,2|0,0:0|0:0,0:0:0:0:
432,348,83880,1,0,0:0:0:0:
416,188,83987,6,0,B|356:132|356:132|356:40,1,160,2|0,0:0|0:0,0:0:0:0:
432,32,84309,1,0,0:0:0:0:
280,80,84416,2,0,B|280:168|280:168|212:220,1,160,2|0,0:0|0:0,0:0:0:0:
160,260,84737,1,0,0:0:0:0:
116,192,84844,6,0,B|24:192,1,80,6|0,0:0|0:0,0:0:0:0:
180,336,85059,2,0,B|272:336,1,80
272,148,85273,2,0,B|180:148,1,80,2|0,0:0|0:0,0:0:0:0:
320,264,85487,2,0,B|412:264,1,80
444,132,85702,5,2,0:0:0:0:
372,92,85809,1,0,0:0:0:0:
308,136,85916,1,0,0:0:0:0:
316,216,86023,1,0,0:0:0:0:
396,232,86130,6,0,B|448:232|448:232|480:212,1,80,2|0,0:0|0:0,0:0:0:0:
292,336,86344,2,0,B|240:336|240:336|208:356,1,80,0|0,0:0|0:0,0:0:0:0:
100,120,86559,6,0,B|100:236|100:236|56:272,1,160,6|0,0:0|0:0,0:0:0:0:
0,312,86880,1,0,0:0:0:0:
160,296,86987,2,0,B|200:260|200:260|328:260,1,160,2|0,0:0|0:0,0:0:0:0:
356,320,87309,1,0,0:0:0:0:
268,184,87416,6,0,B|374:184|374:184|414:148,1,160,2|0,0:0|0:0,0:0:0:0:
460,84,87737,1,0,0:0:0:0:
300,108,87844,2,0,B|193:108|193:108|153:144,1,160,2|0,0:0|0:0,0:0:0:0:
108,212,88166,1,0,0:0:0:0:
196,32,88273,6,0,B|100:32,1,80,6|0,0:0|0:0,0:0:0:0:
28,212,88487,2,0,B|108:212,1,80
292,132,88702,2,0,B|212:132,1,80,2|0,0:0|0:0,0:0:0:0:
300,288,88916,2,0,B|380:288,1,80
440,236,89130,6,0,B|484:200|484:200|484:84,1,160,2|0,0:0|0:0,0:0:0:0:
416,56,89452,1,0,0:0:0:0:
336,72,89559,2,0,B|296:100|296:100|176:100,1,160,2|0,0:0|0:0,0:0:0:0:
152,28,89880,1,0,0:0:0:0:
212,176,89987,6,0,B|328:176|328:176|364:212,2,160,6|0|2,0:0|0:0|0:0,0:0:0:0:
132,168,90523,1,0,0:0:0:0:
100,240,90630,1,0,0:0:0:0:
156,296,90737,1,0,0:0:0:0:
212,176,90844,6,0,B|212:64|212:64|252:24,2,160,2|0|2,0:0|0:0|0:0,0:0:0:0:
224,256,91380,1,0,0:0:0:0:
304,264,91487,1,0,0:0:0:0:
340,192,91594,1,0,0:0:0:0:
284,136,91702,6,0,B|284:92|284:92|316:68,1,80,6|0,0:0|0:0,0:0:0:0:
424,188,91916,2,0,B|424:232|424:232|392:256,1,80,0|0,0:0|0:0,0:0:0:0:
220,156,92130,2,0,B|231:113|231:113|268:98,1,80,2|0,0:0|0:0,0:0:0:0:
416,232,92344,2,0,B|404:274|404:274|367:289,1,80
280,236,92559,5,2,0:0:0:0:
220,316,92666,1,0,0:0:0:0:
124,284,92773,1,0,0:0:0:0:
124,184,92880,1,0,0:0:0:0:
220,156,92987,5,2,0:0:0:0:
280,236,93094,1,0,0:0:0:0:
375,200,93202,1,0,0:0:0:0:
368,100,93309,1,0,0:0:0:0:
272,68,93416,6,0,B|200:104,1,80,6|0,0:0|0:0,0:0:0:0:
344,268,93630,2,0,B|416:232,1,80
256,136,93844,6,0,B|185:173,1,80,2|0,0:0|0:0,0:0:0:0:
184,320,94059,2,0,B|256:284,1,80,0|0,0:0|0:0,0:0:0:0:
112,176,94273,5,2,0:0:0:0:
60,236,94380,1,0,0:0:0:0:
68,316,94487,1,0,0:0:0:0:
128,368,94594,1,0,0:0:0:0:
256,284,94702,6,0,L|256:344,28,40
256,140,96416,5,2,0:0:0:0:
256,140,96844,1,4,0:0:0:0:
256,92,110559,5,4,0:0:0:0:
256,92,110773,1,0,0:0:0:0:
256,92,110987,1,8,0:0:0:0:
240,252,111202,2,0,B|156:252,1,80
88,216,111416,1,8,0:0:0:0:
108,140,111523,1,0,0:0:0:0:
180,172,111630,2,0,B|292:172|292:172|344:144,1,160,0|8,0:0|0:0,0:0:0:0:
404,88,111952,2,0,B|404:8,1,80
476,152,112166,2,0,B|476:244,1,80,0|12,0:0|0:0,0:0:0:0:
476,232,112487,5,0,0:0:0:0:
360,344,112702,2,0,B|268:344,1,80,8|0,0:0|0:0,0:0:0:0:
104,268,112916,2,0,B|208:268,1,80
296,256,113130,5,8,0:0:0:0:
296,256,113344,1,0,0:0:0:0:
296,256,113559,1,8,0:0:0:0:
332,100,113773,2,0,B|312:64|312:64|244:64,1,80
252,140,113987,6,0,B|156:140|156:140|120:84,1,160,12|0,0:0|0:0,0:0:0:0:
260,244,114416,2,0,B|356:244|356:244|392:300,1,160,8|0,0:0|0:0,0:0:0:0:
440,360,114737,1,0,0:0:0:0:
380,168,114844,2,0,B|284:168|284:168|248:112,1,160,8|0,0:0|0:0,0:0:0:0:
308,60,115166,1,0,0:0:0:0:
168,100,115273,2,0,B|88:148,1,80,8|0,0:0|0:0,0:0:0:0:
120,280,115487,2,0,B|189:239,1,80
316,216,115702,5,12,0:0:0:0:
316,216,115916,1,0,0:0:0:0:
316,216,116130,1,8,0:0:0:0:
40,93,116344,2,0,L|56:172,1,80
72,276,116559,1,8,0:0:0:0:
164,324,116666,1,0,0:0:0:0:
240,256,116773,1,0,0:0:0:0:
240,256,117202,5,0,0:0:0:0:
388,324,117416,2,0,B|388:252|388:252|400:236|400:236|400:160,1,160,12|0,0:0|0:0,0:0:0:0:
468,128,117737,1,0,0:0:0:0:
328,200,117844,2,0,B|328:128|328:128|340:112|340:112|340:36,1,160,8|0,0:0|0:0,0:0:0:0:
264,68,118166,1,0,0:0:0:0:
188,88,118273,5,8,0:0:0:0:
188,88,118487,1,0,0:0:0:0:
64,192,118702,1,8,0:0:0:0:
64,192,118916,1,0,0:0:0:0:
164,316,119130,2,0,B|252:316,1,80,12|0,0:0|0:0,0:0:0:0:
392,260,119344,2,0,B|292:260,1,80
236,232,119559,1,8,0:0:0:0:
84,80,119773,6,0,L|184:80,1,80
244,80,119987,1,8,0:0:0:0:
316,44,120094,1,0,0:0:0:0:
372,100,120202,1,0,0:0:0:0:
336,172,120309,1,0,0:0:0:0:
244,80,120416,6,0,B|172:80|172:80|152:68|152:68|76:68,1,160,8|0,0:0|0:0,0:0:0:0:
16,36,120737,1,0,0:0:0:0:
128,152,120844,2,0,B|36:152,2,80,12|0|0,0:0|0:0|0:0,0:0:0:0:
196,296,121273,5,8,0:0:0:0:
196,296,121487,1,0,0:0:0:0:
328,204,121702,2,0,B|372:180|372:180|392:152|392:152|472:108,1,160,8|0,0:0|0:0,0:0:0:0:
420,44,122023,1,0,0:0:0:0:
488,188,122130,2,0,B|444:208|444:208|424:240,1,80,8|0,0:0|0:0,0:0:0:0:
312,344,122344,2,0,B|292:300|292:300|260:280,1,80,8|0,0:0|0:0,0:0:0:0:
152,168,122559,5,12,0:0:0:0:
152,168,122773,1,0,0:0:0:0:
152,168,122987,1,8,0:0:0:0:
256,44,123202,2,0,B|336:44,1,80
412,116,123416,1,8,0:0:0:0:
404,220,123523,1,0,0:0:0:0:
320,160,123630,1,0,0:0:0:0:
257,263,124273,5,2,0:0:0:0:
200,232,124380,1,0,0:0:0:0:
138,233,124487,1,0,0:0:0:0:
84,263,124594,1,0,0:0:0:0:
49,318,124702,1,2,0:0:0:0:
220,152,125130,5,2,0:0:0:0:
258,159,125237,1,0,0:0:0:0:
299,147,125344,1,0,0:0:0:0:
323,114,125452,1,0,0:0:0:0:
331,74,125559,1,2,0:0:0:0:
440,192,125987,5,2,0:0:0:0:
436,216,126094,1,0,0:0:0:0:
424,236,126202,1,0,0:0:0:0:
408,252,126309,1,0,0:0:0:0:
388,264,126416,1,2,0:0:0:0:
364,272,126523,1,0,0:0:0:0:
340,272,126630,1,0,0:0:0:0:
316,272,126737,1,0,0:0:0:0:
292,276,126844,1,2,0:0:0:0:
272,288,126952,1,0,0:0:0:0:
252,300,127059,1,0,0:0:0:0:
236,316,127166,1,0,0:0:0:0:
224,336,127273,1,2,0:0:0:0:
32,192,127702,5,6,0:0:0:0:
48,156,127809,1,0,0:0:0:0:
81,130,127916,1,0,0:0:0:0:
122,129,128023,1,0,0:0:0:0:
159,145,128130,1,2,0:0:0:0:
460,40,128559,5,2,0:0:0:0:
425,95,128666,1,0,0:0:0:0:
371,125,128773,1,0,0:0:0:0:
309,126,128880,1,0,0:0:0:0:
252,95,128987,1,2,0:0:0:0:
44,340,129416,5,2,0:0:0:0:
76,268,129523,1,0,0:0:0:0:
148,236,129630,1,0,0:0:0:0:
228,236,129737,1,0,0:0:0:0:
292,284,129844,1,2,0:0:0:0:
344,344,129952,1,0,0:0:0:0:
420,364,130059,1,0,0:0:0:0:
484,316,130166,1,0,0:0:0:0:
484,236,130273,5,2,0:0:0:0:
380,240,130380,1,2,0:0:0:0:
344,144,130487,1,2,0:0:0:0:
428,80,130594,1,0,0:0:0:0:
512,140,130702,1,0,0:0:0:0:
24,108,131130,6,0,B|144:108|144:108|188:68,1,160,6|0,0:0|0:0,0:0:0:0:
232,28,131452,1,0,0:0:0:0:
116,192,131559,2,0,B|236:192|236:192|276:224,1,160,2|0,0:0|0:0,0:0:0:0:
316,280,131880,1,0,0:0:0:0:
196,120,131987,6,0,B|316:120|316:120|360:80,1,160,2|0,0:0|0:0,0:0:0:0:
404,40,132309,1,0,0:0:0:0:
288,204,132416,2,0,B|408:204|408:204|448:236,1,160,2|0,0:0|0:0,0:0:0:0:
488,292,132737,1,0,0:0:0:0:
408,300,132844,6,0,B|364:372,1,80,6|0,0:0|0:0,0:0:0:0:
259,201,133059,2,0,B|304:268,1,80
184,292,133273,2,0,B|142:360,1,80,2|0,0:0|0:0,0:0:0:0:
23,197,133487,2,0,B|68:264,1,80
92,84,133702,5,2,0:0:0:0:
164,48,133809,1,0,0:0:0:0:
240,69,133916,1,0,0:0:0:0:
296,124,134023,1,0,0:0:0:0:
256,192,134130,5,2,0:0:0:0:
300,260,134237,1,0,0:0:0:0:
376,280,134344,1,0,0:0:0:0:
452,260,134452,1,0,0:0:0:0:
300,260,134559,6,0,B|264:292|264:292|128:292,1,160,6|0,0:0|0:0,0:0:0:0:
184,364,134880,1,0,0:0:0:0:
116,220,134987,2,0,B|92:176|92:176|92:56,1,160,2|0,0:0|0:0,0:0:0:0:
20,32,135309,1,0,0:0:0:0:
168,96,135416,6,0,B|168:156|168:156|224:256,1,160,2|0,0:0|0:0,0:0:0:0:
152,288,135737,1,0,0:0:0:0:
280,192,135844,2,0,B|244:140|244:140|244:32,1,160,2|0,0:0|0:0,0:0:0:0:
320,20,136166,1,0,0:0:0:0:
360,176,136273,6,0,B|380:268|380:268|356:288|356:288|356:344,1,160,6|0,0:0|0:0,0:0:0:0:
256,256,136594,1,0,0:0:0:0:
152,176,136702,2,0,B|132:268|132:268|156:288|156:288|156:344,1,160,2|0,0:0|0:0,0:0:0:0:
256,256,137023,1,0,0:0:0:0:
208,104,137130,6,0,B|132:56,1,80,2|0,0:0|0:0,0:0:0:0:
304,104,137344,2,0,B|380:56,1,80
168,192,137559,2,0,B|76:164,1,80,2|0,0:0|0:0,0:0:0:0:
344,192,137773,2,0,B|436:164,1,80
212,284,137987,6,0,B|168:284|168:284|140:320,1,80,6|0,0:0|0:0,0:0:0:0:
20,208,138202,2,0,B|64:208|64:208|92:244,1,80,0|0,0:0|0:0,0:0:0:0:
204,72,138416,2,0,B|116:72|116:72|56:124,1,160,2|0,0:0|0:0,0:0:0:0:
156,192,138737,1,0,0:0:0:0:
256,260,138844,6,0,B|316:260|316:260|344:236,1,80,2|0,0:0|0:0,0:0:0:0:
468,156,139059,2,0,B|408:156|408:156|380:132,1,80
204,72,139273,2,0,B|100:72|100:72|48:16,1,160,2|0,0:0|0:0,0:0:0:0:
16,96,139594,1,0,0:0:0:0:
164,144,139702,6,0,B|224:144|224:144|248:160,3,80,6|0|0|0,0:0|0:0|0:0|0:0,0:0:0:0:
348,240,140130,2,0,B|288:240|288:240|264:224,3,80,2|0|0|0,0:0|0:0|0:0|0:0,0:0:0:0:
320,164,140559,5,2,0:0:0:0:
400,176,140666,1,0,0:0:0:0:
428,252,140773,1,0,0:0:0:0:
380,316,140880,1,0,0:0:0:0:
300,304,140987,5,2,0:0:0:0:
272,228,141094,1,0,0:0:0:0:
192,216,141202,1,0,0:0:0:0:
140,280,141309,1,0,0:0:0:0:
204,368,141416,6,0,B|220:328|220:328|220:276,1,80,6|0,0:0|0:0,0:0:0:0:
180,84,141630,2,0,B|164:124|164:124|164:176,1,80
40,284,141844,6,0,B|79:267|79:267|116:230,1,80,2|0,0:0|0:0,0:0:0:0:
223,66,142059,2,0,B|183:82|183:82|146:119,1,80
308,368,142273,6,0,B|292:328|292:328|292:276,1,80,2|0,0:0|0:0,0:0:0:0:
332,84,142487,2,0,B|348:124|348:124|348:176,1,80
472,284,142702,6,0,B|432:267|432:267|395:230,1,80,2|0,0:0|0:0,0:0:0:0:
289,66,142916,2,0,B|328:82|328:82|365:119,1,80
184,192,143130,6,0,B|76:192|76:192|32:144,1,160,6|0,0:0|0:0,0:0:0:0:
8,80,143452,1,0,0:0:0:0:
96,264,143559,2,0,B|204:264|204:264|248:312,1,160,2|0,0:0|0:0,0:0:0:0:
292,364,143880,1,0,0:0:0:0:
184,192,143987,6,0,B|240:192|240:192|272:168,1,80,2|0,0:0|0:0,0:0:0:0:
376,32,144202,2,0,B|320:32|320:32|288:56,1,80,0|0,0:0|0:0,0:0:0:0:
256,276,144416,6,0,B|306:299|306:299|345:291,1,80,2|0,0:0|0:0,0:0:0:0:
188,72,144630,2,0,B|137:48|137:48|98:56,1,80,0|0,0:0|0:0,0:0:0:0:
120,160,144844,5,6,0:0:0:0:
24,192,144952,1,0,0:0:0:0:
24,292,145059,5,0,0:0:0:0:
180,240,145166,1,0,0:0:0:0:
200,320,145273,6,0,B|120:320,1,80,2|0,0:0|0:0,0:0:0:0:
292,192,145487,2,0,B|392:192,1,80
256,120,145702,2,0,B|216:120|216:120|188:148,1,80,2|0,0:0|0:0,0:0:0:0:
24,292,145916,2,0,B|64:292|64:292|92:264,1,80
336,104,146130,6,0,L|364:64,56,40,2|0|0|0|0|0|0|0|0|0|0|0|0|0|0|0|0|0|0|0|0|0|0|0|0|0|0|0|0|0|0|0|0|0|0|0|0|0|0|0|0|0|0|0|0|0|0|0|0|0|0|0|0|0|0|0|0,0:0|0:0|0:0|0:0|0:0|0:0|0:0|0:0|0:0|0:0|0:0|0:0|0:0|0:0|0:0|0:0|0:0|0:0|0:0|0:0|0:0|0:0|0:0|0:0|0:0|0:0|0:0|0:0|0:0|0:0|0:0|0:0|0:0|0:0|0:0|0:0|0:0|0:0|0:0|0:0|0:0|0:0|0:0|0:0|0:0|0:0|0:0|0:0|0:0|0:0|0:0|0:0|0:0|0:0|0:0|0:0|0:0,0:0:0:0:
256,192,149559,5,2,0:0:0:0:
256,188,151702,6,0,B|256:104|256:104|232:80|232:80|180:80,1,160,12|0,0:0|0:0,0:0:0:0:
176,160,152023,1,0,0:0:0:0:
100,136,152130,2,0,B|100:200|100:200|116:220,1,80,8|0,0:0|0:0,0:0:0:0:
200,360,152345,2,0,B|200:296|200:296|184:276,1,80,0|0,0:0|0:0,0:0:0:0:
292,292,152559,6,0,B|360:292|360:292|384:280,1,80,8|0,0:0|0:0,0:0:0:0:
478,206,152773,2,0,B|410:206|410:206|400:212,1,80
336,164,152987,2,0,B|336:120|336:120|352:96|352:96|352:8,1,160,8|0,0:0|0:0,0:0:0:0:
428,36,153309,1,0,0:0:0:0:
276,32,153416,6,0,B|196:32,1,80,8|0,0:0|0:0,0:0:0:0:
176,160,153630,2,0,B|84:160,1,80
408,192,153845,2,0,B|328:192,1,80,8|0,0:0|0:0,0:0:0:0:
308,320,154059,2,0,B|216:320,1,80
80,260,154273,5,8,0:0:0:0:
56,184,154380,1,0,0:0:0:0:
88,112,154487,1,0,0:0:0:0:
160,76,154595,1,0,0:0:0:0:
240,88,154702,2,0,B|240:160|240:160|256:184|256:184|256:264,1,160,8|0,0:0|0:0,0:0:0:0:
208,308,155023,1,0,0:0:0:0:
340,216,155130,6,0,B|392:156,1,80,8|0,0:0|0:0,0:0:0:0:
172,216,155345,2,0,B|120:156,1,80
272,88,155559,1,8,0:0:0:0:
352,76,155666,1,0,0:0:0:0:
424,112,155773,1,0,0:0:0:0:
456,184,155880,1,0,0:0:0:0:
432,260,155987,6,0,B|348:308,1,80,8|0,0:0|0:0,0:0:0:0:
149,299,156202,2,0,B|80:260,1,80
76,156,156416,2,0,B|184:220|184:220|232:220,1,160,8|0,0:0|0:0,0:0:0:0:
256,108,156737,1,0,0:0:0:0:
436,156,156845,6,0,B|328:220|328:220|280:220,1,160,8|0,0:0|0:0,0:0:0:0:
404,308,157166,2,0,B|320:356,1,80,0|8,0:0|0:0,0:0:0:0:
146,279,157380,2,0,B|216:240,1,80
200,340,157595,1,0,0:0:0:0:
80,232,157702,6,0,B|136:200|136:200|136:168,1,80,8|0,0:0|0:0,0:0:0:0:
256,24,157916,2,0,B|200:56|200:56|200:88,1,80
268,168,158130,1,8,0:0:0:0:
296,244,158237,1,0,0:0:0:0:
356,300,158345,1,0,0:0:0:0:
428,336,158452,1,0,0:0:0:0:
296,244,158559,6,0,B|368:204|368:204|380:172|380:172|420:148,1,160,8|0,0:0|0:0,0:0:0:0:
472,208,158880,1,0,0:0:0:0:
356,100,158987,2,0,B|318:122|318:122|306:154|306:154|234:194,1,160,8|0,0:0|0:0,0:0:0:0:
184,132,159309,1,0,0:0:0:0:
296,244,159416,6,0,B|216:288,1,80,8|0,0:0|0:0,0:0:0:0:
104,248,159630,2,0,B|174:209,1,80
236,132,159845,2,0,B|284:108|284:108|396:108,1,160,8|0,0:0|0:0,0:0:0:0:
428,36,160166,1,0,0:0:0:0:
412,196,160273,6,0,B|468:196|468:196|500:216,1,80,8|0,0:0|0:0,0:0:0:0:
336,316,160487,2,0,B|280:316|280:316|248:296,1,80
172,196,160702,2,0,B|228:196|228:196|260:216,1,80,8|0,0:0|0:0,0:0:0:0:
100,320,160916,2,0,B|44:320|44:320|12:300,1,80
172,196,161130,5,8,0:0:0:0:
216,128,161237,1,0,0:0:0:0:
284,88,161345,1,0,0:0:0:0:
364,80,161452,1,0,0:0:0:0:
444,92,161559,2,0,B|444:152|444:152|424:188,1,80,8|0,0:0|0:0,0:0:0:0:
336,368,161773,2,0,B|336:308|336:308|346:291,1,80
184,288,161987,6,0,B|144:316|144:316|120:364,1,80,12|0,0:0|0:0,0:0:0:0:
208,204,162202,2,0,B|162:183|162:183|130:140,1,80,0|0,0:0|0:0,0:0:0:0:
360,264,162416,6,0,B|404:256|404:256|436:228,1,80,8|0,0:0|0:0,0:0:0:0:
328,36,162630,2,0,B|284:44|284:44|252:72,1,80
372,192,162845,6,0,B|424:240|424:240|424:344,1,160,8|0,0:0|0:0,0:0:0:0:
496,360,163166,1,0,0:0:0:0:
344,304,163273,5,8,0:0:0:0:
304,236,163380,1,0,0:0:0:0:
372,192,163487,2,0,B|372:100|372:100|336:40,1,160,0|12,0:0|0:0,0:0:0:0:
284,100,163809,5,0,0:0:0:0:
220,148,163916,1,0,0:0:0:0:
140,148,164023,1,0,0:0:0:0:
120,272,164130,6,0,P|176:268|204:244,1,80,8|0,0:0|0:0,0:0:0:0:
344,160,164345,2,0,P|396:164|432:148,1,80
464,241,164559,6,0,B|444:272|444:272|404:288,1,80,12|0,0:0|0:0,0:0:0:0:
328,20,164773,2,0,B|364:52|364:52|380:96,1,80
404,288,164987,6,0,L|316:264,1,80
400,40,165202,2,0,L|312:64,1,80
488,180,165416,6,0,B|400:180|400:180|376:164|376:164|328:164,1,160,12|0,0:0|0:0,0:0:0:0:
332,244,165737,1,0,0:0:0:0:
376,84,165845,2,0,B|292:84,1,80,8|0,0:0|0:0,0:0:0:0:
180,192,166059,2,0,B|260:192,1,80
132,124,166273,5,8,0:0:0:0:
100,196,166380,1,0,0:0:0:0:
144,264,166487,1,0,0:0:0:0:
224,264,166595,1,0,0:0:0:0:
132,124,166702,6,0,B|168:96|168:96|284:96,1,160,8|0,0:0|0:0,0:0:0:0:
324,28,167023,1,0,0:0:0:0:
252,172,167130,2,0,B|380:172|380:172|412:132,1,160,12|0,0:0|0:0,0:0:0:0:
448,80,167452,1,0,0:0:0:0:
332,244,167559,2,0,B|216:244|216:244|176:284,1,160,8|0,0:0|0:0,0:0:0:0:
144,344,167880,1,0,0:0:0:0:
252,172,167987,6,0,B|164:172,1,80,8|0,0:0|0:0,0:0:0:0:
60,56,168202,2,0,B|148:56,1,80
376,96,168416,2,0,B|296:96,1,80,8|0,0:0|0:0,0:0:0:0:
400,268,168630,2,0,B|480:268,1,80
208,324,168845,6,0,B|152:324|152:324|128:304,2,80,12|0|0,0:0|0:0|0:0,0:0:0:0:
204,244,169166,2,0,B|296:244|296:244|356:208,1,160
200,164,169487,2,0,B|288:164,1,80
388,48,169702,6,0,B|440:48|440:48|472:64,1,80,8|0,0:0|0:0,0:0:0:0:
488,220,169916,2,0,B|436:220|436:220|404:204,1,80
284,308,170130,2,0,B|208:264|208:264|160:256|160:256|64:208,1,240,8|0,0:0|0:0,0:0:0:0:
92,132,170559,6,0,B|168:172,1,80,12|0,0:0|0:0,0:0:0:0:
168,32,170773,2,0,B|213:104,1,80
420,132,170987,2,0,B|344:172,1,80,8|0,0:0|0:0,0:0:0:0:
344,32,171202,2,0,B|298:104,1,80
256,164,171416,5,8,0:0:0:0:
220,236,171523,1,0,0:0:0:0:
224,316,171630,1,0,0:0:0:0:
300,296,171737,1,0,0:0:0:0:
352,232,171845,2,0,B|392:216|392:216|416:176,1,80,8|0,0:0|0:0,0:0:0:0:
252,60,172059,2,0,B|208:80|208:80|184:120,1,80
256,256,172273,6,0,B|192:276|192:276|152:308|152:308|100:324,1,160,12|0,0:0|0:0,0:0:0:0:
32,308,172595,1,0,0:0:0:0:
80,244,172702,2,0,B|119:231|119:231|159:199|159:199|223:179,1,160,8|0,0:0|0:0,0:0:0:0:
304,160,173023,1,0,0:0:0:0:
200,104,173130,6,0,B|280:80,1,80,8|0,0:0|0:0,0:0:0:0:
408,209,173345,2,0,B|332:232,1,80
80,244,173559,2,0,B|156:221,1,80,8|0,0:0|0:0,0:0:0:0:
316,312,173773,2,0,B|239:335,1,80
300,188,173987,6,0,B|332:164|332:164|456:164,1,160,12|0,0:0|0:0,0:0:0:0:
492,232,174309,1,0,0:0:0:0:
424,88,174416,2,0,B|332:88,1,80,8|0,0:0|0:0,0:0:0:0:
196,32,174630,2,0,B|276:32,1,80
139,182,174845,6,0,B|60:191,1,80,8|0,0:0|0:0,0:0:0:0:
173,254,175059,2,0,B|118:312,1,80,0|0,0:0|0:0,0:0:0:0:
236,379,175273,6,0,B|241:299,1,80,8|0,0:0|0:0,0:0:0:0:
162,104,175487,2,0,B|96:60,1,80
264,128,175702,6,0,B|264:60|264:60|276:32|276:32|352:32,1,160,12|0,0:0|0:0,0:0:0:0:
420,80,176023,1,0,0:0:0:0:
356,156,176130,2,0,B|392:172|392:172|420:208,1,80,8|0,0:0|0:0,0:0:0:0:
348,348,176345,2,0,B|312:332|312:332|284:296,1,80
204,80,176559,6,0,B|240:96|240:96|268:132,1,80,8|0,0:0|0:0,0:0:0:0:
188,292,176773,2,0,B|152:276|152:276|124:240,1,80
256,248,176987,2,0,B|292:280|292:280|404:280,1,160,8|0,0:0|0:0,0:0:0:0:
396,360,177309,1,0,0:0:0:0:
504,200,177416,6,0,B|424:200,1,80,12|0,0:0|0:0,0:0:0:0:
260,64,177630,2,0,B|340:64,1,80
256,248,177845,5,8,0:0:0:0:
200,304,177952,1,0,0:0:0:0:
132,264,178059,1,0,0:0:0:0:
140,184,178166,1,0,0:0:0:0:
220,176,178273,5,8,0:0:0:0:
328,228,178380,1,0,0:0:0:0:
404,136,178487,1,0,0:0:0:0:
348,28,178595,1,0,0:0:0:0:
232,56,178702,1,8,0:0:0:0:
512,324,178916,6,0,L|448:260,1,80
400,212,179130,1,12,0:0:0:0:
