osu file format v13

[General]
AudioFilename: 2-05 The Chevalier - Knight of Firma.mp3
AudioLeadIn: 0
PreviewTime: -1
Countdown: 1
SampleSet: Normal
StackLeniency: 0.7
Mode: 0
LetterboxInBreaks: 1
WidescreenStoryboard: 0

[Editor]
DistanceSpacing: 1
BeatDivisor: 4
GridSize: 8
TimelineZoom: 2.1

[Metadata]
Title:The Chevalier - Knight of Firmament -
TitleUnicode:The Chevalier - Knight of Firmament -
Artist:EYE_XY feat. Yoneko
ArtistUnicode:EYE_XY feat. Yoneko
Creator:Kotone
Version:test
Source:Cytus
Tags:
BeatmapID:532405
BeatmapSetID:228653

[Difficulty]
HPDrainRate:5
CircleSize:5
OverallDifficulty:5
ApproachRate:5
SliderMultiplier:1.6
SliderTickRate:1

[Events]
//Background and Video events
0,0,"MDUrJi7.jpg",0,0
//Break Periods
2,2252,10142
2,14639,24078
2,25478,38013
2,41542,53497
2,64187,74787
//Storyboard Layer 0 (Background)
//Storyboard Layer 1 (Fail)
//Storyboard Layer 2 (Pass)
//Storyboard Layer 3 (Foreground)
//Storyboard Sound Samples
//Background Colour Transformations
3,100,163,162,255

[TimingPoints]
504,387.096774193548,4,1,0,100,1,0
76374,508.474576271186,4,1,0,100,1,0
88577,387.096774193548,4,1,0,100,1,0
126252,344.827586206897,4,2,0,100,1,0
130734,413.793103448276,4,2,0,100,1,0
131561,491.803278688525,4,2,0,100,1,0
132702,631.578947368421,4,2,0,100,1,0
133965,750,4,2,0,100,1,0
134715,789.473684210526,4,2,0,100,1,0

[HitObjects]
204,110,2052,5,0,0:0:0:0:
152,153,11342,5,0,0:0:0:0:
152,153,12891,1,0,0:0:0:0:
152,153,14439,1,0,0:0:0:0:
152,153,25278,5,0,0:0:0:0:
152,153,39213,5,0,0:0:0:0:
152,153,39600,1,0,0:0:0:0:
152,153,39987,1,0,0:0:0:0:
152,153,40374,1,0,0:0:0:0:
152,153,40762,1,0,0:0:0:0:
152,153,41052,1,0,0:0:0:0:
152,153,41342,1,0,0:0:0:0:
152,153,54697,5,0,0:0:0:0:
152,153,54987,1,0,0:0:0:0:
152,153,55278,1,0,0:0:0:0:
152,153,55471,1,0,0:0:0:0:
152,153,55858,1,0,0:0:0:0:
152,153,56245,1,0,0:0:0:0:
152,153,56536,1,0,0:0:0:0:
152,153,56826,1,0,0:0:0:0:
152,153,57794,1,0,0:0:0:0:
152,153,59245,1,0,0:0:0:0:
152,153,60891,1,0,0:0:0:0:
152,153,61084,1,0,0:0:0:0:
152,153,61181,1,0,0:0:0:0:
276,171,63987,1,0,0:0:0:0:
120,152,75987,5,0,0:0:0:0:
120,152,76084,1,0,0:0:0:0:
120,152,76181,1,0,0:0:0:0:
120,152,76278,1,0,0:0:0:0:
120,152,76374,1,0,0:0:0:0:
120,152,76628,1,0,0:0:0:0:
120,152,76882,1,0,0:0:0:0:
120,152,77136,1,0,0:0:0:0:
120,152,77390,1,0,0:0:0:0:
120,152,77645,1,0,0:0:0:0:
120,152,77899,1,0,0:0:0:0:
120,152,78153,1,0,0:0:0:0:
120,152,78407,1,0,0:0:0:0:
120,152,78662,1,0,0:0:0:0:
120,152,78916,1,0,0:0:0:0:
120,152,79170,1,0,0:0:0:0:
120,152,79424,1,0,0:0:0:0:
120,152,79679,1,0,0:0:0:0:
120,152,79933,1,0,0:0:0:0:
120,152,80187,1,0,0:0:0:0:
120,152,80441,1,0,0:0:0:0:
120,152,80568,1,0,0:0:0:0:
120,152,80696,1,0,0:0:0:0:
120,152,80823,1,0,0:0:0:0:
120,152,80950,1,0,0:0:0:0:
120,152,81204,1,0,0:0:0:0:
120,152,81458,1,0,0:0:0:0:
120,152,81712,1,0,0:0:0:0:
120,152,82221,1,0,0:0:0:0:
120,152,82348,1,0,0:0:0:0:
120,152,82475,1,0,0:0:0:0:
120,152,82602,1,0,0:0:0:0:
120,152,82729,1,0,0:0:0:0:
120,152,82857,1,0,0:0:0:0:
120,152,82984,1,0,0:0:0:0:
120,152,83111,1,0,0:0:0:0:
120,152,83238,1,0,0:0:0:0:
120,152,83365,1,0,0:0:0:0:
120,152,83492,1,0,0:0:0:0:
120,152,83619,1,0,0:0:0:0:
120,152,83746,1,0,0:0:0:0:
120,152,83874,1,0,0:0:0:0:
120,152,84001,1,0,0:0:0:0:
120,152,84255,1,0,0:0:0:0:
120,152,84509,1,0,0:0:0:0:
120,152,84636,1,0,0:0:0:0:
120,152,84763,1,0,0:0:0:0:
120,152,84890,1,0,0:0:0:0:
120,152,85018,1,0,0:0:0:0:
120,152,85145,1,0,0:0:0:0:
120,152,85272,1,0,0:0:0:0:
120,152,85399,1,0,0:0:0:0:
120,152,85526,1,0,0:0:0:0:
120,152,85780,1,0,0:0:0:0:
120,152,86035,1,0,0:0:0:0:
120,152,86289,1,0,0:0:0:0:
120,152,86543,1,0,0:0:0:0:
120,152,86797,1,0,0:0:0:0:
120,152,86924,1,0,0:0:0:0:
120,152,87051,1,0,0:0:0:0:
120,152,87306,1,0,0:0:0:0:
120,152,87560,1,0,0:0:0:0:
120,152,87814,1,0,0:0:0:0:
120,152,87984,1,0,0:0:0:0:
120,152,88153,1,0,0:0:0:0:
120,152,88323,1,0,0:0:0:0:
120,152,88450,1,0,0:0:0:0:
120,152,88577,1,0,0:0:0:0:
184,368,89157,5,0,0:0:0:0:
336,184,89351,1,0,0:0:0:0:
352,48,89738,1,0,0:0:0:0:
128,144,89931,1,0,0:0:0:0:
336,192,90125,1,0,0:0:0:0:
248,176,90415,1,0,0:0:0:0:
224,112,90706,1,0,0:0:0:0:
296,112,90899,1,0,0:0:0:0:
240,152,91093,1,0,0:0:0:0:
264,120,91286,1,0,0:0:0:0:
208,160,91480,1,0,0:0:0:0:
184,184,91577,1,0,0:0:0:0:
312,256,91673,1,0,0:0:0:0:
360,168,91964,1,0,0:0:0:0:
408,72,92254,1,0,0:0:0:0:
360,160,92447,1,0,0:0:0:0:
232,128,92835,1,0,0:0:0:0:
232,200,93028,1,0,0:0:0:0:
256,176,93125,1,0,0:0:0:0:
104,96,93222,1,0,0:0:0:0:
16,80,93512,1,0,0:0:0:0:
88,144,93802,1,0,0:0:0:0:
151,193,93996,2,0,B|99:187|61:224|61:224|56:229|67:243|67:243|53:233|38:233|38:233|21:251|-9:253,1,200,0|0,0:0|0:0,0:0:0:0:
352,232,94577,1,0,0:0:0:0:
304,216,94673,1,0,0:0:0:0:
448,208,94770,1,0,0:0:0:0:
344,192,95060,1,0,0:0:0:0:
346,75,95351,1,0,0:0:0:0:
346,163,95544,1,0,0:0:0:0:
189,180,95931,1,0,0:0:0:0:
225,292,96125,1,0,0:0:0:0:
43,257,96318,1,0,0:0:0:0:
189,282,96609,1,0,0:0:0:0:
274,174,96899,1,0,0:0:0:0:
245,145,96996,1,0,0:0:0:0:
274,174,97093,1,0,0:0:0:0:
194,177,97286,1,0,0:0:0:0:
416,132,97480,1,0,0:0:0:0:
382,246,97673,1,0,0:0:0:0:
309,189,97867,1,0,0:0:0:0:
237,153,98060,1,0,0:0:0:0:
199,138,98157,1,0,0:0:0:0:
118,141,98447,1,0,0:0:0:0:
143,216,98641,1,0,0:0:0:0:
208,163,98835,1,0,0:0:0:0:
284,101,99028,1,0,0:0:0:0:
366,40,99222,1,0,0:0:0:0:
384,155,99415,1,0,0:0:0:0:
273,222,99706,1,0,0:0:0:0:
377,159,99996,1,0,0:0:0:0:
298,172,100189,2,0,L|234:149,6,53.3333333333333,0|0|0|0|0|0|0,0:0|0:0|0:0|0:0|0:0|0:0|0:0,0:0:0:0:
161,176,101351,1,0,0:0:0:0:
81,179,101544,1,0,0:0:0:0:
168,176,101738,1,0,0:0:0:0:
192,144,101931,1,0,0:0:0:0:
250,72,102125,1,0,0:0:0:0:
194,141,102318,1,0,0:0:0:0:
252,135,102512,1,0,0:0:0:0:
366,125,102706,1,0,0:0:0:0:
328,190,102899,1,0,0:0:0:0:
328,190,103093,1,0,0:0:0:0:
328,190,103286,1,0,0:0:0:0:
272,306,103480,1,0,0:0:0:0:
265,197,103673,1,0,0:0:0:0:
161,176,103867,1,0,0:0:0:0:
81,179,104060,1,0,0:0:0:0:
168,176,104254,1,0,0:0:0:0:
192,144,104447,1,0,0:0:0:0:
250,72,104641,1,0,0:0:0:0:
194,141,104835,1,0,0:0:0:0:
252,135,105028,1,0,0:0:0:0:
366,125,105222,1,0,0:0:0:0:
328,190,105415,1,0,0:0:0:0:
328,190,105609,1,0,0:0:0:0:
328,190,105802,1,0,0:0:0:0:
272,306,105996,1,0,0:0:0:0:
265,197,106189,1,0,0:0:0:0:
161,176,106383,1,0,0:0:0:0:
81,179,106577,1,0,0:0:0:0:
108,207,106673,1,0,0:0:0:0:
168,176,106770,1,0,0:0:0:0:
192,144,106964,1,0,0:0:0:0:
250,72,107157,1,0,0:0:0:0:
194,141,107351,1,0,0:0:0:0:
252,135,107544,1,0,0:0:0:0:
366,125,107738,1,0,0:0:0:0:
328,190,107931,1,0,0:0:0:0:
328,190,108125,1,0,0:0:0:0:
328,190,108318,1,0,0:0:0:0:
272,306,108512,1,0,0:0:0:0:
265,197,108706,1,0,0:0:0:0:
148,137,108802,1,0,0:0:0:0:
161,176,108996,1,0,0:0:0:0:
81,179,109093,1,0,0:0:0:0:
40,109,109286,1,0,0:0:0:0:
192,144,109480,1,0,0:0:0:0:
250,72,109673,1,0,0:0:0:0:
194,141,109867,1,0,0:0:0:0:
252,135,110060,1,0,0:0:0:0:
366,125,110254,1,0,0:0:0:0:
328,190,110383,1,0,0:0:0:0:
328,190,110512,1,0,0:0:0:0:
328,190,110641,1,0,0:0:0:0:
272,306,110835,1,0,0:0:0:0:
366,125,111028,1,0,0:0:0:0:
328,190,111157,1,0,0:0:0:0:
328,190,111286,1,0,0:0:0:0:
280,176,111415,1,0,0:0:0:0:
223,84,111802,1,0,0:0:0:0:
297,115,112093,1,0,0:0:0:0:
150,170,112383,1,0,0:0:0:0:
150,170,112480,1,0,0:0:0:0:
150,170,112577,1,0,0:0:0:0:
150,170,112641,1,0,0:0:0:0:
150,170,112706,1,0,0:0:0:0:
150,170,112770,1,0,0:0:0:0:
150,170,112835,1,0,0:0:0:0:
150,170,112899,1,0,0:0:0:0:
150,170,112964,1,0,0:0:0:0:
150,170,113060,1,0,0:0:0:0:
150,170,113157,1,0,0:0:0:0:
150,170,113254,1,0,0:0:0:0:
150,170,113351,1,0,0:0:0:0:
161,176,113544,1,0,0:0:0:0:
81,179,113738,1,0,0:0:0:0:
168,176,113931,1,0,0:0:0:0:
192,144,114125,1,0,0:0:0:0:
250,72,114318,1,0,0:0:0:0:
194,141,114512,1,0,0:0:0:0:
252,135,114706,1,0,0:0:0:0:
366,125,114899,1,0,0:0:0:0:
161,176,115093,1,0,0:0:0:0:
81,179,115286,1,0,0:0:0:0:
168,176,115480,1,0,0:0:0:0:
192,144,115673,1,0,0:0:0:0:
250,72,115867,1,0,0:0:0:0:
194,141,116060,1,0,0:0:0:0:
252,135,116254,1,0,0:0:0:0:
366,125,116447,1,0,0:0:0:0:
161,176,116641,1,0,0:0:0:0:
81,179,116835,1,0,0:0:0:0:
168,176,117028,1,0,0:0:0:0:
192,144,117222,1,0,0:0:0:0:
250,72,117415,1,0,0:0:0:0:
194,141,117609,1,0,0:0:0:0:
252,135,117802,1,0,0:0:0:0:
366,125,117996,1,0,0:0:0:0:
366,125,118286,1,0,0:0:0:0:
366,125,118383,1,0,0:0:0:0:
366,125,118480,1,0,0:0:0:0:
366,125,118577,1,0,0:0:0:0:
366,125,118673,1,0,0:0:0:0:
366,125,118770,1,0,0:0:0:0:
366,125,118867,1,0,0:0:0:0:
366,125,118964,1,0,0:0:0:0:
366,125,119060,1,0,0:0:0:0:
366,125,119157,1,0,0:0:0:0:
366,125,119254,1,0,0:0:0:0:
366,125,119351,1,0,0:0:0:0:
366,125,119447,1,0,0:0:0:0:
366,125,119544,1,0,0:0:0:0:
161,176,119738,1,0,0:0:0:0:
81,179,119931,1,0,0:0:0:0:
168,176,120125,1,0,0:0:0:0:
192,144,120318,1,0,0:0:0:0:
250,72,120512,1,0,0:0:0:0:
194,141,120706,1,0,0:0:0:0:
252,135,120899,1,0,0:0:0:0:
366,125,121093,1,0,0:0:0:0:
161,176,121286,1,0,0:0:0:0:
81,179,121480,1,0,0:0:0:0:
168,176,121673,1,0,0:0:0:0:
192,144,121867,1,0,0:0:0:0:
250,72,122060,1,0,0:0:0:0:
194,141,122254,1,0,0:0:0:0:
252,135,122447,1,0,0:0:0:0:
366,125,122641,1,0,0:0:0:0:
371,178,122770,1,0,0:0:0:0:
360,230,122899,1,0,0:0:0:0:
308,244,123028,1,0,0:0:0:0:
203,267,123222,1,0,0:0:0:0:
366,125,123415,1,0,0:0:0:0:
371,178,123544,1,0,0:0:0:0:
360,230,123673,1,0,0:0:0:0:
308,244,123802,1,0,0:0:0:0:
194,141,123996,1,0,0:0:0:0:
252,135,124189,1,0,0:0:0:0:
252,135,124286,1,0,0:0:0:0:
252,135,124383,1,0,0:0:0:0:
252,135,124480,1,0,0:0:0:0:
252,135,124577,1,0,0:0:0:0:
252,135,124673,1,0,0:0:0:0:
252,135,124770,1,0,0:0:0:0:
252,135,124867,1,0,0:0:0:0:
252,135,124964,1,0,0:0:0:0:
252,135,125931,1,0,0:0:0:0:
252,135,126252,1,0,0:0:0:0:
252,135,126596,1,0,0:0:0:0:
252,135,126769,1,0,0:0:0:0:
252,135,126941,1,0,0:0:0:0:
252,135,127286,1,0,0:0:0:0:
252,135,127631,1,0,0:0:0:0:
252,135,127803,1,0,0:0:0:0:
252,135,127976,1,0,0:0:0:0:
252,135,128320,1,0,0:0:0:0:
252,135,128665,1,0,0:0:0:0:
252,135,128838,1,0,0:0:0:0:
252,135,129010,1,0,0:0:0:0:
252,135,129355,1,0,0:0:0:0:
252,135,129700,1,0,0:0:0:0:
252,135,129872,1,0,0:0:0:0:
252,135,130045,1,0,0:0:0:0:
252,135,130217,1,0,0:0:0:0:
252,135,130389,1,0,0:0:0:0:
252,135,130734,1,0,0:0:0:0:
252,135,131147,1,0,0:0:0:0:
252,135,131354,1,0,0:0:0:0:
252,135,131561,1,0,0:0:0:0:
252,135,132052,1,0,0:0:0:0:
252,135,132702,1,0,0:0:0:0:
252,135,133333,1,0,0:0:0:0:
252,135,133965,1,0,0:0:0:0:
252,135,134715,1,0,0:0:0:0:
252,135,135504,1,0,0:0:0:0:
