osu file format v14

[General]
AudioFilename: CytusKnight of Firmament.mp3
AudioLeadIn: 0
PreviewTime: 2187
Countdown: 1
SampleSet: Soft
StackLeniency: 0.7
Mode: 0
LetterboxInBreaks: 1
WidescreenStoryboard: 1

[Editor]
DistanceSpacing: 1.5
BeatDivisor: 4
GridSize: 4
TimelineZoom: 1

[Metadata]
Title:Knight of Firmament
TitleUnicode:Knight of Firmament
Artist:EYE XY feat. Yoneko
ArtistUnicode:EYE XY feat. Yoneko
Creator:- Ruu -
Version:Insane
Source:Cytus
Tags:Rayark Cytus Chapter K Deemo Iris Remix Holy Knight The Chevalier
BeatmapID:539473
BeatmapSetID:232317

[Difficulty]
HPDrainRate:7
CircleSize:4
OverallDifficulty:9
ApproachRate:9
SliderMultiplier:1.3
SliderTickRate:1

[Events]
//Background and Video events
0,0,"K-5.png",0,0
//Break Periods
//Storyboard Layer 0 (Background)
//Storyboard Layer 1 (Fail)
//Storyboard Layer 2 (Pass)
//Storyboard Layer 3 (Foreground)
//Storyboard Layer 4 (Overlay)
//Storyboard Sound Samples

[TimingPoints]
8427.17448384446,387.096774193548,4,1,1,41,1,0
26188,-100,4,2,1,41,0,0
39349,-100,4,1,0,41,0,0
45543,-100,4,2,0,41,0,0
56188,-100,4,1,0,41,0,0
57543,-100,4,2,0,41,0,0
64124,-100,4,1,1,30,0,1
66833,-100,4,2,1,30,0,1
67027,-100,4,1,1,30,0,1
76124,-100,4,1,1,30,0,0
77091,-100,4,2,1,30,0,0
82317,-100,4,2,1,30,0,1
93349,-100,4,1,1,30,0,1
94510,-100,4,2,1,30,0,0
101091,-100,4,1,1,30,0,0
104381,-100,4,1,1,30,0,0
107865,-100,4,1,1,30,0,0
118897,-100,4,2,1,30,0,0
120252,-100,4,1,1,30,0,0
125671,-100,4,2,1,30,0,0

[Colours]
Combo1 : 113,113,255
Combo2 : 0,0,255
Combo3 : 18,124,255

[HitObjects]
236,160,2188,6,0,L|148:160,1,65
272,160,2575,2,0,L|360:160,1,65
244,252,2962,1,0,0:0:0:0:
503,252,3349,1,0,0:0:0:0:
169,240,3736,6,0,L|104:240,1,65
408,240,4123,2,0,L|315:240,1,65
250,147,4510,1,0,0:0:0:0:
509,147,4897,1,0,0:0:0:0:
256,56,5188,6,0,L|256:144,1,65
416,72,5478,1,0,0:0:0:0:
416,72,5672,2,0,P|388:112|344:112,1,65
248,208,6059,2,0,P|273:182|321:174,2,65,0|0|0,0:0|0:0|0:0,0:0:0:0:
416,72,6640,2,0,L|416:160,1,65,0|0,0:0|0:0,0:0:0:0:
276,160,7027,2,0,P|248:208|212:208,1,65
37,192,7414,2,0,P|64:156|112:152,1,65
475,192,7800,2,0,P|448:228|400:232,1,65
344,100,8382,5,0,0:0:0:0:
220,252,8575,1,0,0:0:0:0:
136,88,8768,1,0,0:0:0:0:
218,252,8962,1,0,0:0:0:0:
248,168,9156,2,0,P|180:168|136:216,1,130,0|0,0:0|0:0,0:0:0:0:
272,290,9736,2,0,L|220:252,1,65
376,212,10124,2,0,L|465:212,1,65
167,123,10511,1,0,0:0:0:0:
376,211,10704,2,0,P|432:156|428:84,1,130
306,107,11284,6,0,L|234:107,1,65
45,107,11671,2,0,L|110:107,1,65
137,199,12058,2,0,L|136:268,1,65
228,356,12446,1,0,0:0:0:0:
319,264,12639,1,0,0:0:0:0:
191,236,12833,1,0,0:0:0:0:
365,218,13026,2,0,L|319:264,1,65,0|0,0:0|0:0,0:0:0:0:
219,136,13413,2,0,L|163:80,1,65
293,136,13800,2,0,L|349:80,1,65
80,231,14187,2,0,L|78:166,1,65
151,305,14575,1,0,0:0:0:0:
21,305,14768,1,0,0:0:0:0:
172,188,15349,6,0,L|120:116,1,65,0|0,0:0|0:0,0:0:0:0:
340,188,15736,2,0,L|400:120,1,65,0|0,0:0|0:0,0:0:0:0:
172,188,16123,1,8,0:0:0:0:
340,188,16317,1,8,0:0:0:0:
89,214,16898,6,0,L|152:280,1,65,0|0,0:0|0:0,0:0:0:0:
423,214,17285,2,0,L|360:280,1,65,0|0,0:0|0:0,0:0:0:0:
89,214,17671,1,8,0:0:0:0:
423,214,17865,1,8,0:0:0:0:
368,80,18446,6,0,L|276:80,1,65
248,92,18833,1,0,0:0:0:0:
224,112,19027,1,0,0:0:0:0:
152,172,19220,5,0,0:0:0:0:
120,180,19414,1,0,0:0:0:0:
96,200,19607,1,0,0:0:0:0:
80,228,19801,1,0,0:0:0:0:
136,300,19994,1,0,0:0:0:0:
232,244,20188,1,0,0:0:0:0:
200,244,20382,1,0,0:0:0:0:
319,270,20575,2,8,P|288:300|248:300,1,65
396,188,20962,5,0,0:0:0:0:
444,116,21156,2,0,P|390:99|360:111,1,65,0|0,0:0|0:0,0:0:0:0:
116,188,21543,2,8,L|116:104,1,65
396,188,21929,2,0,L|396:104,1,65
153,280,22317,2,8,P|117:280|85:320,1,65
288,280,22704,2,0,L|216:280,1,65
420,296,23091,2,8,L|420:204,1,65,0|0,0:0|0:0,0:0:0:0:
222,196,23478,2,8,L|190:196,1,32.5,0|0,0:0|0:0,0:0:0:0:
384,264,23672,5,0,0:0:0:0:
384,264,23769,1,0,0:0:0:0:
384,264,23865,1,0,0:0:0:0:
52,268,24349,1,0,0:0:0:0:
52,268,24446,1,0,0:0:0:0:
52,268,24542,2,8,L|0:268,1,32.5,0|0,0:0|0:0,0:0:0:0:
252,68,25220,1,0,0:0:0:0:
52,68,25414,1,8,0:0:0:0:
488,320,26188,6,0,L|380:320,1,97.5
340,248,26575,1,0,0:0:0:0:
272,336,26769,2,0,L|272:212,1,97.5
160,284,27156,2,0,P|224:280|272:238,1,130
180,168,27736,1,0,0:0:0:0:
402,128,27930,6,0,P|341:107|280:124,1,130
279,124,28511,1,0,0:0:0:0:
150,124,28704,1,0,0:0:0:0:
56,281,28898,2,0,L|56:216,1,65
309,281,29478,5,0,0:0:0:0:
274,157,29672,1,0,0:0:0:0:
401,188,29865,1,0,0:0:0:0:
476,320,30059,1,0,0:0:0:0:
476,320,30253,2,0,L|476:196,1,97.5,0|0,0:0|0:0,0:0:0:0:
328,208,30640,1,0,0:0:0:0:
328,208,30833,2,0,P|352:160|400:136,1,97.5
286,63,31220,5,0,0:0:0:0:
193,155,31414,1,0,0:0:0:0:
101,63,31607,1,0,0:0:0:0:
285,247,31801,1,0,0:0:0:0:
485,248,31994,2,0,L|396:248,1,65,0|0,0:0|0:0,0:0:0:0:
8,96,33156,5,0,0:0:0:0:
28,88,33253,1,0,0:0:0:0:
52,84,33349,1,0,0:0:0:0:
76,88,33446,1,0,0:0:0:0:
96,100,33543,1,0,0:0:0:0:
112,116,33640,1,0,0:0:0:0:
128,132,33736,5,0,0:0:0:0:
144,148,33833,1,0,0:0:0:0:
136,168,33930,1,0,0:0:0:0:
124,188,34027,1,0,0:0:0:0:
112,208,34124,1,0,0:0:0:0:
100,228,34220,1,0,0:0:0:0:
96,252,34317,5,0,0:0:0:0:
108,272,34414,1,0,0:0:0:0:
128,284,34511,1,0,0:0:0:0:
152,284,34607,1,0,0:0:0:0:
176,280,34704,1,0,0:0:0:0:
196,272,34801,1,0,0:0:0:0:
216,260,34898,5,0,0:0:0:0:
236,248,34994,1,0,0:0:0:0:
252,232,35091,1,0,0:0:0:0:
268,216,35188,1,0,0:0:0:0:
284,200,35285,1,0,0:0:0:0:
304,212,35382,1,0,0:0:0:0:
320,228,35478,1,0,0:0:0:0:
476,168,35865,6,0,L|412:168,1,65
328,244,36253,2,0,L|332:156,1,65
424,240,36640,1,0,0:0:0:0:
184,148,36833,2,0,P|232:184|284:160,1,97.5
265,176,37220,1,0,0:0:0:0:
92,208,37414,6,0,L|157:208,1,65
16,208,37801,1,0,0:0:0:0:
67,125,37994,1,0,0:0:0:0:
64,292,38188,1,0,0:0:0:0:
92,208,38382,1,0,0:0:0:0:
233,211,38575,2,0,L|168:212,1,65
500,28,39349,6,0,L|500:116,1,65
441,151,39736,1,0,0:0:0:0:
376,224,39930,2,0,P|328:220|300:192,1,65
297,109,40317,2,0,P|329:108|358:123,1,65
237,169,40704,1,0,0:0:0:0:
111,229,40898,2,0,L|189:227,1,65
337,228,41285,2,8,L|408:228,1,65
71,125,41769,5,0,0:0:0:0:
169,125,41962,1,0,0:0:0:0:
71,27,42156,2,0,P|144:52|155:87,1,97.5,0|0,0:0|0:0,0:0:0:0:
212,80,42542,2,0,L|280:80,1,65
128,204,42833,5,0,0:0:0:0:
130,205,43027,2,0,P|164:171|168:124,1,97.5,0|0,0:0|0:0,0:0:0:0:
169,125,43413,2,0,L|100:124,1,65
308,76,43801,1,0,0:0:0:0:
239,144,43994,2,0,L|168:216|168:216,1,97.5
70,248,44382,2,8,L|135:248,1,65
88,48,45542,6,0,L|156:48|156:48,3,65,0|0|0|0,0:0|0:0|0:0|0:0,0:0:0:0:
424,48,46220,6,0,L|328:48|328:48,3,65,0|0|0|0,0:0|0:0|0:0|0:0,0:0:0:0:
88,116,46897,6,0,L|168:116|168:116,3,65,0|0|0|0,0:0|0:0|0:0|0:0,0:0:0:0:
352,168,47575,6,0,L|268:168,2,65,0|0|0,0:0|0:0|0:0,0:0:0:0:
185,225,48058,2,0,L|92:225,1,65
120,225,48446,1,0,0:0:0:0:
336,88,48640,5,0,0:0:0:0:
336,88,48736,2,0,P|392:96|428:144,1,97.5
280,204,49220,1,0,0:0:0:0:
280,204,49317,2,0,P|326:206|355:169,1,97.5
216,277,49801,2,0,L|216:212,1,65
138,212,50188,1,0,0:0:0:0:
153,148,50382,1,0,0:0:0:0:
91,165,50575,1,0,0:0:0:0:
256,192,50769,12,4,51542,0:0:0:0:
256,184,51736,6,0,P|196:148|152:168,1,97.5,0|0,0:0|0:0,0:0:0:0:
83,153,52124,2,0,L|84:76,1,65
214,88,52511,2,0,L|182:88,4,32.5,0|0|0|0|0,0:0|0:0|0:0|0:0|0:0,0:0:0:0:
317,88,53091,1,0,0:0:0:0:
241,139,53285,6,0,P|240:221|246:222,1,97.5
415,191,53769,2,0,L|350:191,1,65
219,191,54156,2,0,L|252:191,4,32.5,0|0|0|0|0,0:0|0:0|0:0|0:0|0:0,0:0:0:0:
30,191,54833,6,0,L|104:192,1,65
148,288,55220,2,0,P|192:256|204:204,1,97.5
340,76,55801,1,0,0:0:0:0:
212,78,55994,2,0,L|212:144,1,65
115,116,56285,2,0,L|56:156,1,65,0|0,0:0|0:0,0:0:0:0:
204,8,56575,2,8,P|148:28|80:24,1,97.5,0|0,0:0|0:0,0:0:0:0:
320,76,56962,1,0,0:0:0:0:
404,89,57543,5,0,0:0:0:0:
404,89,57736,2,0,P|385:138|317:151,1,97.5
313,63,58220,2,0,L|252:62,1,32.5
466,113,58511,2,0,P|417:195|326:220,1,195
142,198,59478,5,0,0:0:0:0:
72,128,59672,1,0,0:0:0:0:
273,14,59865,1,0,0:0:0:0:
408,128,60059,2,0,B|378:164|378:164|358:120|358:120|334:144|334:144|280:144,1,162.5
48,328,60833,2,0,L|136:264,1,97.5
126,270,61220,1,0,0:0:0:0:
256,192,61414,12,0,62187,0:0:0:0:
256,192,62284,5,0,0:0:0:0:
256,192,62382,12,0,63929,0:0:0:0:
436,96,64124,6,8,P|396:72|344:88,1,97.5,0|0,0:0|0:0,0:0:0:0:
276,155,64704,1,0,0:0:0:0:
276,155,64897,2,0,P|229:166|189:142,1,97.5,0|0,0:0|0:0,0:0:0:0:
341,88,65382,2,0,L|244:88,1,97.5
104,196,65962,2,0,P|68:248|88:324,1,130
158,271,66543,2,0,L|232:272,1,65
413,236,66833,2,2,L|308:236,1,97.5
120,236,67414,6,0,L|120:148,1,65
226,64,67801,1,0,0:0:0:0:
317,155,67994,1,0,0:0:0:0:
409,62,68188,1,0,0:0:0:0:
224,247,68382,2,0,P|204:304|156:336,1,97.5
120,236,68962,5,0,0:0:0:0:
314,236,69156,2,0,L|396:236,1,65
92,143,69543,2,0,L|157:143,1,65
380,143,69930,2,0,L|316:143,1,65,0|0,0:0|0:0,0:0:0:0:
315,143,70317,1,2,0:0:0:0:
131,327,70511,5,0,0:0:0:0:
131,327,70704,2,0,P|80:280|60:216,1,130
184,212,71285,2,0,L|244:176,1,65
435,178,71672,2,0,L|370:178,1,65
269,178,72059,5,0,0:0:0:0:
176,85,72253,1,0,0:0:0:0:
84,176,72446,1,0,0:0:0:0:
176,268,72640,1,0,0:0:0:0:
332,359,72833,2,0,L|267:359,1,65
176,268,73220,2,0,L|176:186,1,65
84,176,73511,1,0,0:0:0:0:
84,176,73607,2,0,L|84:88,1,65
312,112,73994,5,0,0:0:0:0:
311,111,74091,2,0,L|214:111,1,97.5
403,204,74575,2,0,P|440:243|439:266,1,65
239,304,74962,2,0,L|304:304,2,65,0|0|0,0:0|0:0|0:0,0:0:0:0:
256,192,75543,12,0,76511,0:0:0:0:
100,192,77285,6,0,L|184:192,1,65
356,192,77672,2,0,L|432:192,1,65
198,99,78059,2,0,L|132:44,1,65
363,57,78446,2,0,L|424:96,1,65
198,99,78833,1,0,0:0:0:0:
363,241,79027,2,0,L|271:241,1,65
100,192,79317,2,0,L|168:192,1,65
28,149,80381,5,0,0:0:0:0:
174,149,80575,1,0,0:0:0:0:
174,149,80768,2,0,L|268:149,1,65,0|0,0:0|0:0,0:0:0:0:
336,149,81156,2,0,L|408:148,1,65
174,149,81543,2,0,L|108:148,1,65
452,192,82510,6,0,L|388:192,1,65
255,192,82800,2,0,L|328:128,1,97.5
89,186,83187,1,0,0:0:0:0:
121,186,83284,1,0,0:0:0:0:
148,200,83381,1,0,0:0:0:0:
176,224,83478,1,0,0:0:0:0:
188,256,83575,1,0,0:0:0:0:
220,256,83671,1,0,0:0:0:0:
252,256,83768,1,0,0:0:0:0:
328,256,83865,2,0,L|391:256,2,32.5,0|0|0,0:0|0:0|0:0,0:0:0:0:
232,192,84252,5,0,0:0:0:0:
16,192,84446,1,0,0:0:0:0:
124,40,84639,2,0,L|48:40,1,65
232,108,85026,1,0,0:0:0:0:
275,85,85123,1,0,0:0:0:0:
319,109,85220,1,0,0:0:0:0:
362,86,85317,1,0,0:0:0:0:
403,113,85413,1,0,0:0:0:0:
447,89,85510,1,0,0:0:0:0:
488,116,85607,1,0,0:0:0:0:
512,88,85704,1,0,0:0:0:0:
303,224,85800,6,0,L|336:224,1,32.5
140,222,85994,2,0,L|196:224,1,32.5
112,132,86187,2,0,L|49:150,1,65
205,59,86478,2,0,L|142:43,1,65
348,48,86768,2,0,L|284:0,1,65
189,104,87058,1,0,0:0:0:0:
189,103,87155,2,0,P|149:143|133:187,1,97.5
360,192,87542,1,0,0:0:0:0:
360,192,87639,2,0,L|412:192,1,32.5,0|0,0:0|0:0,0:0:0:0:
256,192,87833,12,0,88704,0:0:0:0:
436,88,88897,6,0,P|384:52|320:76,1,130,0|0,0:0|0:0,0:0:0:0:
252,165,89381,2,0,L|252:68,1,97.5,0|0,0:0|0:0,0:0:0:0:
204,68,89768,2,0,L|129:131,1,97.5
382,131,90155,2,0,L|308:68,1,97.5
176,68,90639,1,0,0:0:0:0:
83,160,90833,2,0,L|25:161,4,32.5,0|0|0|0|0,0:0|0:0|0:0|0:0|0:0,0:0:0:0:
180,159,91317,2,0,L|244:160,1,32.5
354,159,91510,2,0,P|374:195|402:189,1,65,0|0,0:0|0:0,0:0:0:0:
255,332,91994,6,0,P|188:355|116:322,1,130
80,300,92575,1,0,0:0:0:0:
32,256,92768,1,0,0:0:0:0:
16,192,92962,2,0,L|88:192,1,65
236,50,93349,2,0,P|188:53|152:80,1,65
127,106,93639,1,0,0:0:0:0:
452,158,93736,2,0,P|424:192|384:204,1,65
60,254,94510,6,0,P|94:296|152:300,1,97.5
226,211,94897,2,0,L|344:212,1,97.5,0|0,0:0|0:0,0:0:0:0:
484,273,95284,2,0,P|424:260|388:212,1,97.5
353,189,95671,2,0,L|276:188,1,65
500,144,95962,2,0,L|448:144,1,32.5
206,144,96446,6,0,L|140:144,1,65
242,73,96736,2,0,L|176:40|176:40,1,65
91,72,97026,2,0,L|124:72,4,32.5,0|0|0|0|0,0:0|0:0|0:0|0:0|0:0,0:0:0:0:
313,164,97607,2,0,L|183:164,1,130
256,192,98091,12,0,99252,0:0:0:0:
256,188,99349,5,0,0:0:0:0:
256,192,99446,12,0,100897,0:0:0:0:
432,104,101091,6,0,P|391:82|348:87,1,65
243,81,101478,2,0,L|240:180,1,97.5
124,232,101865,2,0,L|132:135,1,97.5
136,356,102349,2,0,P|87:326|73:268,1,97.5
160,272,102736,2,0,L|248:208,1,97.5,0|0,0:0|0:0,0:0:0:0:
347,105,103220,2,0,L|356:224,1,97.5,0|0,0:0|0:0,0:0:0:0:
292,280,103704,2,0,L|168:272,1,97.5
64,204,104187,2,0,L|128:204,1,65,8|0,0:0|0:0,0:0:0:0:
389,204,104768,6,0,L|428:135,1,65
328,56,105155,2,0,L|288:120,1,65
117,253,105542,2,0,L|192:208,1,65
394,253,105929,2,0,L|320:208,1,65
252,96,106317,2,0,P|192:68|144:80,1,97.5,0|0,0:0|0:0,0:0:0:0:
60,174,106800,2,0,L|35:276,1,97.5,0|0,0:0|0:0,0:0:0:0:
245,264,107284,2,8,L|180:264,1,65
60,112,107865,6,0,P|128:88|200:116,1,130
445,173,108446,2,0,P|375:156|324:172,1,97.5,0|0,0:0|0:0,0:0:0:0:
132,64,108929,2,0,L|224:64,1,65
424,68,109220,2,0,L|424:184,1,97.50000371933
277,165,109607,1,0,0:0:0:0:
352,288,109800,1,0,0:0:0:0:
186,288,109994,2,0,L|84:289,1,97.50000371933,0|0,0:0|0:0,0:0:0:0:
140,152,110381,6,0,L|80:152,3,48.750001859665,0|0|0|0,0:0|0:0|0:0|0:0,0:0:0:0:
248,152,110962,1,0,0:0:0:0:
374,152,111155,2,0,L|434:152,2,48.750001859665,0|0|0,0:0|0:0|0:0,0:0:0:0:
408,224,111639,2,0,P|376:260|352:288,1,65
196,332,111929,2,0,P|236:284|280:280,1,97.50000371933
144,200,112510,2,0,P|80:172|64:100,1,130,0|0,0:0|0:0,0:0:0:0:
164,104,113091,2,0,L|240:104,1,65
256,192,113478,12,0,116575,0:0:0:0:
192,188,117155,6,0,L|104:188,1,65
253,104,117542,2,0,L|188:104,1,65,0|0,0:0|0:0,0:0:0:0:
317,32,117929,2,0,L|252:32,1,65
176,92,118317,1,0,0:0:0:0:
107,160,118510,1,0,0:0:0:0:
40,228,118704,1,0,0:0:0:0:
108,296,118897,5,0,0:0:0:0:
142,261,118994,1,0,0:0:0:0:
176,295,119091,1,0,0:0:0:0:
210,260,119187,1,0,0:0:0:0:
244,294,119284,1,0,0:0:0:0:
278,259,119381,1,0,0:0:0:0:
312,293,119478,1,0,0:0:0:0:
473,292,119671,2,0,L|408:292,1,65
269,153,120252,6,0,L|179:153,1,65
69,221,120639,2,0,L|134:222,1,65
300,293,121026,2,0,L|208:292,2,65,0|0|0,0:0|0:0|0:0,0:0:0:0:
435,169,121607,2,0,L|384:209,1,65,0|0,0:0|0:0,0:0:0:0:
298,209,121994,1,0,0:0:0:0:
135,209,122187,2,0,L|200:209,1,65
298,209,122671,6,0,L|356:208,3,32.5,0|0|0|0,0:0|0:0|0:0|0:0,0:0:0:0:
261,139,123155,2,0,L|176:140,1,65
168,232,123542,2,0,L|135:232,4,32.5,0|0|0|0|0,0:0|0:0|0:0|0:0|0:0,0:0:0:0:
302,290,124220,6,0,L|400:290,1,97.5
330,220,124704,2,0,L|248:220,1,65
468,220,125091,2,0,B|468:184|460:176|460:176|472:172|472:172|456:168|460:168|460:156|460:156|476:152|472:144|460:136|464:116,2,130,0|0|0,0:0|0:0|0:0,0:0:0:0:
400,288,126058,6,0,P|360:328|316:336,1,97.5
79,94,127026,6,0,L|184:92,1,97.5
480,336,128091,6,0,L|412:248,1,97.5
288,320,128671,2,0,L|204:236,1,97.5
149,181,129155,1,0,0:0:0:0:
397,116,129542,2,0,L|332:116,2,65,0|0|0,0:0|0:0|0:0,0:0:0:0:
146,179,130317,2,0,L|211:178,1,65
382,270,130897,2,0,L|379:186,1,65
316,132,131284,1,0,0:0:0:0:
246,62,131478,1,0,0:0:0:0:
177,130,131671,1,0,0:0:0:0:
312,272,132058,6,0,L|388:268,1,65
169,61,132833,5,0,0:0:0:0:
444,336,133510,1,2,0:0:0:0:
138,336,134187,1,0,0:0:0:0:
344,129,134768,1,2,0:0:0:0:
53,129,135542,1,4,0:0:0:0:
