osu file format v9

[General]
AudioFilename: EXIT TRANCE PRESENTS SPEED ANIME TORANSU BEST 1.mp3
AudioLeadIn: 0
PreviewTime: 463184
Countdown: 1
SampleSet: Normal
StackLeniency: 0.3
Mode: 0
LetterboxInBreaks: 1

[Editor]
Bookmarks: 56158,237187,259129,279015,333187,452158,469472,516100,529815,601300,618100,719586,752329,769643,917243,939015,991355,1034898
DistanceSpacing: 0.8
BeatDivisor: 4
GridSize: 8

[Metadata]
Title:SPEED ANIME TRANCE BEST pt1
Artist:EXIT TRANCE
Creator:ztrot
Version:Marathon
Source:
Tags:megamix lucky star the melancholy of haruhi suzumiya genesis of aquarion digimon

[Difficulty]
HPDrainRate:6
CircleSize:4
OverallDifficulty:8
ApproachRate:8
SliderMultiplier:2
SliderTickRate:2

[Events]
//Background and Video events
0,0,"BG.jpg"
//Break Periods
2,56100,60947
2,99643,104832
2,160640,181632
2,237129,258432
2,321814,332832
2,395871,406547
2,451586,468777
2,538842,543348
2,612899,617405
2,630698,642091
2,697928,718891
2,788442,809405
2,917356,938320
2,1016070,1023348
//Storyboard Layer 0 (Background)
//Storyboard Layer 1 (Fail)
//Storyboard Layer 2 (Pass)
//Storyboard Layer 3 (Foreground)
//Storyboard Sound Samples
//Background Colour Transformations
3,100,163,162,255

[TimingPoints]
6840,342.857142857143,4,1,2,85,1,0
21582,-100,4,1,0,85,0,0
23125,-100,4,1,2,85,0,0
32811,-100,4,1,0,85,0,0
34097,-100,4,1,2,85,0,0
39325,-100,4,1,0,85,0,0
39668,-100,4,1,2,85,0,0
44468,-100,4,1,0,85,0,0
45154,-100,4,1,2,85,0,0
55440,-100,4,1,0,85,0,0
61354,-100,4,1,2,85,0,0
67182,-100,4,1,0,85,0,0
67525,-100,4,1,2,85,0,0
69840,-100,4,1,0,85,0,0
72497,-100,4,1,2,85,0,0
96668,-100,4,1,0,85,0,0
97011,-100,4,1,0,60,0,0
98382,-100,4,1,0,85,0,0
98811,-100,4,1,0,35,0,0
98982,-100,4,1,2,85,0,0
99154,-100,4,1,0,35,0,0
99325,-100,4,1,2,85,0,0
122040,-100,4,1,0,85,0,0
122382,-100,4,1,2,85,0,0
151611,-100,4,1,0,85,0,0
151868,-100,4,1,0,60,0,0
153240,-100,4,1,2,85,0,0
153668,-100,4,1,2,35,0,0
153840,-100,4,1,2,85,0,0
156325,-100,4,1,2,50,0,0
157525,-100,4,1,2,85,0,0
187954,-100,4,1,0,85,0,0
188125,-100,4,1,2,85,0,0
235782,-100,4,1,2,50,0,0
235954,-100,4,1,2,85,0,0
236125,-100,4,1,2,75,0,0
236297,-100,4,1,2,85,0,0
236468,-100,4,1,2,85,0,0
259011,-100,4,1,1,85,0,0
259354,-100,4,2,1,85,0,0
260640,-100,4,1,0,85,0,0
260811,-100,4,2,1,85,0,0
270068,-100,4,1,0,85,0,0
270240,-100,4,2,1,85,0,0
281040,-100,4,1,0,85,0,0
281211,-100,4,2,1,85,0,0
287040,-100,4,1,0,85,0,0
287211,-100,4,2,1,85,0,0
287725,-100,4,1,0,85,0,0
287897,-100,4,2,1,85,0,0
288411,-100,4,1,0,85,0,0
288582,-100,4,2,1,85,0,0
290468,-100,4,1,0,85,0,0
292182,-100,4,2,1,85,0,0
297497,-100,4,1,0,85,0,0
297668,-100,4,2,1,85,0,0
301440,-100,4,1,0,85,0,0
303154,-100,4,2,1,85,0,0
311211,-100,4,1,0,85,0,0
312154,-100,4,2,1,85,0,0
312582,-100,4,1,0,85,0,0
312754,-100,4,2,1,85,0,0
313097,-100,4,1,0,85,0,0
313354,-100,4,2,1,85,0,0
313954,-100,4,1,0,85,0,0
314125,-100,4,2,1,85,0,0
318068,-100,4,1,0,85,0,0
318240,-100,4,2,0,85,0,0
319182,-100,4,1,0,60,0,0
333240,-100,4,2,1,85,0,0
344125,-100,4,1,0,85,0,0
344297,-100,4,2,1,85,0,0
365468,-100,4,1,0,85,0,0
366240,-100,4,2,1,85,0,0
375411,-100,4,1,0,85,0,0
377211,-100,4,2,1,85,0,0
385268,-100,4,1,0,85,0,0
386125,-100,4,2,1,85,0,0
388011,-100,4,1,0,85,0,0
388182,-100,4,2,1,85,0,0
392125,-100,4,1,0,85,0,0
392297,-100,4,2,0,85,0,0
393240,-100,4,1,0,60,0,0
407125,-100,4,1,0,85,0,0
407382,-100,4,2,1,85,0,0
411154,-100,4,1,0,85,0,0
412268,-100,4,2,1,85,0,0
413211,-100,4,1,0,85,0,0
413382,-100,4,2,1,85,0,0
413897,-100,4,1,0,85,0,0
414068,-100,4,2,1,85,0,0
414582,-100,4,1,0,85,0,0
414754,-100,4,2,1,85,0,0
416640,-100,4,1,0,85,0,0
418354,-100,4,2,1,85,0,0
427611,-100,4,1,0,85,0,0
429325,-100,4,2,1,85,0,0
437382,-100,4,1,0,85,0,0
438325,-100,4,2,1,85,0,0
444240,-100,4,1,0,85,0,0
444411,-100,4,2,0,85,0,0
445354,-100,4,1,0,60,0,0
447925,-100,4,1,0,85,0,0
452213,342.857142857143,4,1,0,85,1,0
469355,-100,4,2,0,85,0,0
491727,-100,4,1,1,80,0,0
543755,-100,4,2,0,85,0,0
554470,-100,4,1,1,80,0,0
617813,-100,4,2,0,85,0,0
664013,-100,4,1,0,85,0,0
664613,-100,4,1,1,80,0,0
719298,-100,4,1,2,85,0,0
735670,-100,4,1,0,85,0,0
735841,-100,4,1,2,85,0,0
741155,-100,4,1,0,85,0,0
741327,-100,4,1,2,85,0,0
746641,-100,4,1,0,85,0,0
746813,-100,4,1,2,85,0,0
752213,-100,4,1,0,85,0,0
752384,-100,4,1,2,85,0,0
762413,-100,4,1,0,85,0,0
763441,-100,4,1,2,85,0,0
764641,-100,4,1,0,85,0,0
764813,-100,4,1,2,85,0,0
766013,-100,4,1,0,85,0,0
766184,-100,4,1,2,85,0,0
767384,-100,4,1,0,85,0,0
768327,-100,4,1,2,85,0,0
768927,-100,4,1,0,85,0,0
769270,-100,4,1,2,85,0,0
770298,-100,4,1,0,85,0,0
770641,-100,4,1,2,85,0,0
770984,-100,4,1,0,85,0,0
771327,-100,4,1,2,85,0,0
771670,-100,4,1,0,85,0,0
772441,-100,4,1,2,85,0,0
772870,-100,4,1,0,85,0,0
774413,-100,4,1,2,85,0,0
775613,-100,4,1,0,85,0,0
775784,-100,4,1,2,85,0,0
776984,-100,4,1,0,88,0,0
777241,-100,4,1,2,85,0,0
778355,-100,4,1,0,85,0,0
779384,-100,4,1,2,85,0,0
779898,-100,4,1,0,85,0,0
780070,-100,4,1,2,85,0,0
780413,-100,4,1,0,85,0,0
780670,-100,4,1,2,85,0,0
781270,-100,4,1,0,85,0,0
781527,-100,4,1,2,85,0,0
781955,-100,4,1,0,85,0,0
782213,-100,4,1,2,85,0,0
782641,-100,4,1,0,85,0,0
782813,-100,4,1,2,85,0,0
784013,-100,4,1,0,85,0,0
784270,-100,4,1,2,85,0,0
788213,-100,4,1,0,85,0,0
809813,-100,4,1,2,85,0,0
821041,-100,4,1,0,85,0,0
821213,-100,4,1,2,85,0,0
832013,-100,4,1,0,85,0,0
832184,-100,4,1,2,85,0,0
841870,-100,4,1,0,85,0,0
842984,-100,4,1,2,85,0,0
844184,-100,4,1,0,85,0,0
844441,-100,4,1,2,85,0,0
845555,-100,4,1,0,85,0,0
845727,-100,4,1,2,85,0,0
846241,-100,4,1,0,85,0,0
846413,-100,4,1,2,85,0,0
846927,-100,4,1,0,85,0,0
847870,-100,4,1,2,85,0,0
848470,-100,4,1,0,85,0,0
848641,-100,4,1,2,85,0,0
849841,-100,4,1,0,85,0,0
850098,-100,4,1,2,85,0,0
850441,-100,4,1,0,85,0,0
850784,-100,4,1,2,85,0,0
851127,-100,4,1,0,85,0,0
852241,-100,4,1,2,85,0,0
852841,-100,4,1,0,85,0,0
853955,-100,4,1,2,85,0,0
855155,-100,4,1,0,85,0,0
855327,-100,4,1,2,85,0,0
856527,-100,4,1,0,85,0,0
856698,-100,4,1,2,85,0,0
857213,-100,4,1,0,85,0,0
857384,-100,4,1,2,85,0,0
857898,-100,4,1,0,85,0,0
858841,-100,4,1,2,85,0,0
859441,-100,4,1,0,85,0,0
859613,-100,4,1,2,85,0,0
860813,-100,4,1,0,85,0,0
861155,-100,4,1,2,85,0,0
861498,-100,4,1,0,85,0,0
861841,-100,4,1,2,85,0,0
862184,-100,4,1,0,85,0,0
867070,-100,4,2,2,85,0,0
878641,-100,4,1,2,85,0,0
885498,-100,4,1,0,85,0,0
885725,-100,4,1,2,85,0,0
889613,-100,4,1,0,85,0,0
889955,-100,4,2,2,85,0,0
890727,-100,4,1,0,85,0,0
891241,-100,4,2,2,85,0,0
892184,-100,4,1,0,85,0,0
892355,-100,4,1,2,85,0,0
893555,-100,4,1,0,85,0,0
893727,-100,4,1,2,85,0,0
894927,-100,4,1,0,85,0,0
895098,-100,4,1,2,85,0,0
896298,-100,4,1,0,85,0,0
897241,-100,4,1,2,85,0,0
897841,-100,4,1,0,85,0,0
898013,-100,4,1,2,85,0,0
899213,-100,4,1,0,85,0,0
899470,-100,4,1,2,85,0,0
899813,-100,4,1,0,85,0,0
900155,-100,4,1,2,85,0,0
900498,-100,4,1,0,85,0,0
900755,-100,4,1,2,85,0,0
901784,-100,4,1,0,85,0,0
903327,-100,4,1,2,85,0,0
904527,-100,4,1,0,85,0,0
904698,-100,4,1,2,85,0,0
905898,-100,4,1,0,85,0,0
906070,-100,4,1,2,85,0,0
907270,-100,4,1,0,85,0,0
908213,-100,4,1,2,85,0,0
908813,-100,4,1,0,85,0,0
908984,-100,4,1,2,85,0,0
910184,-100,4,1,0,85,0,0
910441,-100,4,1,2,85,0,0
910784,-100,4,1,0,85,0,0
911127,-100,4,1,2,85,0,0
911470,-100,4,1,0,85,0,0
911727,-100,4,1,2,85,0,0
912927,-100,4,1,0,85,0,0
913270,-100,4,1,2,85,0,0
914555,-100,4,2,2,85,0,0
917127,-100,4,1,0,85,0,0
938727,-100,4,1,1,85,0,0

[Colours]
Combo1 : 255,128,0
Combo2 : 0,128,255
Combo3 : 255,0,0
Combo4 : 153,51,255
Combo5 : 255,255,0

[HitObjects]
256,72,12325,2,0,B|184:32|112:72,2,150,4|0|2
256,152,13011,2,0,B|328:192|400:152,2,150,0|0|2
256,232,13697,2,0,B|184:272|104:232,2,150,0|0|2
216,336,14382,5,0
296,336,14554,1,2
184,336,14725,1,8
336,336,14897,1,2
400,288,15068,6,0,B|424:200|344:160,2,150,4|0|2
320,240,15754,2,0,B|256:304|176:232,2,150,0|0|2
164,161,16440,2,0,B|88:200|112:288,2,150,0|0|2
216,104,17125,5,0
296,104,17297,1,2
256,40,17468,1,8
256,40,17640,1,2
256,168,17811,6,0,B|208:216|168:168|104:192,2,150,4|0|2
256,168,18497,2,0,B|304:216|344:168|408:192,2,150,0|0|2
184,280,19182,2,0,B|256:320|328:280,2,150,0|0|2
216,208,19868,5,0
296,208,20040,1,2
216,128,20211,1,8
296,128,20382,1,2
256,40,20554,5,4
256,344,21240,1,4
64,88,21925,5,4
64,88,22268,1,4
448,88,22611,1,4
448,88,22954,1,4
448,248,23297,6,0,B|400:352|280:328,2,200,4|8|0
448,168,24154,1,2
296,120,24497,1,0
216,120,24668,1,0
256,272,25011,1,8
256,272,25182,1,0
256,48,25525,1,2
64,248,25868,5,0
64,248,26040,2,0,B|112:352|232:328,1,200,4|8
256,208,26640,1,0
256,168,26725,1,0
256,88,26897,1,2
408,48,27240,5,0
408,128,27411,1,0
408,248,27668,1,0
376,272,27754,1,8
352,304,27840,1,0
336,344,27925,1,0
256,208,28268,1,2
72,80,28611,5,0
72,80,28782,1,4
72,80,28954,1,2
440,80,29297,5,0
440,80,29468,1,0
440,80,29640,1,2
256,336,29982,5,0
256,336,30154,1,2
168,296,30325,2,0,B|256:208|352:304,1,200
368,216,30840,5,0
256,40,31182,1,8
256,40,31354,1,0
256,40,31525,1,4
216,280,32040,5,0
296,280,32211,1,4
256,128,32554,5,0
200,184,32725,1,0
312,184,32897,1,4
152,184,33240,1,4
360,184,33582,1,4
256,48,33925,1,4
312,304,34268,5,0
256,360,34440,1,2
200,304,34611,1,8
200,304,34697,1,0
256,248,34868,1,0
256,248,34954,1,2
296,176,35125,1,0
216,176,35297,1,8
216,176,35382,1,2
392,80,35811,5,2
392,160,35982,2,0,B|392:224,1,50,8|0
312,216,36240,2,0,B|312:152,1,50,0|2
256,96,36497,1,0
192,144,36668,1,8
128,192,36839,1,2
256,344,37182,5,2
216,272,37354,1,8
216,272,37439,1,0
296,272,37611,1,0
296,272,37697,1,2
256,200,37868,2,0,B|224:152|288:152|256:104,1,100,0|8
104,88,38382,6,0,B|32:160,1,100,0|2
32,280,38811,1,2
88,216,38982,1,0
88,216,39068,1,2
168,216,39239,2,0,B|168:328,1,100,2|4
480,280,39925,6,0,B|400:360,1,100,2|8
409,350,40182,1,0
328,352,40354,2,0,B|328:296,1,50,0|2
256,248,40611,1,2
184,304,40782,1,8
256,248,40954,1,0
432,56,41297,5,2
432,136,41468,1,8
432,136,41554,1,0
360,96,41725,1,0
360,96,41811,1,2
296,48,41982,1,0
256,128,42154,1,8
216,48,42325,1,0
160,128,42497,6,0,B|120:160,4,50,2|0|0|0|8
352,128,43011,2,0,B|392:160,4,50,2|0|0|0|2
256,224,43525,1,8
256,224,43611,1,0
256,224,43697,1,8
216,296,43868,5,0
296,296,44039,1,0
168,232,44211,1,8
344,232,44382,1,2
256,144,44554,1,4
256,144,44725,1,4
256,144,44897,1,4
96,112,45239,5,4
152,56,45411,1,0
152,56,45497,1,0
152,56,45582,1,8
208,112,45754,1,2
256,48,45925,1,0
256,48,46011,1,0
256,48,46097,1,0
304,112,46268,1,2
360,56,46439,2,0,B|408:80,2,50
256,48,46782,5,0
208,112,46954,1,8
256,176,47125,1,2
304,112,47297,1,0
256,176,47468,1,0
256,256,47639,1,2
256,256,47811,1,2
176,248,47982,5,0
104,288,48154,2,0,B|64:320,2,50,0|0|8
64,216,48497,1,0
136,176,48668,2,0,B|96:136,2,50,0|0|2
192,112,49011,5,2
256,64,49182,1,0
256,64,49268,1,0
256,64,49354,1,2
256,152,49525,5,0
256,232,49697,1,8
208,296,49868,1,0
208,296,49954,1,2
232,328,50039,1,0
280,328,50125,1,0
304,296,50211,1,2
424,192,50554,5,0
424,112,50725,1,4
352,72,50897,1,0
352,160,51068,1,8
280,112,51239,1,2
280,216,51411,6,0,B|224:216,4,50,0|0|0|0|0
232,112,51925,5,2
160,72,52097,1,0
88,112,52268,1,0
160,160,52439,1,8
160,160,52611,1,0
256,208,52782,5,0
256,288,52954,1,2
256,368,53125,1,0
256,368,53297,1,2
184,328,53468,5,0
184,328,53554,1,0
184,328,53639,1,0
256,288,53811,1,8
328,328,53982,1,2
328,328,54068,1,2
328,328,54154,1,0
328,248,54325,5,0
256,208,54497,1,0
184,248,54668,1,2
184,168,54839,1,0
256,128,55011,1,2
328,168,55182,1,8
256,48,55354,1,2
256,128,55525,5,4
256,128,55611,1,4
256,128,55697,1,4
256,128,55782,1,4
256,128,55868,1,4
256,40,61697,5,4
256,120,61868,1,0
256,120,62039,1,8
144,240,62382,2,2,B|88:280|32:224|64:168,2,150,0|2|0
256,120,63239,1,0
256,120,63411,1,8
368,240,63754,2,2,B|424:280|480:224|448:168,2,150,2|2|2
216,296,64611,5,0
296,296,64782,1,8
184,192,65125,2,2,B|224:168|288:168|328:192,2,150,0|2|0
256,48,65982,5,0
256,48,66154,1,8
376,152,66497,1,0
256,280,66754,1,2
136,152,67011,1,0
256,48,67354,5,4
136,256,67868,6,2,B|56:248|8:328,2,150,0|2|0
296,288,68725,1,0
216,288,68897,1,8
376,256,69239,2,2,B|456:248|504:328,2,150,0|2|2
256,224,69925,5,4
480,32,70611,1,4
32,32,71297,1,4
160,128,71639,1,4
352,128,71982,1,4
256,256,72325,1,4
112,328,72668,5,4
56,272,72839,1,0
40,192,73011,1,8
56,112,73182,1,0
112,48,73354,2,0,B|136:176|272:144,1,200,0|8
256,147,73868,2,2,B|376:176|400:48,1,200
456,112,74382,5,8
472,192,74554,1,0
440,264,74725,2,0,B|368:344|248:288,1,200,0|8
255,291,75239,2,2,B|144:344|72:264,1,200
48,192,75754,1,8
80,120,75925,1,0
136,64,76097,1,0
216,48,76268,1,0
296,48,76439,1,8
256,120,76611,2,0,B|328:216|440:192,1,200
120,331,77639,5,0
120,331,77982,2,2,B|24:227|188:120|256:224,1,300,2|8
256,224,78668,2,0,B|324:328|488:221|392:117,1,300,0|2
328,176,79354,2,2,B|232:72|396:-35|464:69,1,300,0|8
496,144,80039,2,0,B|496:256|440:336|304:352,1,300,0|2
256,200,80897,1,0
256,192,81239,12,4,83639
176,48,83982,5,8
336,48,84325,1,0
216,152,84668,1,8
296,152,84839,1,0
448,192,85182,1,0
432,272,85354,1,8
360,304,85525,1,0
352,224,85697,2,2,B|256:184|256:288|160:216,1,200,2|8
152,304,86211,6,0,B|64:352|16:240|64:200,1,200,2|0
120,144,86725,1,8
120,64,86897,1,0
192,24,87068,2,2,B|208:104|256:80|304:104|328:24,1,200,2|8
408,40,87582,2,0,B|504:120|448:232,1,200,2|2
392,331,88611,5,0
392,331,88782,1,8
392,331,88954,2,2,B|488:227|324:120|256:224,1,300,2|8
256,224,89640,2,0,B|187:328|23:221|119:117,1,300,2|8
184,176,90325,2,2,B|280:72|116:-35|48:69,1,300,2|8
16,144,91011,2,0,B|16:256|72:336|208:352,1,300,2|8
256,200,91868,1,0
216,48,92211,1,8
296,48,92382,1,0
256,192,92468,12,0,94611
168,116,94954,6,0,B|255:205|357:107,1,200,8|0
256,64,95468,1,2
256,256,95811,1,0
256,256,95982,1,0
216,104,96325,1,8
296,104,96497,1,0
256,256,96840,1,4
112,192,97182,5,4
64,128,97354,1,4
112,64,97525,1,4
400,192,97868,5,4
448,256,98040,1,4
400,320,98211,1,4
304,192,98554,5,0
208,192,98725,1,0
296,264,98897,1,0
216,264,99068,1,2
256,336,99240,1,0
256,336,99411,1,0
256,328,105582,5,0
184,288,105754,2,0,B|128:312,2,50,0|0|8
256,248,106097,1,2
328,288,106268,2,0,B|384:312,2,50
328,208,106611,1,0
256,168,106782,2,0,B|256:112,2,50
184,200,107125,5,2
112,240,107297,1,8
40,200,107468,1,0
112,160,107640,1,0
40,120,107811,1,0
112,80,107982,1,2
112,80,108154,1,2
400,80,108325,5,0
400,80,108411,1,0
400,80,108497,1,0
472,120,108668,1,8
400,160,108840,1,0
400,160,108925,1,0
400,160,109011,1,0
328,120,109182,1,2
256,208,109354,5,0
256,208,109525,1,0
216,136,109697,1,0
296,136,109868,1,0
296,136,109954,1,0
296,136,110040,1,8
320,64,110211,5,0
288,40,110297,1,2
256,72,110382,1,0
224,40,110468,1,0
192,64,110554,1,2
128,208,110897,5,0
128,288,111068,1,4
200,248,111240,1,0
203,327,111411,2,0,B|307:327,1,100,8|0
312,248,111754,1,0
384,288,111925,1,0
384,208,112097,2,2,B|440:176|416:120,1,100,2|0
336,144,112440,1,0
256,168,112611,1,2
176,144,112782,2,0,B|128:168|120:224,1,100,8|2
200,248,113125,1,0
256,304,113297,1,0
312,248,113468,1,2
256,64,113811,5,0
256,64,113982,1,0
176,112,114154,2,0,B|136:160|184:216,1,100,8|2
256,144,114497,1,0
256,144,114668,1,0
336,112,114840,2,0,B|376:160|328:216,1,100,2|2
256,256,115182,1,0
256,256,115354,1,2
256,336,115525,1,8
256,336,115697,1,2
256,192,115868,12,4,116554
256,32,116725,5,0
256,32,116897,1,8
392,112,117240,2,2,B|392:272,2,150,0|2|0
256,200,118097,5,0
256,200,118268,1,8
104,112,118611,2,2,B|104:272,2,150,2|2|0
176,256,119468,5,0
176,336,119640,1,8
336,336,119982,2,2,B|336:248|432:248,2,150,0|2|0
296,184,120840,5,0
216,184,121011,1,8
176,336,121354,2,2,B|176:248|80:248,2,150,0|2|0
256,48,122211,5,4
256,288,122725,1,0
256,288,122982,1,2
256,288,123240,1,0
416,256,123582,5,0
416,176,123754,1,8
336,48,124097,2,2,B|256:16|176:48,2,150,0|2|0
296,112,124782,5,0
296,112,124868,1,2
216,112,125040,1,2
216,112,125125,1,8
184,184,125297,1,0
184,184,125468,1,2
328,184,125640,1,2
328,184,125811,1,0
256,248,125982,1,0
256,248,126154,1,2
176,264,126325,5,0
216,336,126497,1,8
296,336,126668,1,2
336,264,126840,1,2
256,248,127011,1,0
176,264,127182,1,2
400,56,127525,5,4
456,112,127697,1,0
472,192,127868,1,8
456,272,128040,1,0
400,336,128211,2,0,B|376:208|240:240,1,200,2|8
256,237,128725,2,2,B|136:208|112:336,1,200,2|0
56,272,129240,5,8
40,192,129411,1,0
72,120,129582,2,0,B|144:40|264:96,1,200,2|8
257,93,130097,2,2,B|368:40|440:120,1,200,2|0
464,192,130611,1,8
432,264,130782,1,0
376,320,130954,1,2
296,336,131125,1,0
216,336,131297,1,8
256,264,131468,2,0,B|184:168|72:192,1,200,2|2
392,53,132497,5,0
392,53,132668,1,8
392,53,132840,2,2,B|488:157|324:264|256:160,1,300,2|8
256,160,133525,2,0,B|188:56|24:163|120:267,1,300,2|8
184,208,134211,2,2,B|280:312|116:419|48:315,1,300,2|8
16,240,134897,2,0,B|16:128|72:48|208:32,1,300,2|8
256,184,135754,1,0
256,192,136097,12,4,138497
336,336,138840,5,8
176,336,139182,1,0
296,232,139525,1,8
216,232,139697,1,0
64,192,140040,1,2
80,112,140211,1,8
152,80,140382,1,0
160,160,140554,2,2,B|256:200|256:96|352:168,1,200,2|8
360,80,141068,6,0,B|448:32|496:144|448:184,1,200,2|0
392,240,141582,1,8
392,320,141754,1,0
320,360,141925,2,2,B|304:280|256:304|208:280|184:360,1,200,2|8
104,320,142440,2,0,B|8:240|64:128,1,200,2|2
392,56,143468,5,0
392,56,143640,1,8
392,56,143811,2,2,B|488:160|324:267|256:163,1,300,2|8
256,160,144497,2,0,B|325:56|489:163|393:267,1,300,2|8
328,208,145182,2,2,B|232:312|396:419|464:315,1,300,2|8
496,240,145868,2,0,B|496:128|440:48|304:32,1,300,2|8
256,184,146725,1,0
296,336,147068,1,8
216,336,147240,1,2
256,192,147325,12,4,149468
256,40,149811,5,8
256,200,150154,1,0
256,200,150325,1,0
144,312,150668,5,0
96,248,150840,1,2
416,248,151182,5,8
368,312,151354,1,0
256,200,151697,1,4
128,104,152040,5,4
128,104,152211,1,4
128,104,152382,1,4
256,344,152725,5,4
256,344,152897,1,4
256,344,153068,1,4
384,104,153411,5,0
320,56,153582,1,0
256,104,153754,1,0
192,56,153925,1,0
256,248,154268,1,0
256,192,154440,12,0,156325
256,80,156668,5,2
256,304,157011,1,0
144,192,157354,1,2
368,192,157697,5,4
344,272,157868,1,0
256,304,158040,1,0
168,272,158211,1,4
144,192,158382,1,0
168,112,158554,1,0
256,80,158725,1,4
344,112,158897,1,0
256,192,159068,5,0
256,192,159240,1,4
256,192,159411,1,0
256,192,159582,1,0
168,112,159754,1,4
344,112,160097,1,4
256,304,160440,1,4
112,80,182382,5,4
192,80,182554,1,0
152,152,182725,2,0,B|32:184|56:320,1,200,8|0
168,256,183325,2,2,B|192:344|296:344,1,150,2|0
256,184,183925,5,0
256,184,184097,1,8
344,320,184440,2,2,B|424:368|488:288,2,150,2|0|2
408,160,185297,5,0
392,80,185468,1,8
240,32,185811,2,2,B|152:0|104:80,2,150,2|0|2
256,200,186668,5,0
256,120,186840,1,8
192,264,187182,2,2,B|256:336|320:264,2,150,2|0|2
256,120,188040,5,4
32,192,188554,1,2
32,192,188811,1,0
32,192,189068,1,2
216,224,189411,5,0
296,224,189582,1,8
480,192,189925,1,0
480,192,190182,1,2
480,192,190440,1,0
416,144,190611,5,0
352,96,190782,2,0,B|352:40,2,50,2|0|8
288,144,191125,1,0
256,72,191297,2,0,B|256:16,2,50,2|0|0
224,144,191640,1,0
336,256,191982,1,2
176,256,192325,1,8
256,72,192668,1,0
256,72,192840,1,2
256,72,193011,1,0
104,120,193354,5,0
24,136,193525,1,0
24,216,193697,1,8
24,296,193868,1,0
72,360,194040,2,0,B|152:296|184:408|264:320,1,200,2|8
255,327,194554,2,2,B|328:408|360:296|440:360,1,200,2|2
480,288,195068,1,8
424,232,195240,1,0
424,152,195411,2,0,B|368:40|226:91,1,200,2|8
255,82,195925,2,2,B|144:40|88:152,1,200,2|2
160,192,196440,5,8
216,248,196611,1,0
296,248,196782,1,0
256,176,196954,1,2
256,176,197125,1,8
160,120,197297,6,2,B|256:72|352:120,1,200,2|2
88,320,198325,5,0
88,320,198668,2,2,B|-48:320|-16:240|-40:160|88:160,1,300,2|8
88,240,199354,2,0,B|224:240|192:160|216:80|88:80,1,300,2|8
192,16,200040,2,2,B|192:80|256:64|256:64|328:80|328:16,2,200,0|2|0
352,192,201240,5,8
160,192,201582,1,0
256,320,201925,1,8
256,320,202097,1,2
256,192,202268,12,4,204325
216,48,204497,5,0
296,48,204668,1,8
320,128,204840,1,0
192,128,205011,2,0,B|112:208|160:320,1,200,2|8
224,352,205525,2,2,B|224:288|224:288|296:336|296:288|296:288|296:240,1,200,2|0
376,240,206040,1,8
448,200,206211,1,0
424,120,206382,2,0,B|368:8|248:72,1,200,2|8
257,67,206897,2,2,B|146:7|90:119,1,200,2|0
176,160,207411,5,8
256,168,207582,1,0
336,160,207754,1,2
296,312,208097,1,8
216,312,208268,1,2
256,168,208611,1,2
40,328,209297,5,0
40,328,209468,1,8
40,328,209640,1,2
216,168,210154,1,8
296,168,210325,1,2
472,328,210840,1,8
472,328,211011,1,2
256,312,211354,1,0
40,328,211697,1,2
256,224,212211,5,8
256,64,212554,1,0
256,224,212897,1,8
256,224,213068,1,2
256,192,213240,12,4,215297
488,232,215468,5,0
488,152,215640,1,8
488,72,215811,1,0
440,8,215982,2,0,B|360:72|328:-40|248:48,1,200,2|8
257,41,216497,2,2,B|184:-40|152:72|72:8,1,200,2|2
32,80,217011,1,8
88,136,217182,1,0
88,216,217354,2,0,B|144:328|286:277,1,200,2|8
257,286,217868,2,2,B|368:328|424:216,1,200,2|2
352,176,218382,5,8
296,120,218554,1,0
216,120,218725,1,0
256,192,218897,1,2
256,192,219068,1,8
352,248,219240,6,0,B|256:296|160:248,1,200,2|2
424,48,220268,5,0
424,48,220611,2,2,B|560:48|528:128|552:208|424:208,1,300,2|8
424,128,221297,2,0,B|288:128|320:208|296:288|424:288,1,300,2|8
320,352,221982,2,2,B|320:288|256:304|256:304|184:288|184:352,2,200,2|0|2
160,176,223182,5,8
352,176,223525,1,0
256,48,223868,1,8
256,48,224040,1,2
256,192,224211,12,4,226268
256,32,226611,5,8
216,184,226954,1,0
296,184,227125,1,0
216,320,227468,5,0
296,320,227640,1,2
296,320,227811,1,0
256,248,227982,1,8
256,248,228154,1,0
256,88,228497,1,2
136,192,228840,5,0
136,192,229011,2,0,B|32:136|64:24,1,200,4|8
168,80,229611,1,0
168,80,229697,1,2
256,40,229868,1,0
256,200,230211,5,0
256,200,230382,1,0
344,80,230725,1,8
344,80,230897,1,0
256,200,231240,1,2
152,304,231582,5,0
152,304,231754,1,4
152,304,231925,1,0
360,304,232268,5,0
360,304,232440,1,2
360,304,232611,1,0
256,128,232954,5,0
256,128,233125,1,2
256,128,233297,1,0
296,280,233640,1,0
216,280,233811,1,0
256,208,233982,1,2
256,208,234154,1,8
120,120,234497,5,4
48,264,234840,5,0
48,264,235011,1,0
48,264,235182,1,4
184,352,235525,5,0
256,312,235697,1,0
328,272,235868,1,4
256,232,236040,1,0
184,200,236211,1,4
256,152,236382,1,0
328,112,236554,1,4
256,72,236725,1,0
184,112,236897,1,2
256,48,259182,5,4
104,112,259525,1,8
168,160,259697,1,2
112,216,259868,1,4
168,272,260040,2,0,B|256:352|352:272,1,200,2|2
256,224,260554,2,0,B|352:136|456:232,1,200,4|8
424,296,261068,1,2
504,272,261240,1,4
512,192,261411,1,2
424,56,261754,5,2
424,136,261925,2,0,B|336:216|240:136,1,200,4|8
328,88,262440,2,0,B|240:8|144:96,1,200,2|2
168,168,262954,1,4
88,152,263125,1,2
112,232,263297,2,0,B|120:344|248:352,1,200,4|8
208,256,263811,2,0,B|328:216|360:344,1,200,2|2
432,312,264325,1,4
432,232,264497,1,2
256,72,265011,6,0,B|144:32|72:120,1,200,8|4
184,184,265525,2,2,B|160:296|32:280,3,200
80,184,266725,2,0,B|8:120|80:56,2,150,4|2|2
136,120,267411,2,0,B|224:48|320:120,1,200,4|8
224,184,267925,1,2
256,384,268611,5,4
296,232,268954,1,2
216,232,269125,1,4
328,160,269297,1,2
184,160,269468,1,4
352,88,269640,1,2
160,88,269811,1,4
256,24,269982,1,4
256,24,270154,1,4
328,160,270497,5,8
328,160,270668,1,2
184,160,270840,1,4
184,160,271011,1,2
216,320,271354,1,2
296,320,271525,1,4
448,272,271868,5,8
480,200,272040,1,2
480,120,272211,1,4
440,48,272382,1,2
256,88,272725,5,2
256,168,272897,2,0,B|160:120|144:224|48:168,1,200,4|8
256,168,273411,2,0,B|352:120|368:224|464:168,1,200,2|2
448,336,274097,1,2
448,256,274268,2,0,B|352:208|336:312|240:256,1,200,4|8
256,264,274782,2,0,B|160:216|144:320|48:264,1,200,2|2
64,192,275297,1,4
64,112,275468,1,2
256,344,275982,5,8
336,336,276154,1,2
408,296,276325,1,4
424,216,276497,2,0,B|464:104|376:32,3,200,2|2|2|2
352,136,277697,2,0,B|312:88|256:88|216:144,2,150,4|2|2
288,192,278382,2,0,B|288:304|144:320,1,200,4|8
96,272,278897,1,2
376,120,279582,5,2
296,96,279754,1,4
216,96,279925,1,2
136,120,280097,1,8
168,192,280268,2,0,B|256:280|344:192,1,200,2|2
416,224,280782,1,4
408,304,280954,1,4
336,344,281125,6,0,B|245:391|88:376|-4:268|32:184|32:184,1,400,4|4
32,112,281982,2,0,B|96:16|216:40,1,200,8|2
160,136,282497,2,0,B|256:184|360:136,1,200,4|4
432,280,283182,1,4
368,328,283354,1,2
304,280,283525,1,8
368,232,283697,1,2
368,152,283868,6,0,B|280:80|184:152,1,200,4|4
168,232,284382,1,2
104,184,284554,2,0,B|0:104|104:8,1,200,4|8
160,96,285068,1,2
256,32,285411,1,2
352,96,285754,1,4
416,336,286268,5,4
416,256,286440,1,2
344,296,286611,1,4
344,216,286782,1,2
272,256,286954,1,8
272,176,287125,2,0,B|168:176|152:256|184:312,1,200,4|2
104,312,287640,1,8
32,272,287811,2,0,B|-24:160|88:96,1,200,4|2
152,64,288325,1,8
232,64,288497,2,0,B|312:136|432:120,1,200,4|2
464,192,289011,1,4
440,264,289182,1,2
384,208,289354,1,4
256,192,289525,12,8,290382
256,48,290554,5,4
256,48,290897,1,4
416,48,291240,1,4
416,48,291411,1,4
256,256,292097,5,4
309,196,292268,2,0,B|397:196|397:316|309:316,1,200,2|8
205,319,292782,2,0,B|116:318|116:198|204:198,1,200,4|12
186,120,293297,2,0,B|195:39|323:39|326:129,1,200,2|2
256,160,293811,1,8
256,240,293982,1,2
256,24,294325,1,6
256,24,294497,1,8
464,40,294839,5,4
384,40,295011,2,0,B|296:40|296:160|384:160,1,200,2|8
464,160,295525,2,0,B|552:160|552:280|464:280,1,200,4|12
384,280,296039,2,0,B|376:360|248:360|240:272,1,200,2|2
312,256,296554,1,8
312,176,296725,1,2
256,24,297068,1,2
256,104,297239,1,8
256,184,297411,1,2
208,256,297582,6,0,B|168:312|72:312|32:256,1,200,4|8
120,208,298097,2,0,B|32:192|32:64|160:64,1,200,2|2
176,128,298611,1,8
256,104,298782,1,2
336,128,298954,2,0,B|408:128|440:240|352:272,1,200,4|8
328,200,299468,2,0,B|256:296|256:48|152:232,1,200,2|2
136,264,299982,1,8
96,192,300154,1,2
96,112,300325,1,4
256,32,300668,1,8
256,32,300839,1,2
416,112,301182,1,2
256,352,301525,5,4
256,192,301868,1,4
256,32,302211,1,4
256,192,302554,1,4
464,344,303068,5,4
384,344,303240,2,8,B|288:288|288:376|184:336,1,200,2|8
240,272,303754,2,0,B|352:216|384:288|440:248,1,200,4|8
432,168,304268,2,0,B|360:192|312:128|232:184,1,200,2|2
184,120,304782,1,8
256,80,304954,1,2
256,360,305297,1,4
256,280,305468,1,8
48,344,305811,5,4
128,344,305982,2,0,B|240:344|280:232,1,200,2|8
200,232,306497,2,0,B|112:232|112:112|200:112,1,200,4|8
256,168,307011,2,0,B|368:216|432:104,1,200,2|2
376,48,307525,1,8
376,48,307697,1,2
136,48,308039,1,2
168,120,308211,1,8
248,112,308382,1,2
328,120,308554,6,0,B|368:64|464:64|504:120,1,200,4|8
416,184,309068,2,0,B|400:272|272:272|272:144,1,200,2|2
216,240,309582,1,8
256,312,309754,1,2
176,312,309925,2,0,B|104:312|72:200|160:168,1,200,4|8
184,96,310439,2,0,B|256:0|256:248|360:64,1,200,2|2
416,120,310954,1,8
416,200,311125,1,2
416,280,311297,5,4
256,352,311639,1,4
96,280,311982,1,4
256,352,312325,1,8
256,272,312497,1,2
256,192,312668,2,0,B|168:120|64:192,1,200,4|8
160,240,313182,1,4
448,184,313697,5,8
480,112,313868,1,2
408,72,314039,2,0,B|312:144|216:72,1,200,4|0
184,144,314554,2,0,B|56:128|40:264,1,200,4|0
144,240,315068,1,8
144,320,315239,1,2
216,280,315411,2,0,B|312:352|408:280,1,200,4|0
456,224,315925,2,0,B|472:96|344:96,1,200,4|0
360,200,316439,5,8
280,176,316611,1,2
264,96,316782,2,0,B|176:0|80:104,1,200,4|0
176,144,317297,2,0,B|160:264|32:248,1,200,4|0
256,352,318154,5,4
376,240,318497,1,2
376,80,318839,1,0
376,80,319011,1,2
256,216,319354,1,4
136,80,319697,1,4
136,80,319868,1,4
256,368,320382,5,4
256,368,320554,1,4
328,136,321068,1,4
296,208,321239,1,4
216,208,321411,1,4
184,136,321582,1,4
440,96,333582,5,8
456,176,333754,1,2
408,240,333925,1,4
328,240,334097,2,0,B|272:184|184:200|152:256,1,200,2|2
240,304,334611,2,0,B|184:360|96:344|64:288,1,200,4|8
32,216,335125,1,2
32,136,335297,1,4
72,64,335468,6,0,B|120:128|192:128|240:64,1,200,2|2
320,48,335982,2,0,B|392:32|464:80|464:152,1,200,4|8
368,136,336497,2,0,B|296:120|224:168|224:240,2,200,2|2|2
320,224,337354,2,0,B|320:352|176:336,1,200,4|8
136,272,337868,2,0,B|6:286|6:158,1,200,2|2
96,184,338382,1,4
96,184,338554,1,2
416,184,339068,5,8
456,112,339239,1,2
408,48,339411,1,4
328,48,339582,1,2
256,192,339925,2,2,B|272:272|224:328|136:320,2,200
168,232,340782,2,0,B|144:184|96:168|40:184,2,150,4|2|2
88,256,341468,2,0,B|0:312|56:408|168:344,1,200,4|8
216,360,341982,1,2
256,16,342668,5,4
208,256,343011,5,2
304,256,343182,1,4
256,176,343354,1,2
256,176,343525,1,4
208,96,343697,1,2
304,96,343868,1,4
256,16,344039,1,4
256,16,344211,1,4
96,48,344554,5,8
48,112,344725,1,2
96,176,344897,1,4
48,240,345068,2,0,B|64:360|192:360,1,200,2|2
168,280,345582,2,0,B|256:200|352:280,1,200,4|8
328,360,346097,1,2
408,336,346268,1,4
432,256,346439,2,0,B|488:160|408:64,1,200,2|2
356,172,346954,6,0,B|156:172,1,200,4|8
80,256,347468,2,0,B|24:160|104:64,1,200,2|2
256,48,348154,1,2
256,48,348325,2,0,B|200:152|328:152|248:240,1,200,4|8
184,272,348840,2,0,B|208:352|304:352|328:272,1,200,2|2
256,232,349354,1,4
256,232,349525,1,2
160,8,350039,5,8
216,64,350211,1,2
296,64,350382,1,4
352,8,350554,2,0,B|472:32|448:160,3,200,2|2|2|2
368,136,351754,2,0,B|344:216|240:216,2,150,4|2|2
296,104,352439,2,0,B|320:56|280:8|232:8|192:56|216:104,1,200,4|8
256,176,352954,1,2
48,352,353639,5,2
120,312,353811,1,4
48,272,353982,1,2
120,232,354154,1,8
48,192,354325,2,0,B|56:64|192:88,1,200,2|2
256,48,354839,1,4
328,88,355011,1,2
400,48,355182,2,0,B|480:128|488:232|448:336|304:344,1,400,4|4
304,264,356039,2,0,B|376:232|376:136|296:104,1,200,8|2
264,184,356554,2,0,B|192:152|192:56|272:24,1,200,4|4
112,80,357239,5,4
64,144,357411,1,2
64,224,357582,1,8
112,288,357754,1,2
112,288,357925,2,0,B|208:344|304:288,1,200,4|4
368,336,358439,1,2
408,264,358611,2,0,B|304:200|368:88,1,200,4|8
320,24,359125,2,0,B|256:168|256:-72|176:32,2,200,2|2|2
80,160,360325,5,4
64,240,360497,1,2
64,240,360668,1,4
120,296,360839,1,2
200,296,361011,1,8
256,240,361182,1,2
256,80,361525,1,2
328,48,361697,1,8
400,16,361868,2,0,B|488:80|456:200,1,200,2|2
392,248,362382,1,8
320,288,362554,2,0,B|224:352|128:280,1,200,2|2
136,200,363068,1,4
136,120,363239,1,2
72,160,363411,1,4
256,192,363582,12,4,364611
256,192,364954,5,0
256,192,365297,1,0
256,192,365468,1,0
464,344,366154,5,4
384,344,366325,2,0,B|296:344|296:224|384:224,1,200,2|8
464,224,366839,2,0,B|552:224|552:104|464:104,1,200,4|8
384,104,367354,2,0,B|376:24|248:24|240:112,1,200,2|2
312,128,367868,1,8
312,208,368039,1,2
256,360,368382,1,4
256,280,368554,1,8
48,344,368897,5,4
128,344,369068,2,0,B|216:344|216:224|128:224,1,200,2|8
48,224,369582,2,0,B|-40:224|-40:104|48:104,1,200,4|8
128,104,370097,2,0,B|136:24|264:24|272:112,1,200,2|2
200,128,370611,1,8
200,208,370782,1,2
256,360,371125,1,2
256,280,371297,1,8
256,200,371468,1,2
304,128,371639,6,0,B|344:72|440:72|480:128,1,200,4|8
392,176,372154,2,0,B|480:192|480:320|352:320,1,200,2|2
336,256,372668,1,8
256,280,372839,1,0
176,256,373011,2,0,B|104:256|72:144|160:112,1,200,4|8
184,184,373525,2,0,B|256:88|256:336|360:152,1,200,2|2
376,120,374039,1,8
416,192,374211,1,2
416,272,374382,1,4
256,352,374725,1,8
256,352,374897,1,4
96,272,375239,1,2
256,32,375582,5,4
256,192,375925,1,4
256,352,376268,1,4
256,192,376611,1,4
48,40,377125,5,0
128,40,377297,2,0,B|216:40|216:160|128:160,1,200,2|8
48,160,377811,2,0,B|-40:160|-40:280|48:280,1,200,4|8
128,280,378325,2,0,B|136:360|264:360|272:272,1,200,2|2
200,256,378840,1,8
200,176,379011,1,0
256,24,379354,1,4
256,104,379525,1,8
464,40,379868,5,4
384,40,380040,2,0,B|296:40|296:160|384:160,1,200,2|8
464,160,380554,2,0,B|552:160|552:280|464:280,1,200,4|8
384,280,381068,2,0,B|376:360|248:360|240:272,1,200,2|2
312,256,381582,1,8
312,176,381754,1,2
256,24,382097,1,2
256,104,382268,1,8
256,184,382439,1,2
208,256,382611,2,0,B|168:312|72:312|32:256,1,200,4|8
120,208,383125,2,0,B|32:192|32:64|160:64,1,200,2|2
176,128,383639,5,8
256,104,383811,1,2
336,128,383982,2,0,B|408:128|440:240|352:272,1,200,4|8
328,200,384497,2,0,B|256:296|256:48|152:232,1,200,2|0
136,264,385011,1,8
96,192,385182,1,2
96,112,385354,1,4
256,32,385697,1,4
416,112,386039,1,4
256,32,386382,5,8
256,112,386554,1,2
256,192,386725,2,0,B|344:264|448:192,1,200,4|8
352,144,387239,1,2
64,200,387754,5,8
32,272,387925,1,2
104,312,388097,2,0,B|200:240|296:312,1,200,4|0
328,240,388611,2,0,B|456:256|472:120,1,200,4|0
368,144,389125,1,8
368,64,389297,1,2
296,104,389468,2,0,B|200:32|104:104,1,200,4|0
56,160,389982,2,0,B|40:288|168:288,1,200,4|0
152,184,390497,5,8
232,208,390668,1,2
248,288,390839,2,0,B|336:384|432:280,1,200,4|0
336,240,391354,2,0,B|352:120|480:136,1,200,4|0
256,32,392211,5,4
136,144,392554,1,2
136,304,392897,1,0
136,304,393068,1,2
256,168,393411,1,4
376,304,393754,5,4
376,304,393925,1,4
256,16,394439,5,4
256,16,394611,1,4
184,248,395125,5,4
216,176,395297,1,4
296,176,395468,1,4
328,248,395639,1,4
336,40,407297,6,0,B|245:-7|88:8|-4:116|32:200|32:200,1,400,4|4
32,272,408154,2,0,B|96:368|216:344,1,200,8|0
160,248,408668,2,0,B|256:200|360:248,1,200,4|4
432,104,409354,5,4
368,56,409525,1,2
304,104,409697,1,8
368,152,409868,1,2
368,232,410039,2,0,B|280:304|184:232,1,200,4|4
168,152,410554,1,2
104,200,410725,2,0,B|0:280|104:376,1,200,4|8
160,288,411239,1,4
256,352,411582,1,4
352,288,411925,1,4
416,48,412439,5,4
416,128,412611,1,2
344,88,412782,1,4
344,168,412954,1,2
272,128,413125,1,8
272,208,413297,2,0,B|168:208|152:128|184:72,1,200,4|0
104,72,413811,1,0
32,112,413982,2,0,B|-24:224|88:288,1,200,4|0
152,320,414497,1,0
232,320,414668,2,0,B|312:248|432:264,1,200,4|0
464,192,415182,1,0
440,120,415354,1,0
384,176,415525,1,0
256,192,415697,12,0,416554
256,336,416725,5,4
256,336,417068,1,4
256,176,417411,1,4
256,176,417582,1,4
48,344,418268,5,4
128,344,418440,2,0,B|216:264|216:368|328:312,1,200,2|8
400,240,418954,2,0,B|301:190|301:294|213:214,1,200,4|8
160,152,419468,2,0,B|88:112|152:0|224:40,1,200,2|2
256,128,419982,1,8
256,128,420154,1,2
256,288,420497,1,4
256,288,420668,1,8
464,344,421011,5,4
384,344,421183,2,0,B|296:264|296:368|184:312,1,200,2|8
112,240,421697,2,0,B|210:190|210:294|298:214,1,200,4|8
352,152,422211,2,0,B|424:112|360:0|288:40,1,200,2|2
256,128,422725,1,8
256,128,422897,1,2
256,288,423240,1,2
256,288,423411,1,8
176,288,423582,1,2
176,208,423754,6,0,B|136:152|40:152|0:208,1,200,4|8
88,272,424268,2,0,B|102:360|230:362|232:234,1,200,2|2
160,232,424782,1,8
160,232,424954,1,2
240,192,425125,2,0,B|312:192|344:80|256:48,1,200,4|8
216,120,425639,2,0,B|144:24|144:272|40:88,1,200,2|2
40,200,426154,1,8
40,280,426325,1,2
112,312,426497,1,4
256,352,426839,1,8
256,352,427011,1,2
416,272,427354,1,2
256,32,427697,5,4
256,192,428039,1,4
256,352,428382,1,4
256,192,428725,1,4
464,40,429239,5,4
384,40,429411,2,0,B|384:240,1,200,2|8
304,240,429925,2,0,B|392:240|392:360|304:360,1,200,4|8
250,300,430439,2,0,B|173:293|173:165|253:157,1,200,2|2
216,88,430954,1,8
296,88,431125,1,2
144,128,431468,1,4
144,128,431639,1,8
48,344,431982,5,4
128,344,432154,2,0,B|128:144,1,200,2|8
208,144,432668,2,0,B|120:144|120:24|208:24,1,200,4|8
262,84,433182,2,0,B|338:90|338:218|258:226,1,200,2|2
296,296,433697,1,8
216,296,433868,1,2
256,56,434382,5,8
256,136,434554,1,2
296,208,434725,2,0,B|336:264|432:264|472:208,1,200,4|8
392,168,435239,2,0,B|480:152|480:24|352:24,1,200,2|2
344,96,435754,1,8
264,96,435925,1,2
184,96,436097,2,0,B|112:96|80:208|168:240,1,200,4|8
184,312,436611,2,0,B|256:408|256:160|360:344,1,200,2|2
408,272,437125,1,8
408,192,437297,1,2
408,112,437468,5,4
256,32,437811,1,4
104,112,438154,1,4
256,32,438497,1,8
256,112,438668,1,0
256,192,438839,2,0,B|168:264|64:192,1,200,4|8
160,144,439354,1,4
448,200,439868,5,8
480,272,440039,1,0
408,312,440211,2,0,B|312:240|216:312,1,200,4|0
184,240,440725,2,0,B|56:256|40:120,1,200,4|0
144,144,441239,1,8
144,64,441411,1,2
216,104,441582,2,0,B|312:32|408:104,1,200,4|0
456,160,442097,2,0,B|472:288|344:288,1,200,4|0
360,184,442611,5,8
280,208,442782,1,2
264,288,442954,2,0,B|176:384|80:280,1,200,4|0
176,240,443468,2,0,B|160:120|32:136,1,200,4|0
256,32,444325,5,4
376,144,444668,1,2
376,304,445011,1,0
376,304,445182,1,2
256,168,445525,1,4
136,304,445868,1,4
136,304,446039,1,4
256,16,446554,5,4
256,16,446725,1,4
328,248,447239,1,4
296,176,447411,1,4
216,176,447582,1,4
184,248,447754,1,4
256,192,448097,12,0,449297
256,192,449639,12,4,451354
472,336,469527,5,0
472,256,469698,1,0
472,176,469870,1,0
400,216,470041,2,0,B|312:136|216:216,1,200,4|0
312,272,470555,2,0,B|224:352|128:272,1,200
72,216,471070,1,2
72,56,471412,2,0,B|160:136|256:56,1,200,0|2
336,56,471927,1,2
256,200,472270,5,2
328,240,472441,1,0
256,280,472612,1,2
184,240,472784,2,0,B|72:280|24:160,1,200,2|0
128,160,473298,2,0,B|136:40|264:40,1,200,2|0
216,128,473812,2,0,B|312:176|408:128,2,200,2|0|2
216,128,474670,1,2
448,280,475012,5,0
384,328,475184,1,2
304,328,475355,1,0
256,264,475527,1,2
208,328,475698,1,0
128,328,475870,1,2
64,280,476041,1,2
256,176,476384,1,2
64,104,476727,2,2,B|128:16|256:40,1,200
241,37,477241,1,2
456,280,477927,5,0
376,280,478098,1,0
328,344,478270,2,0,B|240:344|208:256,2,150,2|0|2
168,168,479298,1,2
96,128,479470,1,0
96,48,479641,1,0
344,168,479984,1,2
416,128,480155,1,0
416,48,480327,1,0
256,272,480670,5,0
256,272,480841,1,0
184,312,481012,2,0,B|72:304|40:192,1,200,0|8
152,200,481527,2,0,B|256:200|312:96,1,200
200,97,482041,2,0,B|256:200|360:200,1,200,8|0
216,272,482727,1,8
296,272,482898,1,0
392,144,483241,5,2
336,88,483412,1,8
256,72,483584,1,0
176,96,483755,2,0,B|80:152|64:256,1,200,2|8
145,252,484270,2,0,B|129:150|33:94,1,200,2|0
104,32,484784,1,8
256,80,485127,2,0,B|352:40|456:80,1,200,2|8
448,160,485641,1,0
480,320,485984,5,0
424,256,486155,1,8
368,320,486327,1,2
320,256,486498,1,2
272,320,486670,1,0
224,256,486841,1,10
176,320,487012,2,0,B|48:312|64:168,3,200,2|0|2|0
160,224,488212,1,10
376,56,488898,5,10
296,32,489070,1,0
216,32,489241,1,2
136,56,489412,1,0
160,136,489584,2,2,B|256:192|352:136,1,200,10|2
256,360,490441,5,2
176,336,490612,1,0
128,272,490784,1,2
128,192,490955,1,0
176,128,491127,2,2,B|208:56|304:56,1,150
296,56,491470,1,2
448,240,491984,6,0,B|424:360|304:352,1,200,4|8
256,288,492498,1,0
204,352,492670,2,0,B|88:360|64:240,1,200,4|8
128,192,493184,1,0
64,144,493355,2,0,B|88:24|208:32,1,200,4|8
256,96,493870,1,0
256,176,494041,1,0
256,256,494212,1,0
328,216,494384,1,8
256,176,494555,1,0
184,216,494727,5,0
352,216,495070,1,8
160,216,495412,1,0
384,240,495755,1,8
128,240,496098,1,0
384,280,496441,1,8
128,280,496784,1,0
256,376,497127,1,8
256,216,497470,5,0
200,160,497641,1,0
256,216,497812,1,8
312,160,497984,1,0
256,104,498155,2,0,B|328:24|448:56,1,200,0|8
440,136,498670,1,0
440,216,498841,2,0,B|448:336|320:360,1,200,0|8
256,320,499355,1,0
184,360,499527,1,0
256,320,499698,1,0
256,240,499870,1,8
184,240,500041,6,0,B|152:184|200:128|256:136|320:128|368:184|320:248,1,300,4|4
184,328,500898,1,4
256,288,501070,1,0
328,328,501241,1,8
256,288,501412,2,0,B|208:176|296:232|256:96,1,200
176,112,501927,2,0,B|152:56|200:0|256:8|320:0|368:56|328:120,1,300,8|0
332,112,502613,1,4
256,272,502955,6,0,B|176:344|64:312,1,200,4|8
32,240,503470,1,4
32,160,503641,2,0,B|32:40|168:24,1,200,0|8
128,128,504155,1,4
112,208,504327,2,0,B|200:280|304:224,1,200,0|8
344,296,504841,1,0
384,224,505012,1,0
432,288,505184,1,0
384,224,505355,1,0
344,296,505527,1,0
256,288,505698,5,0
256,96,506041,1,8
256,304,506384,1,0
256,80,506727,1,8
256,320,507070,1,0
256,64,507412,1,8
160,192,507755,5,0
112,128,507927,1,0
80,200,508098,1,8
128,264,508270,1,0
208,256,508441,2,0,B|184:352|328:352|304:256,1,200,4|8
256,200,508955,2,0,B|352:136|464:208,1,200,4|0
464,120,509470,1,8
424,48,509641,1,0
352,80,509812,2,0,B|256:24|160:80,2,200,4|8|4
80,160,510841,6,0,B|-8:256|88:344,1,200,8|4
160,320,511355,1,0
192,248,511527,1,0
168,176,511698,2,0,B|216:64|352:104,1,200,4|0
272,184,512212,2,0,B|368:248|464:184,2,200,0|4|0
256,344,513241,1,0
176,344,513412,1,0
120,288,513584,1,0
120,208,513755,2,0,B|8:184|32:32,1,200,4|0
256,192,514270,12,4,515984
160,72,516670,6,4,B|256:24|352:72,2,200,4|12|4
304,144,517698,1,8
376,184,517870,1,0
448,224,518041,1,0
208,144,518384,1,8
136,184,518555,1,0
64,224,518727,1,0
256,352,519070,5,8
256,352,519241,1,0
184,328,519412,1,0
328,328,519755,1,8
152,296,520098,1,0
360,296,520441,1,8
152,232,520784,2,0,B|96:144|96:72|176:-16|208:80|256:-104|304:80|336:-16|408:80|408:144|360:232,1,600,0|8
256,112,522155,6,0,B|304:224|208:296,1,200,4|8
144,336,522670,1,4
80,288,522841,2,0,B|-9:221|38:109,1,200,0|8
112,208,523355,1,0
192,208,523527,2,4,B|184:144|184:144|224:80|80:80|120:152,1,200,4|12
112,208,524041,1,0
112,288,524212,1,4
256,352,524555,5,8
320,304,524727,1,0
256,352,524898,1,0
192,304,525070,1,0
256,256,525241,1,8
256,176,525412,1,0
176,152,525584,2,0,B|208:88|304:88|344:152,1,200,0|8
376,224,526098,2,0,B|392:344|256:416|128:344|144:224,1,400
144,224,526870,1,0
144,224,526955,1,0
424,64,527641,5,4
256,40,527984,1,8
88,64,528327,1,4
176,192,528670,1,8
96,168,528841,1,0
112,248,529012,1,4
336,192,529355,1,8
416,168,529527,1,0
400,248,529698,1,4
328,104,530041,5,8
256,64,530212,1,0
184,104,530384,1,4
352,184,530727,1,8
160,184,531070,1,0
352,264,531412,1,8
160,264,531755,1,4
256,192,531841,12,0,532784
256,320,533127,5,0
200,264,533298,1,0
160,336,533470,1,8
200,264,533641,1,0
256,208,533812,1,0
312,264,533984,1,0
256,320,534155,1,8
352,336,534327,1,8
400,272,534498,6,0,B|504:216|456:96,1,200,4|8
392,56,535012,1,4
312,64,535184,2,0,B|216:128|120:56,1,200,0|8
56,104,535698,1,4
56,184,535870,2,0,B|40:304|168:352,1,200,0|8
192,280,536384,1,4
240,216,536555,2,0,B|336:168|432:216,1,200,0|8
408,296,537070,1,0
344,344,537241,1,4
256,208,537584,5,8
184,176,537755,1,0
256,208,537927,1,4
328,240,538098,1,0
256,208,538270,1,8
256,288,538441,1,0
256,208,538612,1,4
256,192,544098,12,0,546498
256,192,546841,12,0,549241
256,192,549584,12,0,551984
256,192,552327,12,0,554384
408,80,554555,5,0
448,152,554727,1,0
432,232,554898,1,0
376,288,555070,2,0,B|288:360|176:320,1,200,4|8
272,248,555584,2,0,B|168:200|72:272,1,200
32,200,556098,2,0,B|64:96|184:72,1,200,8|0
336,72,556784,1,0
176,72,557127,5,0
96,96,557298,1,0
48,160,557470,1,8
48,240,557641,1,0
96,304,557812,2,0,B|184:392|272:304,1,200,4|8
184,248,558327,2,0,B|272:160|376:256,1,200
360,328,558841,1,8
472,216,559184,6,0,B|504:96|384:48,1,200,4|8
328,96,559698,1,0
256,64,559870,1,0
184,96,560041,1,0
256,144,560212,1,8
328,184,560384,1,0
256,224,560555,2,0,B|144:224|80:312,1,200,4|0
24,240,561070,2,0,B|24:32,1,200
152,136,561755,1,0
216,280,562098,1,0
296,280,562270,1,8
408,168,562612,5,4
376,96,562784,1,0
328,32,562955,1,8
256,64,563127,1,0
184,32,563298,1,0
136,96,563470,1,0
104,168,563641,1,8
104,168,563812,6,0,B|256:408|412:160,1,400
336,128,564670,1,2
256,152,564841,1,0
176,136,565012,1,2
256,152,565184,2,0,B|200:240|320:240|248:344,1,200
252,337,565612,1,0
64,264,566041,5,4
32,104,566384,1,8
104,64,566555,1,0
104,144,566727,1,4
480,104,567070,1,8
408,64,567241,1,0
408,144,567412,1,4
296,256,567755,5,8
216,256,567927,1,0
256,328,568098,1,0
336,328,568270,1,0
296,256,568441,1,8
216,256,568612,1,0
376,256,568784,5,4
136,256,569127,1,8
408,208,569470,1,0
104,208,569812,1,8
376,160,570155,1,0
136,160,570498,5,8
216,160,570670,1,0
256,88,570841,1,0
296,160,571012,1,0
376,160,571184,1,8
336,232,571355,1,8
256,256,571527,5,4
112,336,571870,1,8
112,336,572041,1,0
112,336,572212,1,4
400,336,572555,1,8
400,336,572727,1,0
400,336,572898,1,4
256,272,573241,5,8
184,232,573412,1,0
112,192,573584,1,0
184,152,573755,1,0
256,128,573927,1,8
256,56,574098,2,0,B|384:56|352:128|352:128|384:200|256:200,1,300,4|8
128,104,574955,1,4
48,128,575127,1,0
48,208,575298,1,8
48,288,575470,2,0,B|192:360|344:288,1,300,0|8
192,224,576327,1,0
120,80,576670,1,12
256,112,577012,6,0,B|336:40|448:72,1,200,4|8
480,144,577527,1,4
480,224,577698,2,0,B|480:344|344:360,1,200,4|8
384,256,578213,1,4
400,176,578384,2,0,B|312:104|208:160,1,200,0|8
168,88,578898,1,0
128,160,579070,1,4
80,96,579241,1,0
128,160,579413,1,8
168,88,579584,1,0
256,96,579755,5,4
256,288,580098,1,8
256,80,580441,1,0
256,304,580784,1,8
256,64,581127,1,0
256,320,581470,1,8
352,192,581813,5,4
400,256,581984,1,0
432,184,582155,1,8
384,120,582327,1,0
304,128,582498,2,0,B|328:32|184:32|208:128,1,200,4|8
256,184,583013,2,0,B|160:248|48:176,1,200
48,264,583527,1,8
88,336,583698,1,0
160,304,583870,2,4,B|256:360|352:304,2,200
432,224,584898,6,0,B|520:128|424:40,1,200,8|0
352,64,585413,1,0
320,136,585584,1,8
344,208,585755,2,0,B|296:320|160:280,1,200,4|0
240,200,586270,2,0,B|144:136|48:200,2,200,4|0|4
256,40,587298,5,0
336,40,587470,1,0
392,96,587641,1,8
392,176,587813,2,0,B|504:200|480:352,1,200,0|4
256,192,588327,12,0,590041
88,304,590727,6,0,B|-8:232|40:120,2,200,4|8|4
184,176,591755,1,8
112,208,591927,1,0
176,256,592098,6,0,B|256:360|344:256,1,200,0|8
400,208,592613,1,4
328,176,592784,2,0,B|304:96|208:96|184:184,1,200,0|8
256,216,593298,5,0
256,216,593470,1,4
112,136,593813,1,8
256,32,594155,1,4
400,136,594498,1,8
336,280,594841,5,4
176,280,595184,1,8
368,280,595527,1,0
144,280,595870,1,8
256,64,596213,6,0,B|152:0|64:96,1,200,4|8
120,152,596727,1,4
200,176,596898,2,0,B|193:268|320:264|316:174,1,200,0|8
384,128,597413,1,4
314,104,597584,2,0,B|319:12|192:16|198:103,1,200,0|8
128,128,598098,1,0
128,128,598270,1,4
72,280,598613,5,8
144,256,598784,1,0
208,304,598955,1,4
256,240,599127,1,0
304,304,599298,1,8
368,256,599470,1,0
440,280,599641,1,4
368,136,599984,5,0
368,136,600155,2,0,B|368:32|256:-16|256:-16|144:32|144:144,1,400
144,136,600927,1,0
144,136,601013,1,4
168,336,601698,6,0,B|256:248|352:344,2,200,4|8|4
80,200,602727,5,8
80,120,602898,1,0
156,160,603070,2,0,B|356:160,1,200,4|8
432,120,603584,1,4
432,200,603755,2,0,B|416:304|296:336,1,200,0|8
256,264,604270,1,4
211,334,604441,6,0,B|96:304|80:200,1,200,0|8
368,168,605127,1,4
144,168,605470,1,8
336,80,605813,1,4
176,80,606155,1,12
256,224,606498,1,4
256,224,606841,1,8
120,304,607184,5,4
176,360,607355,1,0
208,288,607527,2,0,B|264:256|312:296,1,100,8|0
256,352,607870,1,0
336,360,608041,1,0
384,296,608213,1,8
256,40,608555,5,4
96,192,608898,1,8
96,192,609070,1,0
96,192,609241,1,4
416,192,609584,5,8
416,192,609755,1,0
416,192,609927,1,4
256,320,610270,5,8
256,320,610441,1,0
256,320,610613,1,4
256,160,610955,5,8
256,160,611127,1,0
176,136,611298,1,4
336,136,611641,1,4
152,192,611984,1,4
360,192,612327,1,4
256,312,612670,1,4
440,56,618155,5,2
440,136,618327,1,0
408,208,618498,1,0
336,248,618670,1,2
336,88,619013,6,0,B|296:40|240:64,1,100,2|0
272,136,619355,2,2,B|232:184|176:160,1,100
160,88,619698,1,2
80,88,619870,1,0
40,160,620041,1,0
112,224,620213,2,0,B|200:304|304:232,1,200,2|2
424,336,620898,6,0,B|496:328|480:256,1,100,2|0
400,264,621241,1,2
320,272,621413,2,0,B|290:205|361:183,1,100,2|0
440,192,621755,1,2
440,112,621927,2,0,B|424:56|368:56,1,100,2|0
360,136,622270,1,2
280,136,622441,2,0,B|223:136|207:192,1,100,2|0
216,272,622784,1,0
296,272,622955,1,2
256,120,623298,1,2
88,336,623641,6,0,B|16:328|32:256,1,100,2|0
112,264,623984,1,2
192,272,624155,2,0,B|221:205|150:183,1,100,2|0
72,192,624498,1,2
72,112,624670,2,0,B|88:56|144:56,1,100,2|0
152,136,625013,1,2
232,136,625184,2,0,B|288:136|304:192,1,100,2|0
296,272,625527,1,0
216,272,625698,1,2
360,160,626041,5,2
360,160,626213,1,0
360,160,626384,1,2
256,16,626727,1,2
152,160,627070,1,2
152,160,627241,1,0
152,160,627413,1,2
256,304,627755,5,2
256,112,628098,1,2
256,112,628270,1,2
256,112,628441,1,0
256,304,628784,1,2
256,304,628955,1,2
256,304,629127,1,4
256,192,629298,12,0,630498
424,80,642841,6,0,B|520:152|472:264,2,200,4|2|4
328,208,643870,1,2
400,176,644041,1,0
336,128,644213,2,0,B|256:24|168:128,1,200,6|0
112,176,644727,1,2
184,208,644898,2,0,B|208:288|304:288|328:200,1,200,4|0
256,168,645413,5,2
256,168,645584,1,4
400,248,645927,1,2
256,352,646270,1,6
112,248,646613,1,2
176,104,646955,5,6
336,104,647298,1,0
144,104,647641,1,6
368,104,647984,1,0
256,320,648327,6,0,B|360:384|448:288,1,200,6|0
392,232,648841,1,2
312,208,649013,2,0,B|319:116|192:120|196:210,1,200,4|2
128,256,649527,1,2
198,280,649698,2,0,B|193:372|320:368|314:281,1,200,4|2
384,256,650213,1,0
384,256,650384,1,6
440,104,650727,5,2
368,128,650898,1,0
304,80,651070,1,6
256,144,651241,1,0
208,80,651413,1,2
144,128,651584,1,0
72,104,651755,1,6
144,248,652098,5,0
144,248,652270,2,0,B|176:320|256:128|256:128|336:320|368:248,1,400,2|2
368,248,653041,1,0
368,248,653127,1,6
344,48,653813,6,0,B|256:136|160:40,2,200,4|0|4
432,184,654841,1,2
432,264,655013,1,0
356,224,655184,2,0,B|156:224,1,200,4|0
80,264,655698,1,0
80,184,655870,2,0,B|96:80|216:48,1,200,4|0
256,120,656384,1,2
301,50,656555,6,0,B|416:80|432:184,1,200,4|2
144,216,657241,1,6
368,216,657584,1,2
176,304,657927,1,4
336,304,658270,1,4
256,160,658613,1,4
256,160,658955,1,0
392,80,659298,5,2
336,24,659470,1,0
304,96,659641,2,0,B|248:128|200:88,1,100,2|0
256,32,659984,1,2
176,24,660155,1,2
128,88,660327,1,0
256,344,660670,5,4
416,192,661013,1,2
416,192,661184,1,0
416,192,661355,1,4
256,192,661527,12,4,664098
256,192,664270,5,0
352,312,664784,6,0,B|256:360|160:312,2,200,4|8|4
208,240,665813,1,8
136,200,665984,1,0
64,160,666155,1,0
304,240,666498,1,8
376,200,666670,1,0
448,160,666841,1,0
256,32,667184,5,8
256,32,667355,1,0
328,56,667527,1,4
184,56,667870,1,8
360,88,668213,1,0
152,88,668555,1,8
360,152,668898,2,0,B|416:240|416:312|336:400|304:304|256:488|208:304|176:400|104:304|104:240|152:152,1,600,4|8
256,272,670270,6,0,B|208:160|304:88,1,200,4|8
368,48,670784,1,4
432,96,670955,2,0,B|521:163|474:275,1,200,0|8
400,176,671470,1,4
320,176,671641,2,0,B|328:240|328:240|288:304|432:304|392:232,1,200,0|8
400,176,672155,1,0
400,96,672327,1,4
256,32,672670,5,8
192,80,672841,1,0
256,32,673013,1,0
320,80,673184,1,0
256,128,673355,1,8
256,208,673527,1,0
336,232,673698,2,0,B|304:296|208:296|168:232,1,200,0|8
136,160,674213,2,0,B|120:40|256:-32|384:40|368:160,1,400
368,160,674984,1,0
368,160,675070,1,4
88,320,675755,5,4
256,344,676098,1,8
424,320,676441,1,4
336,192,676784,1,8
416,216,676955,1,0
400,136,677127,1,4
176,192,677470,1,8
96,216,677641,1,0
112,136,677813,1,4
184,280,678155,5,12
256,320,678327,1,0
328,280,678498,1,0
160,200,678841,1,8
352,200,679184,1,0
160,120,679527,1,8
352,120,679870,1,4
256,192,679955,12,0,680898
256,64,681241,5,4
312,120,681413,1,0
352,48,681584,1,8
312,120,681755,1,0
256,176,681927,1,4
200,120,682098,1,0
256,64,682270,1,8
160,48,682441,1,0
112,112,682613,6,0,B|8:168|56:288,1,200,4|8
120,328,683127,1,4
200,320,683298,2,0,B|296:256|392:328,1,200,0|8
456,280,683813,1,4
456,200,683984,2,0,B|472:80|344:32,1,200,0|8
320,104,684498,1,4
272,168,684670,2,0,B|176:216|80:168,1,200,0|8
104,88,685184,1,0
168,40,685355,1,4
256,176,685698,5,8
328,208,685870,1,0
256,176,686041,1,4
184,144,686213,1,0
256,176,686384,1,0
256,96,686555,1,0
256,176,686727,1,4
256,192,687070,12,0,688441
256,192,688613,12,0,692213
256,24,692555,5,0
256,368,693584,1,4
256,192,694955,1,0
256,192,696327,1,0
256,192,697698,1,4
120,352,719641,6,2,B|176:288|272:312,1,150,2|0
392,352,720155,2,0,B|336:288|240:312,1,150,0|2
328,216,720670,1,8
256,176,720841,1,2
184,216,721013,6,2,B|112:184|112:88,1,150,2|0
328,216,721527,2,0,B|400:184|400:88,1,150,0|2
256,72,722041,1,8
256,72,722213,1,2
200,128,722384,6,2,B|136:200|208:264,1,150,2|2
312,128,722898,2,2,B|376:200|304:264,1,150,2|2
256,368,723413,1,8
256,368,723584,1,2
192,320,723755,2,0,B|104:272|176:184,1,150
345,195,724270,2,2,B|408:272|320:320,1,150,2|0
256,224,724784,1,8
256,224,724955,1,2
192,176,725127,6,2,B|72:80,1,150,2|0
320,176,725641,2,0,B|440:80,1,150,0|2
256,72,726155,1,8
256,72,726327,1,2
192,144,726498,2,2,B|256:216|328:136,1,150,2|0
192,288,727013,2,0,B|256:216|328:296,1,150,0|2
256,376,727527,5,8
256,376,727698,1,2
336,336,727870,1,2
336,336,727955,1,0
336,336,728041,1,0
256,296,728213,1,10
256,296,728298,1,0
256,296,728384,1,0
176,336,728555,1,0
176,336,728641,1,0
176,336,728727,1,0
256,296,728898,1,10
256,296,728984,1,0
256,296,729070,1,0
184,256,729241,6,0,B|128:240|128:168,1,100
328,256,729584,2,0,B|384:240|384:168,1,100,8|0
64,352,730613,6,0,B|120:256|176:368|216:232,1,200,0|8
299,243,731127,1,0
299,243,731213,2,0,B|451:195|507:347,1,250,0|0
368,352,731984,1,0
144,352,732327,5,8
192,288,732498,1,0
256,336,732670,1,2
320,288,732841,1,2
368,352,733013,1,0
320,288,733184,1,2
256,336,733355,2,0,B|192:240|328:240|240:128,1,200,0|8
256,72,733870,1,0
256,72,733955,1,0
344,256,734384,5,0
168,256,734727,1,0
392,296,735070,1,8
120,296,735413,1,0
344,152,735755,2,0,B|256:72|160:152,2,200,4|0|8
256,200,736613,1,0
256,200,736698,1,0
440,112,737127,6,0,B|488:208|440:312,2,200,0|0|8
368,80,737984,1,2
320,144,738155,1,0
256,96,738327,1,2
192,144,738498,1,0
144,80,738670,1,2
72,112,738841,2,2,B|24:192|80:256,2,150,0|2|2
256,192,739441,12,4,741241
368,48,741584,6,0,B|472:96|456:216,1,200,0|8
368,152,742098,1,0
368,152,742184,2,0,B|280:112|200:256|312:304,1,250
456,256,742955,1,0
56,256,743298,5,8
56,176,743470,1,2
104,112,743641,1,0
176,72,743813,1,2
256,56,743984,1,2
256,56,744155,1,0
256,56,744327,2,0,B|360:56|432:136,1,200,0|8
432,216,744841,1,0
432,216,744927,2,0,B|384:336|224:336,1,250
160,192,745698,5,0
352,192,746041,1,8
296,40,746384,1,0
216,40,746555,1,0
256,112,746727,1,4
256,192,746898,1,0
256,272,747070,2,0,B|328:352|456:336,1,200,0|8
480,272,747584,1,0
480,272,747670,2,0,B|528:184|464:88|368:104,1,250
256,208,748441,1,0
256,48,748784,5,8
176,64,748955,1,2
112,120,749127,1,0
80,192,749298,1,2
112,264,749470,1,0
176,312,749641,1,2
256,312,749813,2,0,B|336:360|392:280,2,150
256,192,750498,12,4,752213
344,336,752555,5,0
168,336,752898,1,8
384,288,753241,1,0
128,288,753584,1,0
128,288,753755,1,0
256,88,754270,5,8
200,144,754441,1,2
216,224,754613,1,0
296,224,754784,1,0
312,144,754955,1,2
296,224,755127,1,2
256,296,755298,6,0,B|144:336|48:296|-16:168|104:56,1,400
216,168,756327,1,8
296,168,756498,2,0,B|280:248|336:272|400:240|376:168,1,200
336,104,757013,1,0
104,320,757698,5,0
56,256,757870,1,2
56,176,758041,2,0,B|32:120|88:80,1,100
128,152,758384,1,8
208,152,758555,1,0
208,152,758641,1,0
408,320,758898,5,0
456,256,759070,1,0
456,176,759241,2,0,B|480:120|424:80,1,100,2|2
384,152,759584,1,0
304,152,759755,1,8
304,152,759927,1,2
304,152,760013,1,0
168,304,760441,6,0,B|256:384|360:304,2,200,0|2|8
256,256,761298,1,2
256,192,761384,12,0,762155
256,40,762498,5,4
296,192,762841,1,4
216,192,763013,1,4
120,320,763355,6,0,B|208:384|320:336,1,200,4|0
384,304,763870,1,8
440,248,764041,1,0
440,248,764127,1,0
328,248,764384,1,2
440,136,764727,6,0,B|352:72|240:120,1,200,4|0
176,152,765241,1,8
120,208,765413,1,0
120,208,765498,1,0
232,208,765755,1,2
104,120,766098,5,4
256,64,766441,1,0
256,64,766613,1,8
256,64,766784,1,2
408,120,767127,1,2
408,120,767298,1,8
408,120,767470,1,4
160,216,767813,1,4
352,216,768155,1,4
256,64,768498,5,2
256,144,768670,1,8
256,224,768841,1,0
256,304,769013,2,0,B|360:352|456:304,1,200,4|8
448,224,769527,1,2
216,24,770213,5,2
296,24,770384,1,4
160,104,770727,1,8
352,104,771070,1,4
168,208,771413,1,8
344,208,771755,2,0,B|384:296|384:296|328:384|192:384|120:296|120:296|168:208,1,500,4|2
256,216,772784,1,8
256,136,772955,1,4
256,344,773470,5,4
296,192,773813,1,4
216,192,773984,1,4
120,64,774327,6,0,B|208:0|320:48,1,200,4|0
384,80,774841,1,8
440,136,775013,1,0
440,136,775098,1,0
328,136,775355,1,2
440,248,775698,6,0,B|352:312|240:264,1,200,4|0
176,232,776213,1,8
120,176,776384,1,0
120,176,776470,1,0
232,176,776727,1,2
104,264,777070,5,4
256,320,777413,1,0
256,320,777584,1,8
256,320,777755,1,2
408,272,778098,1,2
408,272,778270,1,8
408,272,778441,1,4
160,168,778784,1,4
352,168,779127,1,4
256,320,779470,5,2
256,240,779641,1,8
256,160,779813,1,2
256,80,779984,2,0,B|360:32|456:80,1,200,4|8
448,160,780498,1,4
176,352,781184,5,2
176,352,781355,1,4
336,352,781698,1,8
176,272,782041,1,4
336,272,782384,1,8
352,112,782727,2,0,B|256:56|160:112,1,200,4|8
256,176,783241,2,0,B|160:232|64:176,1,200
66,177,783755,1,8
256,320,784098,5,4
416,296,784441,1,8
416,136,784784,2,2,B|344:80|352:184|264:112,2,150
416,136,785470,1,0
256,192,785641,12,2,786498
256,192,786670,12,4,788213
256,48,810155,5,0
256,208,810498,1,8
256,288,810670,1,0
256,288,810755,1,0
368,328,811013,2,0,B|432:336|448:272,1,100,2|0
368,256,811355,2,0,B|376:192|448:192,1,100,2|0
480,128,811698,2,0,B|464:72|400:64,1,100,2|8
328,64,812041,5,0
256,104,812213,1,0
184,64,812384,1,0
256,104,812555,1,0
256,104,812727,1,2
296,176,812898,2,0,B|320:256|256:264|192:256|216:176,1,200,0|8
256,104,813413,1,2
256,104,813498,1,0
152,40,813755,6,0,B|96:56|88:120,1,100,2|0
16,168,814098,2,0,B|72:184|80:248,1,100,2|0
160,272,814441,2,0,B|104:288|96:352,1,100,2|8
192,344,814784,2,0,B|232:384|288:344,1,100,2|0
360,344,815127,2,0,B|408:376|464:344,1,100,2|0
408,280,815470,1,2
424,200,815641,6,0,B|512:104|392:24,1,200,0|8
368,128,816155,1,0
368,128,816241,1,0
256,80,816498,2,0,B|208:112|152:72,1,100,2|0
88,40,816841,2,0,B|40:80|56:136,1,100,2|0
88,200,817184,1,2
88,200,817355,1,8
88,280,817527,5,0
136,344,817698,1,2
184,280,817870,1,2
232,344,818041,1,0
280,280,818213,1,2
280,280,818384,2,0,B|336:344|424:328,2,150,0|2|2
256,192,819070,12,0,820784
384,320,821127,6,0,B|488:264|432:136,1,200,4|8
368,224,821641,1,0
368,224,821727,2,0,B|256:128|128:232,1,250,0|2
80,72,822498,1,0
152,40,822670,1,2
208,96,822841,1,8
256,32,823013,5,2
304,96,823184,1,0
360,40,823355,1,2
432,72,823527,1,2
376,128,823698,1,2
448,160,823870,2,0,B|496:272|400:344,1,200,0|8
360,240,824384,1,2
360,240,824470,2,0,B|256:344|136:240,1,250
344,168,825241,5,0
168,168,825584,1,8
376,216,825927,1,0
136,216,826270,1,2
256,72,826613,6,0,B|192:168|336:168|240:280,1,200,0|8
256,336,827127,1,0
256,336,827213,2,0,B|112:384|24:264,1,250,0|2
40,112,827984,2,0,B|152:64|224:144,1,200,0|8
256,216,828498,5,2
256,296,828670,1,0
328,336,828841,1,2
400,296,829013,1,0
400,216,829184,1,2
328,176,829355,2,0,B|320:96|416:64,2,150,0|2|2
256,192,830041,12,0,831755
256,56,832098,6,0,B|360:24|464:88,1,200,4|8
256,56,832784,2,0,B|152:24|48:88,1,200,0|0
120,152,833298,2,2,B|256:256|400:152,1,300,2|8
424,232,833984,1,0
368,288,834155,1,2
296,328,834327,1,2
216,328,834498,1,0
144,288,834670,1,2
88,232,834841,6,0,B|16:144|88:40,1,200,0|8
152,88,835355,1,0
216,136,835527,2,0,B|280:40|400:72,1,200,2|0
320,152,836041,2,2,B|432:192|400:320,1,200,2|0
336,352,836555,1,8
176,352,836898,1,0
256,216,837241,5,0
256,136,837413,1,2
256,56,837584,1,0
176,40,837755,1,2
96,56,837927,1,8
96,56,838098,1,2
96,56,838184,2,0,B|-32:136|40:288,1,250
88,328,838784,5,2
152,280,838955,1,0
216,328,839127,1,2
280,280,839298,1,8
344,328,839470,1,2
344,328,839555,2,2,B|496:312|488:152,1,250,0|2
344,72,840327,2,0,B|256:160|152:64,1,200,0|8
256,200,840841,1,2
256,192,841013,12,0,841698
168,256,842041,6,4,B|256:336|352:256,1,200
256,200,842555,1,4
96,192,842898,6,0,B|40:80|160:24,1,200,4|2
176,128,843413,1,8
248,88,843584,1,0
248,88,843670,2,0,B|328:40|408:112,1,150,0|2
472,232,844270,6,0,B|440:344|320:336,1,200,4|2
368,240,844784,1,8
288,224,844955,1,0
288,224,845041,2,0,B|200:208|152:280,1,150,0|2
40,160,845641,6,0,B|72:40|200:64,1,200,4|2
224,136,846155,1,8
224,216,846327,2,0,B|256:320|376:328,1,200,4|2
368,248,846841,1,8
440,288,847013,2,0,B|520:200|440:96,2,200,4|4|4
312,192,848041,5,2
200,192,848213,1,8
320,192,848384,1,0
192,192,848555,2,0,B|128:296|312:384|368:272,1,300,4|2
216,16,849755,5,2
296,16,849927,1,4
168,112,850270,1,8
344,112,850613,1,4
168,232,850955,1,8
344,232,851298,1,4
256,192,851384,12,0,852155
256,192,852327,5,8
256,192,852498,1,0
256,96,853013,5,4
112,32,853355,1,4
112,32,853527,1,4
96,192,853870,6,0,B|40:304|160:360,1,200,4|2
176,256,854384,1,8
248,296,854555,1,0
248,296,854641,2,0,B|328:344|408:272,1,150,0|0
472,152,855241,6,0,B|440:40|320:48,1,200,4|2
368,144,855755,1,8
288,160,855927,1,0
288,160,856013,2,0,B|200:176|152:104,1,150,0|2
40,224,856613,6,0,B|72:344|200:320,1,200,4|2
224,248,857127,1,8
224,168,857298,2,0,B|256:64|376:56,1,200,4|2
368,136,857813,1,8
440,96,857984,2,0,B|520:184|440:288,2,200,4|4|4
312,192,859013,5,2
200,192,859184,1,8
320,192,859355,1,0
192,192,859527,2,0,B|128:88|312:0|368:112,1,300,4|2
216,368,860727,5,2
296,368,860898,1,4
168,272,861241,1,8
344,272,861584,1,4
168,152,861927,1,8
344,152,862270,1,4
256,192,862355,12,4,863641
256,192,863984,12,2,867070
217,31,867584,5,0
216,32,867755,2,0,B|89:31|89:151,1,200,2|8
88,232,868270,2,0,B|88:352|216:352,1,200,2|2
296,352,868784,2,0,B|424:352|424:224,2,200,8|0|8
256,280,869641,2,0,B|184:200|328:200|232:96,1,200,2|0
304,56,870155,2,0,B|416:8|488:112,2,200,8|0|8
376,144,871013,5,2
376,144,871355,1,0
344,304,871698,2,2,B|256:224|160:304,2,200,2|2|2
296,152,872727,5,0
216,152,872898,1,8
312,152,873070,1,2
200,152,873241,1,0
256,304,873584,1,8
296,64,874098,5,0
216,64,874270,1,8
256,216,874613,2,0,B|256:328|120:352,1,200,2|8
32,224,875298,1,2
32,144,875470,1,2
96,96,875641,1,8
208,216,875984,1,2
208,216,876327,2,0,B|176:312|352:384|416:280,1,300,8|2
416,200,877013,1,8
256,192,877355,12,4,878041
295,353,878555,5,0
296,352,878727,2,0,B|422:352|422:232,1,200,0|8
424,152,879241,2,0,B|424:32|296:32,1,200,0|2
216,32,879755,2,0,B|88:32|88:160,2,200,0|0|8
256,104,880613,2,0,B|328:184|184:184|280:288,1,200,0|2
208,328,881127,2,0,B|96:376|24:272,2,200,0|0|8
136,240,881984,5,0
136,240,882327,1,2
168,80,882670,2,0,B|256:160|352:80,2,200,0|2|2
216,232,883698,5,2
296,232,883870,1,8
200,232,884041,1,2
312,232,884213,1,0
256,192,884384,12,4,885584
256,344,885927,5,8
328,200,886270,2,0,B|256:144|184:200,1,150,0|2
216,80,886784,1,2
296,80,886955,2,0,B|368:80|472:56|496:152|376:216|496:280|472:384|376:352|296:352,1,500
256,288,887984,1,2
256,288,888155,1,2
256,192,888327,12,4,889698
256,40,890041,5,0
296,192,890384,1,2
216,192,890555,1,2
216,352,890898,1,4
296,352,891070,1,4
256,112,891413,5,2
216,272,891755,1,2
296,272,891927,1,2
120,63,892270,6,0,B|208:0|309:43,1,200,4|2
384,80,892784,1,8
440,136,892955,1,0
440,136,893041,1,0
328,136,893298,1,2
439,248,893641,6,0,B|352:312|250:268,1,200,4|2
176,232,894155,1,8
120,176,894327,1,0
120,176,894413,1,0
232,176,894670,1,2
104,264,895013,5,4
256,320,895355,1,0
256,320,895527,1,8
256,320,895698,1,2
408,264,896041,1,2
408,264,896213,1,8
408,264,896384,1,4
160,168,896727,1,4
352,168,897070,1,4
256,320,897413,5,2
256,240,897584,1,8
256,160,897755,1,0
256,79,897927,2,0,B|360:32|449:76,1,200,4|8
448,160,898441,1,2
216,360,899127,5,2
296,360,899298,1,4
160,280,899641,1,8
352,280,899984,1,4
168,176,900327,1,8
344,175,900670,2,0,B|384:88|384:88|328:0|192:0|120:88|120:88|167:175,1,500,4|0
256,168,901698,1,8
256,248,901870,1,4
256,40,902384,5,4
296,192,902727,1,4
216,192,902898,1,4
120,320,903241,6,0,B|208:384|309:340,1,200,4|2
384,304,903755,1,8
440,248,903927,1,0
440,248,904013,1,0
328,248,904270,1,2
439,135,904613,6,0,B|352:72|250:115,1,200,4|2
176,152,905127,1,8
120,208,905298,1,0
120,208,905384,1,0
232,208,905641,1,2
104,120,905984,5,4
256,64,906327,1,0
256,64,906498,1,8
256,64,906670,1,2
408,120,907013,1,2
408,120,907184,1,8
408,120,907355,1,4
160,216,907698,1,4
352,216,908041,1,4
256,88,908384,5,2
256,168,908555,1,8
256,248,908727,1,0
256,328,908898,2,0,B|360:376|449:331,1,200,4|0
448,224,909413,1,2
176,32,910098,5,2
176,32,910270,1,4
336,32,910613,1,8
176,112,910955,1,4
336,112,911298,1,8
351,272,911641,2,0,B|256:328|162:273,1,200,4|8
255,207,912155,2,0,B|160:152|66:206,1,200
256,64,913013,5,4
416,88,913355,1,8
413,250,913698,2,2,B|344:304|352:200|278:261,2,150
416,248,914384,1,0
256,192,914555,12,0,915413
256,192,915584,12,4,917127
256,72,939070,6,0,B|144:40|80:136,1,200,0|8
136,192,939584,1,0
81,250,939755,2,0,B|144:344|256:312,1,200,0|8
256,232,940270,1,0
256,312,940441,2,0,B|368:344|432:248,1,200,4|12
368,200,940955,1,0
216,144,941298,1,0
296,144,941470,1,8
256,312,941813,6,0,B|360:368|464:264,1,200,4|8
432,208,942327,1,0
352,192,942498,2,0,B|256:136|160:208,1,200,0|8
104,144,943013,1,0
104,64,943184,2,0,B|192:0|296:40,1,200,4|8
208,104,943698,1,0
296,232,944041,1,4
216,232,944213,1,12
344,336,944555,6,0,B|464:336|480:208,1,200,4|8
480,136,945070,1,0
408,176,945241,1,0
416,96,945413,1,0
344,136,945584,2,0,B|256:224|152:128,2,200,8|4|8
256,72,946441,2,0,B|168:-8|64:64,1,200,0|4
32,128,946955,1,8
32,208,947127,1,0
32,288,947298,6,0,B|120:368|216:296,1,200,4|8
280,248,947813,1,0
344,296,947984,1,0
424,272,948155,1,0
448,192,948327,1,8
328,80,948670,6,0,B|176:80,2,150
216,192,949527,1,4
296,192,949698,1,8
456,160,950041,6,0,B|496:280|392:328,1,200,4|8
336,280,950555,1,0
256,280,950727,1,0
176,280,950898,1,0
118,327,951070,2,0,B|16:280|56:160,1,200,8|4
216,128,951755,1,8
296,128,951927,1,4
216,264,952270,5,4
296,264,952441,1,8
256,336,952613,1,0
256,336,952784,2,0,B|360:384|448:296,1,200,4|8
472,232,953298,1,0
464,152,953470,1,0
416,88,953641,1,0
344,56,953813,1,8
176,56,954155,5,4
344,128,954498,1,8
176,200,954841,1,4
344,288,955184,1,8
256,288,955355,5,0
176,304,955527,1,4
104,264,955698,1,0
64,192,955870,1,8
72,112,956041,1,0
112,40,956213,2,0,B|208:0|312:40,1,200,0|8
208,104,956727,2,0,B|216:216|336:240,1,200,4|0
392,184,957241,1,8
408,264,957413,2,0,B|352:360|232:344,1,200
160,320,957927,5,8
80,304,958098,1,0
48,232,958270,1,4
48,152,958441,1,0
80,80,958613,1,8
160,64,958784,1,0
160,144,958955,2,0,B|257:189|360:144,1,200,0|8
356,228,959470,2,0,B|255:279|153:225,1,200,4|0
464,344,960498,5,0
400,288,960670,1,8
464,240,960841,1,0
400,192,961013,2,0,B|360:32|192:48|88:104|80:256|184:312,1,500,4|0
240,296,962041,1,0
320,296,962213,2,0,B|432:328|496:232,1,200,4|0
424,192,962727,1,0
494,149,962898,2,0,B|432:56|320:88,1,200,4|0
256,40,963413,1,0
192,88,963584,5,0
112,88,963755,1,4
24,224,964098,1,0
24,304,964270,1,0
96,176,964441,1,0
96,360,964613,1,0
184,264,964784,1,0
184,264,964955,1,4
328,336,965298,5,0
432,272,965470,1,4
288,272,965641,1,4
288,272,965813,1,0
384,208,965984,1,0
384,208,966155,1,0
384,104,966327,6,0,B|304:32|192:48,1,200,4|0
272,136,966841,1,8
192,136,967013,1,0
112,136,967184,2,0,B|24:208|64:328,1,200,0|8
144,320,967698,2,0,B|232:248|328:320,1,200
400,280,968213,1,8
400,120,968555,1,4
256,40,968898,5,0
168,80,969070,2,0,B|256:168|344:80,1,200,4|0
376,152,969584,1,8
376,232,969755,2,0,B|320:328|192:312,1,200,4|0
128,304,970270,1,8
72,248,970441,2,0,B|8:160|72:56,1,200
120,152,970955,1,8
120,152,971127,1,0
304,80,971470,5,0
208,80,971641,1,8
256,168,971813,1,0
256,168,971984,2,0,B|192:248|320:248|240:352,1,200,4|8
64,192,972841,5,4
64,192,973013,1,0
64,192,973184,1,4
448,192,973527,1,4
448,192,973698,1,0
448,192,973870,1,4
256,32,974213,1,4
256,32,974384,1,0
208,96,974555,5,0
304,96,974727,1,4
208,184,974898,1,0
304,184,975070,1,4
192,184,975241,1,0
320,184,975413,1,4
256,288,975584,1,0
184,184,975755,1,0
336,184,975927,1,4
208,72,976270,5,4
304,72,976441,1,0
192,128,976613,1,4
320,128,976784,1,0
192,192,976955,1,0
320,192,977127,1,0
256,264,977298,1,0
256,344,977470,6,0,B|368:360|448:296,2,200,0|8|0
256,344,978327,2,0,B|144:360|64:296,2,200
256,264,979184,1,8
488,192,979698,5,0
448,120,979870,1,8
376,80,980041,1,0
304,48,980213,1,4
256,112,980384,1,0
208,48,980555,1,8
136,80,980727,1,0
64,120,980898,1,4
24,192,981070,1,0
104,240,981241,5,8
104,240,981413,1,0
192,280,981584,1,4
192,280,981755,1,0
256,208,981927,1,4
256,208,982098,1,0
320,280,982270,1,4
320,280,982441,1,0
408,240,982613,1,4
408,240,982784,1,0
352,120,982955,6,0,B|256:72|160:120,2,200,0|0|0
160,216,983813,2,0,B|256:264|352:216,2,200
168,312,984670,1,8
168,312,984841,1,0
256,344,985013,1,0
256,344,985184,1,0
344,312,985355,5,8
424,296,985527,1,0
472,232,985698,1,4
472,152,985870,1,0
424,88,986041,1,0
344,72,986213,2,0,B|240:32|144:104,1,200,4|0
208,152,986727,1,0
280,184,986898,2,0,B|280:288|160:336,1,200,4|0
104,280,987413,1,0
48,336,987584,1,4
256,192,987755,12,0,989813
256,192,990498,12,4,991184
256,64,991698,5,0
168,288,992213,2,0,B|256:368|352:288,2,200,8|0|8
168,208,993070,2,0,B|256:128|352:208,2,200
256,248,993927,1,0
352,120,994270,1,8
160,120,994613,1,0
256,32,994784,5,0
176,24,994955,1,8
104,56,995127,1,0
72,128,995298,1,0
72,208,995470,2,0,B|96:328|232:328,1,200
256,264,995984,1,0
304,328,996155,1,0
376,296,996327,1,8
376,216,996498,1,4
216,40,997013,5,8
136,48,997184,1,0
96,112,997355,2,0,B|152:144|144:208,1,100
64,184,997698,2,0,B|24:224|64:280,1,100,8|0
200,352,998213,1,0
256,296,998384,1,8
312,352,998555,1,4
216,224,998898,1,0
296,224,999070,1,0
400,104,999413,5,4
400,104,999584,1,0
312,48,999755,1,4
312,48,999927,1,0
200,48,1000098,1,4
200,48,1000270,1,0
112,104,1000441,1,0
112,104,1000613,6,0,B|16:176|64:288,1,200,4|0
136,208,1001127,2,0,B|240:216|280:336,1,200,4|0
360,336,1001641,2,0,B|472:320|464:192,1,200,4|0
440,120,1002155,5,4
296,48,1002498,1,8
216,48,1002670,1,0
72,120,1003013,1,4
72,120,1003184,1,8
256,200,1003527,1,4
216,352,1003870,1,8
296,352,1004041,1,0
296,72,1004384,5,4
216,72,1004555,1,8
312,72,1004727,1,0
200,72,1004898,1,4
360,184,1005241,1,8
152,184,1005584,1,4
256,336,1005927,5,8
336,336,1006098,1,0
416,312,1006270,1,4
448,240,1006441,2,0,B|520:144|432:56,1,200
360,80,1006955,1,4
312,144,1007127,1,0
256,88,1007298,1,0
256,8,1007470,2,0,B|128:8|104:136|128:272|264:272,1,400,4|0
336,288,1008327,1,0
280,352,1008498,1,0
200,352,1008670,1,8
136,312,1008841,1,4
40,184,1009184,5,0
40,104,1009355,1,0
40,24,1009527,1,4
408,80,1010384,5,4
104,80,1010727,1,8
256,280,1011070,1,0
408,224,1011413,1,8
256,32,1011755,1,4
104,224,1012098,1,8
256,32,1012441,1,0
408,224,1012784,1,8
256,160,1013127,1,4
256,192,1013213,12,0,1015870
376,328,1024098,5,4
296,344,1024270,1,0
216,344,1024441,1,8
136,328,1024613,1,0
80,272,1024784,2,0,B|0:192|40:80,1,200,4|8
112,160,1025298,2,0,B|216:192|312:128,1,200
256,72,1025813,2,0,B|344:16|464:88,1,200,8|0
472,232,1026498,5,8
472,312,1026670,2,0,B|376:272|272:312,1,200,4|0
200,336,1027184,1,8
120,312,1027355,1,0
72,248,1027527,2,0,B|32:144|120:64,1,200,4|8
144,168,1028041,2,0,B|240:104|336:176,1,200,4|0
240,224,1028555,2,0,B|232:352|360:352,1,200,8|0
432,328,1029070,1,4
472,256,1029241,1,8
472,176,1029413,1,0
448,104,1029584,1,0
376,64,1029755,1,4
112,248,1030441,5,4
72,320,1030613,1,0
152,320,1030784,1,4
256,200,1031127,1,4
296,136,1031298,1,0
216,136,1031470,1,4
400,248,1031813,1,4
440,320,1031984,1,0
360,320,1032155,1,4
256,320,1032327,5,4
216,168,1032670,1,4
296,168,1032841,1,0
200,168,1033013,1,4
320,168,1033184,1,0
256,248,1033355,1,4
256,248,1033527,1,0
200,96,1033870,5,0
312,96,1034041,1,4
176,56,1034213,1,0
336,56,1034384,1,0
256,160,1034555,1,4
256,160,1034727,1,0
336,56,1034898,6,0,B|456:40|504:160,1,200,4|0
440,200,1035413,1,8
360,216,1035584,1,0
352,296,1035755,2,0,B|256:352|152:296,1,200,4|8
120,232,1036270,2,0,B|0:176|104:48,1,200
160,40,1036784,2,0,B|256:96|360:40,1,200,8|4
256,168,1037470,5,0
168,216,1037641,2,0,B|256:304|344:216,1,200,4|0
344,136,1038155,1,8
256,88,1038327,1,0
168,136,1038498,2,0,B|24:168|120:320,1,200,0|8
160,336,1039013,2,0,B|256:392|376:328,1,200,0|4
256,32,1040041,5,4
200,96,1040213,1,8
256,152,1040384,1,0
312,96,1040555,1,0
256,152,1040727,1,4
480,360,1041413,5,0
480,280,1041584,1,0
408,320,1041755,1,4
32,360,1042098,1,4
32,280,1042270,1,0
104,320,1042441,1,4
256,280,1042784,1,4
256,280,1042955,1,0
256,280,1043127,1,4
216,208,1043298,5,4
296,208,1043470,1,0
184,144,1043641,1,4
184,144,1043813,1,0
328,144,1043984,1,4
328,144,1044155,1,0
256,56,1044327,1,4
256,56,1044498,1,0
216,208,1044841,5,0
296,208,1045013,1,4
176,288,1045184,1,0
336,288,1045355,1,0
176,288,1045527,1,4
336,288,1045698,1,4
256,360,1045870,5,0
256,360,1046041,2,0,B|144:368|64:296,2,200,4|8|4
256,360,1046898,2,0,B|368:368|448:296,1,200
456,144,1047584,6,0,B|504:112|472:48,1,100,4|8
400,88,1047927,1,0
336,40,1048098,1,4
320,120,1048270,2,0,B|288:176|208:136,1,100,0|8
248,64,1048613,1,0
176,96,1048784,1,4
104,64,1048955,2,0,B|48:96|64:168,1,100,0|8
80,224,1049298,1,0
80,304,1049470,1,4
152,264,1049641,2,0,B|208:264|240:320,1,100,0|8
304,168,1050155,5,4
304,168,1050327,1,0
256,64,1050498,1,12
256,64,1050670,1,0
200,168,1050841,1,4
200,168,1051013,1,0
304,168,1051184,1,12
304,168,1051355,1,0
352,264,1051527,6,0,B|256:312|160:264,2,200,0|8|0
160,168,1052385,2,0,B|256:120|352:168,2,200
168,72,1053242,1,8
168,72,1053413,1,0
256,40,1053585,1,0
256,40,1053756,1,0
344,72,1053927,5,8
424,88,1054099,1,4
472,152,1054270,1,0
472,232,1054442,1,0
424,296,1054613,1,8
344,312,1054785,2,0,B|240:352|144:280,1,200,4|0
208,232,1055299,1,8
280,200,1055470,2,0,B|280:96|160:48,1,200,4|0
104,104,1055985,1,8
48,48,1056156,1,4
256,192,1056327,12,0,1058385
256,192,1059070,12,4,1059756
256,320,1060270,5,0
168,96,1060785,2,0,B|256:16|352:96,2,200,8|0|8
168,176,1061642,2,0,B|256:256|352:176,2,200
256,136,1062499,1,4
352,264,1062842,1,4
160,264,1063185,1,4
256,352,1063356,5,0
176,360,1063527,1,8
104,328,1063699,1,4
72,256,1063870,1,0
72,176,1064042,2,0,B|96:56|232:56,1,200,4|0
256,120,1064556,1,0
304,56,1064727,1,0
376,88,1064899,1,8
376,168,1065070,1,4
216,344,1065585,5,8
136,336,1065756,1,0
96,272,1065927,2,0,B|152:240|144:176,1,100,4|0
64,200,1066270,2,0,B|24:160|64:104,1,100,8|0
200,32,1066785,1,4
256,88,1066956,1,8
312,32,1067127,1,4
216,160,1067470,1,4
296,160,1067642,1,8
400,280,1067985,5,4
400,280,1068156,1,0
312,336,1068327,1,4
312,336,1068499,1,0
200,336,1068670,1,4
200,336,1068842,1,0
112,280,1069013,1,0
112,280,1069185,6,0,B|16:208|64:96,1,200,4|0
136,176,1069699,2,0,B|240:168|280:48,1,200,4|0
360,48,1070213,2,0,B|472:64|464:192,1,200,4|0
440,264,1070727,5,4
296,336,1071070,1,8
216,336,1071242,1,0
72,264,1071585,1,0
72,264,1071756,1,8
256,184,1072099,1,4
216,32,1072442,1,8
296,32,1072613,1,4
296,312,1072956,5,0
216,312,1073127,1,4
312,312,1073299,1,0
200,312,1073470,1,4
360,200,1073813,1,8
152,200,1074156,1,4
256,48,1074499,5,8
336,48,1074670,1,0
416,72,1074842,1,4
448,144,1075013,2,0,B|520:240|432:328,1,200,0|0
360,304,1075527,1,4
312,240,1075699,1,0
256,296,1075870,1,0
256,376,1076042,2,0,B|128:376|104:248|128:112|264:112,1,400,4|0
336,96,1076899,1,4
280,32,1077070,1,0
200,32,1077242,1,0
136,80,1077413,1,4
40,200,1077756,5,0
40,280,1077927,1,0
40,360,1078099,1,4
408,304,1078956,5,4
104,304,1079299,1,8
256,104,1079642,1,0
408,160,1079985,1,8
256,352,1080327,1,4
104,160,1080670,1,8
256,352,1081013,1,4
408,160,1081356,1,8
256,224,1081699,1,4
256,192,1081785,12,0,1084442
256,48,1084955,5,0
168,280,1085470,2,0,B|256:352|352:280,2,200,8|0|8
256,240,1086327,1,0
104,192,1086670,6,0,B|40:176|40:112,1,100,0|8
144,112,1087013,1,0
144,112,1087184,1,0
184,192,1087355,2,0,B|248:176|248:112,1,100,0|8
304,64,1087698,1,0
304,64,1087870,1,0
360,120,1088041,2,0,B|359:171|423:187,1,100,0|8
400,264,1088384,5,0
326,318,1088555,1,4
326,318,1088727,1,0
256,256,1088898,1,12
256,256,1089070,1,0
187,318,1089241,1,4
187,318,1089413,1,0
187,318,1089584,1,8
112,264,1089755,2,0,B|0:224|40:104,1,200
16,24,1090270,1,8
96,24,1090441,6,0,B|200:-16|296:72,1,200,4|0
240,128,1090955,1,12
248,208,1091127,2,0,B|256:328|392:336,1,200,4|0
448,304,1091641,1,8
488,232,1091813,2,0,B|488:120|376:64,1,200,4|0
312,64,1092327,1,8
208,128,1092498,5,0
208,128,1092670,1,4
144,200,1092841,1,0
272,200,1093013,1,4
128,200,1093184,1,0
288,200,1093355,1,4
208,280,1093527,1,0
360,328,1093870,6,0,B|472:320|504:192,1,200,4|0
448,144,1094384,1,12
448,144,1094555,1,0
384,96,1094727,1,0
384,96,1094898,1,0
320,48,1095070,1,12
280,48,1095155,1,4
240,48,1095241,1,4
200,48,1095327,1,4
160,48,1095413,5,4
64,176,1095755,1,8
48,256,1095927,1,0
128,232,1096098,1,0
256,128,1096441,1,8
384,232,1096784,1,4
464,256,1096955,1,0
448,176,1097127,1,8
384,232,1097298,1,0
320,88,1097641,1,0
256,136,1097813,1,8
192,88,1097984,1,0
168,168,1098155,5,4
192,240,1098327,1,0
192,240,1098498,1,12
136,296,1098670,1,0
208,320,1098841,1,4
208,320,1099013,1,0
192,240,1099184,5,8
320,240,1099355,1,0
192,192,1099527,1,0
320,192,1099698,1,0
192,152,1099870,1,8
320,152,1100041,1,0
256,56,1100213,1,4
256,56,1100384,1,0
256,56,1100555,1,0
256,56,1100727,1,4
456,304,1101413,5,4
384,336,1101584,1,0
304,336,1101755,1,0
256,272,1101927,1,8
208,336,1102098,2,0,B|96:336|32:248,1,200
88,192,1102613,1,8
34,132,1102784,2,0,B|96:48|208:48,1,200
256,112,1103298,1,8
352,240,1103641,5,4
160,240,1103984,1,8
384,240,1104327,1,4
128,240,1104670,1,4
256,72,1105013,5,4
256,288,1105355,1,8
256,48,1105698,1,4
256,312,1106041,1,4
256,184,1106384,1,4
256,192,1106555,12,0,1109127
