osu file format v12

[General]
AudioFilename: EXILE - Lovers Again.mp3
AudioLeadIn: 0
PreviewTime: 52385
Countdown: 0
SampleSet: Soft
StackLeniency: 0.7
Mode: 0
LetterboxInBreaks: 0

[Editor]
DistanceSpacing: 1
BeatDivisor: 4
GridSize: 4

[Metadata]
Title:Lovers Again
TitleUnicode:Lovers Again
Artist:EXILE
ArtistUnicode:EXILE
Creator:shikyu
Version:Normal
Source:
Tags:athiota33 Hiro Makidai Matsu Usa Akira Kenchi Keiji Tetsuya Naoto Naoki Nesmith Shokichi Atsushi Takahiro
BeatmapID:211760
BeatmapSetID:71565

[Difficulty]
HPDrainRate:4
CircleSize:3
OverallDifficulty:4
ApproachRate:5
SliderMultiplier:1.4
SliderTickRate:2

[Events]
//Background and Video events
0,0,"BG.jpg",0,0
Video,-50327,"pid.avi"
//Break Periods
2,94488,103522
2,188401,197435
//Storyboard Layer 0 (Background)
//Storyboard Layer 1 (Fail)
//Storyboard Layer 2 (Pass)
//Storyboard Layer 3 (Foreground)
//Storyboard Sound Samples
//Background Colour Transformations
3,100,163,162,255

[TimingPoints]
375,652.173913043478,4,2,1,60,1,0
8853,-100,4,2,4,60,0,0
8894,-100,4,2,1,60,0,0
10809,-100,4,2,2,60,0,0
11461,-100,4,2,1,60,0,0
26135,-100,4,2,2,40,0,0
27114,-100,4,2,4,40,0,0
27154,-100,4,2,2,40,0,0
27766,-100,4,2,5,20,0,0
27807,-100,4,2,1,40,0,0
29070,-100,4,2,2,40,0,0
29722,-100,4,2,4,40,0,0
29763,-100,4,2,1,40,0,0
30374,-100,4,2,5,20,0,0
30415,-100,4,2,1,20,0,0
31679,-100,4,2,2,50,0,0
47983,-100,4,2,3,50,0,0
48024,-100,4,2,2,50,0,0
51244,-100,4,2,2,40,0,0
51570,-100,4,2,2,45,0,0
51896,-100,4,2,3,55,0,0
51937,-100,4,2,2,55,0,0
52222,-100,4,2,2,50,0,0
52548,-100,4,2,2,60,0,1
72114,-100,4,2,2,60,0,0
73418,-100,4,2,2,60,0,1
94288,-100,4,2,2,60,0,0
104722,-100,4,2,2,40,0,0
125592,-100,4,2,2,50,0,0
145157,-100,4,2,2,40,0,0
145483,-100,4,2,0,45,0,0
145524,-100,4,2,2,45,0,0
145809,-100,4,2,2,55,0,0
146135,-100,4,2,2,50,0,0
146461,-100,4,2,2,60,0,1
151027,-100,4,2,3,60,0,1
151067,-100,4,2,2,60,0,1
156244,-100,4,2,3,60,0,1
156285,-100,4,2,2,60,0,1
164070,-100,4,2,3,60,0,1
164111,-100,4,2,2,60,0,1
166027,-100,4,2,2,60,0,0
166353,-100,4,2,1,60,0,0
166679,-100,4,2,3,60,0,0
166720,-100,4,2,1,60,0,0
167331,-100,4,2,2,60,0,1
171570,-100,4,2,1,60,0,1
171896,-100,4,2,3,60,0,1
171937,-100,4,2,1,60,0,1
173201,-100,4,2,2,60,0,1
176788,-100,4,2,1,60,0,1
177114,-100,4,2,3,60,0,1
177154,-100,4,2,1,60,0,1
177766,-100,4,2,2,60,0,1
181027,-100,4,2,3,60,0,1
181067,-100,4,2,2,60,0,1
182005,-100,4,2,0,60,0,1
182046,-100,4,2,1,60,0,1
182331,-100,4,2,0,60,0,1
182372,-100,4,2,1,60,0,1
182983,-100,4,2,2,60,0,1
183635,-100,4,2,3,60,0,1
183676,-100,4,2,2,60,0,1
184940,-100,4,2,3,60,0,1
184980,-100,4,2,2,60,0,1
188201,-100,4,2,2,60,0,0
198635,-100,4,2,2,40,0,0
209070,-100,4,2,2,50,0,0
211027,-100,4,2,3,50,0,0
211067,-100,4,2,2,50,0,0
213309,-100,4,2,1,50,0,0
213635,-100,4,2,3,50,0,0
213676,-100,4,2,2,50,0,0
217548,-100,4,2,3,50,0,0
217589,-100,4,2,2,50,0,0
219505,-100,4,2,2,5,0,0
220809,652.173913043478,4,2,2,60,1,1
240374,-100,4,2,2,60,0,0
241678,-100,4,2,2,60,0,1
245917,-100,4,2,1,60,0,1
247548,-100,4,2,2,60,0,1
251135,-100,4,2,1,60,0,1
252113,-100,4,2,2,60,0,1
256352,-100,4,2,1,60,0,1
257330,-100,4,2,2,60,0,1
262548,-100,4,2,1,30,0,0
270374,697.674418604651,4,2,1,30,1,0
271071,-100,4,2,1,25,0,0
271769,750,4,2,1,20,1,0
272331,-100,4,2,1,15,0,0
272894,-100,4,2,1,10,0,0

[Colours]
Combo1 : 91,91,91
Combo2 : 114,123,192
Combo3 : 200,200,200
Combo4 : 147,117,104

[HitObjects]
116,72,5592,2,0,B|112:112|139:147|139:147|96:187,1,140,4|8,0:0|0:0,0:0:0:0:
188,292,6896,2,0,B|231:252|231:252|264:282|308:281,1,140,2|8,0:0|0:0,0:0:0:0:
324,144,8201,2,0,P|420:156|484:72,2,210,2|0|8,0:0|0:0|0:0,0:0:0:0:
212,64,10809,5,4,0:0:0:0:
84,120,11461,1,8,0:0:0:0:
152,244,12114,2,0,P|168:308|244:316,1,140,2|8,0:0|0:0,0:0:0:0:
316,208,13418,2,0,P|381:221|397:285,1,140,2|8,0:0|0:0,0:0:0:0:
512,208,14722,2,0,P|516:140|480:80,1,140,2|8,0:0|0:0,0:0:0:0:
424,40,15701,1,0,0:0:0:0:
360,68,16027,6,0,P|312:92|228:72,1,140,2|8,0:0|0:0,0:0:0:0:
92,84,17331,2,0,P|132:136|144:208,1,140,2|8,0:0|0:0,0:0:0:0:
120,272,18309,1,0,0:0:0:0:
72,320,18635,1,2,0:0:0:0:
0,196,19288,1,8,0:0:0:0:
0,196,19614,1,0,0:0:0:0:
0,196,19940,2,0,P|12:120|64:92,1,140,2|8,0:0|0:0,0:0:0:0:
176,172,21244,6,0,P|232:208|288:172,1,140,4|8,0:0|0:0,0:0:0:0:
336,124,22222,1,0,0:0:0:0:
388,76,22548,2,0,P|456:88|492:144,1,140,2|8,0:0|0:0,0:0:0:0:
492,284,23853,2,0,P|456:340|388:352,1,140,2|8,0:0|0:0,0:0:0:0:
320,336,24831,1,0,0:0:0:0:
252,352,25157,2,0,P|184:340|148:284,1,140,2|10,0:0|0:0,0:0:0:0:
140,216,26135,1,8,0:0:0:0:
148,148,26461,6,0,P|212:68|316:68,2,210,4|0|8,0:0|0:0|0:0,0:0:0:0:
213,272,29070,2,8,P|304:274|368:194,2,210,8|2|10,0:0|0:0|0:0,0:0:0:0:
204,132,31679,6,0,P|124:148|80:212,1,140,4|2,0:0|0:0,0:0:0:0:
0,92,32983,2,0,P|43:32|104:14,1,140,8|2,0:0|0:0,0:0:0:0:
244,13,34288,2,0,P|305:30|348:90,1,140,8|2,0:0|0:0,0:0:0:0:
236,176,35592,2,0,P|272:224|264:304,1,140,8|2,0:0|0:0,0:0:0:0:
200,320,36570,1,8,0:0:0:0:
132,304,36896,6,0,B|84:288|64:236|64:236|16:236,2,140,8|2|8,0:0|0:0|0:0,0:0:0:0:
200,176,38853,1,2,0:0:0:0:
256,48,39505,2,0,B|308:64|332:120|332:120|364:128,1,140,8|2,0:0|0:0,0:0:0:0:
480,204,40809,2,0,B|452:248|400:256|400:256|372:288,1,140,8|2,0:0|0:0,0:0:0:0:
316,328,41788,1,0,0:0:0:0:
248,340,42114,6,0,P|192:340|147:271,1,140,4|2,0:0|0:0,0:0:0:0:
48,180,43418,2,0,P|92:115|148:115,1,140,8|2,0:0|0:0,0:0:0:0:
224,232,44722,1,8,0:0:0:0:
356,280,45375,2,0,L|356:352,2,70,2|0|8,0:0|0:0|0:0,0:0:0:0:
484,228,46679,1,2,0:0:0:0:
501,160,47005,1,0,0:0:0:0:
476,96,47331,6,0,P|404:44|236:104,1,280,8|8,0:0|0:0,0:0:0:0:
140,204,49288,1,2,0:0:0:0:
104,340,49940,2,0,P|172:340|228:296,1,140,8|2,0:0|0:0,0:0:0:0:
240,160,51244,2,8,P|188:100|68:116,1,210,8|0,0:0|0:0,0:0:0:0:
40,180,52548,6,0,P|72:235|148:256,1,140,4|2,0:0|0:0,0:0:0:0:
252,344,53853,2,0,P|316:312|392:308,1,140,8|2,0:0|0:0,0:0:0:0:
452,324,54831,1,0,0:0:0:0:
496,272,55157,2,0,B|504:176|504:176|472:136,1,140,8|0,0:0|0:0,0:0:0:0:
436,84,56135,2,0,P|404:100|368:104,1,70,0|8,0:0|0:0,0:0:0:0:
312,144,56788,1,0,0:0:0:0:
252,112,57114,2,0,P|220:96|184:92,1,70,2|0,0:0|0:0,0:0:0:0:
120,76,57766,6,0,P|92:132|128:196,1,140,8|2,0:0|0:0,0:0:0:0:
244,272,59070,2,0,P|272:216|236:152,1,140,8|2,0:0|0:0,0:0:0:0:
180,112,60048,2,0,P|124:96|88:72,2,70,0|8|0,0:0|0:0|0:0,0:0:0:0:
244,84,61027,2,0,P|312:68|380:84,1,140,2|8,0:0|0:0,0:0:0:0:
444,208,62331,1,2,0:0:0:0:
464,276,62657,1,0,0:0:0:0:
484,344,62983,6,0,P|416:364|348:352,1,140,4|2,0:0|0:0,0:0:0:0:
284,228,64288,2,0,P|216:208|148:220,1,140,8|2,0:0|0:0,0:0:0:0:
84,240,65266,1,0,0:0:0:0:
24,204,65592,2,0,P|16:160|20:120,2,70,8|0|2,0:0|0:0|0:0,0:0:0:0:
28,272,66570,1,0,0:0:0:0:
60,332,66896,2,0,P|124:356|200:352,1,140,8|2,0:0|0:0,0:0:0:0:
256,320,67875,1,0,0:0:0:0:
320,348,68201,1,8,0:0:0:0:
440,272,68853,6,0,P|464:200|468:128,2,140,2|8|2,0:0|0:0|0:0,0:0:0:0:
384,316,70483,1,0,0:0:0:0:
316,296,70809,2,0,P|248:272|172:280,1,140,8|2,0:0|0:0,0:0:0:0:
52,220,72114,2,0,P|20:148|16:88,2,140,8|2|4,0:0|0:0|0:0,0:0:0:0:
168,300,74070,5,2,0:0:0:0:
304,332,74722,2,0,B|341:348|373:334|373:334|407:322|442:337,1,140,8|2,0:0|0:0,0:0:0:0:
492,289,75701,1,0,0:0:0:0:
480,219,76027,2,0,B|492:169|462:130|462:130|462:82,2,140,8|2|8,0:0|0:0|0:0,0:0:0:0:
388,324,77983,1,2,0:0:0:0:
320,348,78309,1,0,0:0:0:0:
252,332,78635,6,0,P|180:316|100:336,1,140,4|2,0:0|0:0,0:0:0:0:
24,224,79940,2,0,P|8:152|20:76,1,140,8|2,0:0|0:0,0:0:0:0:
68,40,80918,1,0,0:0:0:0:
136,56,81244,2,0,P|200:84|268:68,1,140,8|2,0:0|0:0,0:0:0:0:
404,48,82548,2,0,P|428:112|400:176,1,140,8|2,0:0|0:0,0:0:0:0:
368,236,83527,1,0,0:0:0:0:
316,280,83853,6,0,L|176:264,1,140,4|2,0:0|0:0,0:0:0:0:
116,228,84831,1,0,0:0:0:0:
68,176,85157,2,0,P|28:164|-12:164,2,70,8|0|0,0:0|0:0|0:0,0:0:0:0:
132,144,86135,1,0,0:0:0:0:
200,124,86461,2,0,P|284:124|340:76,1,140,8|2,0:0|0:0,0:0:0:0:
380,224,87766,2,0,P|296:224|240:272,1,140,8|2,0:0|0:0,0:0:0:0:
196,300,88744,1,0,0:0:0:0:
132,328,89070,6,0,P|64:328|0:277,2,140,4|2|8,0:0|0:0|0:0,0:0:0:0:
256,256,91027,1,2,0:0:0:0:
256,192,91679,12,4,94288,0:0:0:0:
40,268,104722,6,0,P|88:308|160:292,1,140,4|2,0:0|0:0,0:0:0:0:
256,192,106027,2,0,P|327:176|375:216,1,140,8|2,0:0|0:0,0:0:0:0:
472,116,107331,1,8,0:0:0:0:
376,216,107983,1,2,0:0:0:0:
464,324,108635,2,0,B|416:324|416:324|372:344|328:320,1,140,8|2,0:0|0:0,0:0:0:0:
204,252,109940,5,8,0:0:0:0:
84,324,110592,1,2,0:0:0:0:
28,196,111244,2,0,P|44:128|84:68,1,140,8|2,0:0|0:0,0:0:0:0:
148,44,112222,1,0,0:0:0:0:
200,88,112548,2,0,P|276:100|356:88,2,140,8|2|8,0:0|0:0|0:0,0:0:0:0:
64,60,114505,1,2,0:0:0:0:
100,196,115157,6,0,P|168:184|240:220,1,140,8|2,0:0|0:0,0:0:0:0:
364,256,116461,2,0,P|416:192|424:128,1,140,8|2,0:0|0:0,0:0:0:0:
320,44,117766,2,0,P|256:64|188:44,2,140,8|2|8,0:0|0:0|0:0,0:0:0:0:
284,180,119722,1,2,0:0:0:0:
260,244,120048,1,8,0:0:0:0:
224,304,120374,6,0,P|144:320|100:284,1,140,12|2,0:0|0:0,0:0:0:0:
60,152,121679,2,0,P|140:136|184:172,1,140,8|2,0:0|0:0,0:0:0:0:
232,220,122657,1,0,0:0:0:0:
292,256,122983,2,0,P|372:272|416:236,2,140,8|2|8,0:0|0:0|0:0,0:0:0:0:
156,292,124940,1,2,0:0:0:0:
88,300,125266,1,0,0:0:0:0:
32,260,125592,6,0,B|52:212|36:164|36:164|68:124,1,140,4|2,0:0|0:0,0:0:0:0:
172,44,126896,2,0,P|254:57|302:26,1,140,8|2,0:0|0:0,0:0:0:0:
368,32,127874,1,0,0:0:0:0:
432,64,128201,2,0,P|448:128|424:200,1,140,8|2,0:0|0:0,0:0:0:0:
312,280,129505,2,0,P|228:268|168:300,1,140,8|2,0:0|0:0,0:0:0:0:
116,320,130483,1,8,0:0:0:0:
48,304,130809,6,0,P|28:232|48:156,1,140,8|2,0:0|0:0,0:0:0:0:
160,92,132114,2,0,P|232:112|296:92,1,140,8|2,0:0|0:0,0:0:0:0:
360,104,133092,1,0,0:0:0:0:
404,156,133418,2,0,B|404:216|404:216|428:256|404:296,1,140,8|2,0:0|0:0,0:0:0:0:
352,336,134396,1,0,0:0:0:0:
284,340,134722,2,0,P|216:364|152:340,1,140,8|2,0:0|0:0,0:0:0:0:
112,284,135701,1,0,0:0:0:0:
116,216,136027,6,0,P|64:152|12:124,2,140,4|2|8,0:0|0:0|0:0,0:0:0:0:
196,332,137983,1,2,0:0:0:0:
336,308,138635,2,0,B|380:300|400:252|400:252|452:252,2,140,8|2|8,0:0|0:0|0:0,0:0:0:0:
256,192,140592,1,2,0:0:0:0:
256,192,140918,1,0,0:0:0:0:
256,192,141244,6,0,B|224:180|188:196|152:212|116:192,1,140,8|2,0:0|0:0,0:0:0:0:
208,88,142548,2,0,B|240:76|276:92|312:108|348:88,1,140,8|2,0:0|0:0,0:0:0:0:
412,112,143527,1,0,0:0:0:0:
472,144,143853,2,0,B|456:191|456:191|477:236|446:283,1,140,8|2,0:0|0:0,0:0:0:0:
316,244,145157,2,0,P|264:288|196:284,1,140,8|2,0:0|0:0,0:0:0:0:
140,244,146135,1,0,0:0:0:0:
152,176,146461,6,0,P|204:132|272:136,1,140,4|2,0:0|0:0,0:0:0:0:
328,176,147440,1,0,0:0:0:0:
396,160,147766,2,0,L|428:96,2,70,8|0|2,0:0|0:0|0:0,0:0:0:0:
428,220,148744,1,0,0:0:0:0:
400,284,149070,2,0,P|360:316|336:320,1,70,8|0,0:0|0:0,0:0:0:0:
272,319,149722,2,0,P|254:315|214:283,1,70,2|0,0:0|0:0,0:0:0:0:
172,228,150374,2,0,B|124:228|104:248|104:248|72:256,2,105,8|0|0,0:0|0:0|0:0,0:0:0:0:
212,172,151679,6,0,P|280:160|348:176,1,140,8|2,0:0|0:0,0:0:0:0:
408,136,152657,1,0,0:0:0:0:
472,108,152983,2,0,L|504:44,2,70,8|0|2,0:0|0:0|0:0,0:0:0:0:
488,176,153961,1,0,0:0:0:0:
488,248,154288,2,0,P|464:268|424:280,1,70,8|0,0:0|0:0,0:0:0:0:
364,308,154940,1,2,0:0:0:0:
300,280,155266,1,0,0:0:0:0:
232,276,155592,2,0,B|188:276|140:320|140:320|84:312|44:272,1,210,8|0,0:0|0:0,0:0:0:0:
68,208,156896,6,0,P|112:148|120:84,1,140,4|2,0:0|0:0,0:0:0:0:
188,76,157874,1,0,0:0:0:0:
244,120,158201,2,0,P|264:144|280:180,1,70,8|0,0:0|0:0,0:0:0:0:
349,179,158853,2,0,P|365:143|385:119,1,70,2|0,0:0|0:0,0:0:0:0:
452,108,159505,1,8,0:0:0:0:
476,176,159831,2,0,P|488:200|496:244,2,70,0|2|0,0:0|0:0|0:0,0:0:0:0:
412,204,160809,2,0,P|420:240|416:276,1,70,8|0,0:0|0:0,0:0:0:0:
348,252,161461,2,0,P|340:300|328:324,1,70,2|0,0:0|0:0,0:0:0:0:
264,292,162114,5,8,0:0:0:0:
200,320,162440,2,0,P|168:328|132:320,1,70
72,284,163092,1,0,0:0:0:0:
100,220,163418,2,0,P|64:192|4:200,2,105,8|0|0,0:0|0:0|0:0,0:0:0:0:
164,188,164722,2,0,P|152:140|152:120,1,70,8|0,0:0|0:0,0:0:0:0:
220,132,165374,2,0,P|224:92|240:64,1,70,2|0,0:0|0:0,0:0:0:0:
304,92,166027,2,0,P|380:72|404:76,2,105,8|2|2,0:0|0:0|0:0,0:0:0:0:
256,144,167331,6,0,P|200:172|120:160,1,140,4|2,0:0|0:0,0:0:0:0:
64,132,168309,1,0,0:0:0:0:
12,180,168635,2,0,P|36:252|92:288,1,140,8|2,0:0|0:0,0:0:0:0:
156,304,169614,1,0,0:0:0:0:
208,256,169940,2,0,P|240:192|228:128,1,140,8|2,0:0|0:0,0:0:0:0:
176,80,170918,1,0,0:0:0:0:
108,72,171244,2,0,P|73:76|18:117,2,105,8|2|2,0:0|0:0|0:0,0:0:0:0:
152,128,172548,6,0,L|192:264,1,140,4|2,0:0|0:0,0:0:0:0:
224,324,173527,1,0,0:0:0:0:
292,348,173853,2,0,P|344:316|388:244,1,140,8|2,0:0|0:0,0:0:0:0:
408,184,174831,1,0,0:0:0:0:
380,120,175157,2,0,B|340:96|296:116|296:116|232:116,1,140,8|2,0:0|0:0,0:0:0:0:
173,116,176135,1,0,0:0:0:0:
108,144,176461,2,0,P|60:180|44:220,2,105,8|2|2,0:0|0:0|0:0,0:0:0:0:
164,184,177766,6,0,P|208:208|236:292,1,140,4|2,0:0|0:0,0:0:0:0:
296,325,178744,1,0,0:0:0:0:
356,292,179070,2,0,P|385:211|429:187,1,140,8|2,0:0|0:0,0:0:0:0:
472,132,180048,1,0,0:0:0:0:
424,80,180374,2,0,B|378:57|324:82|324:82|266:54|222:80,1,210,8|0,0:0|0:0,0:0:0:0:
160,116,181679,2,0,P|104:96|84:56,2,105,8|2|2,0:0|0:0|0:0,0:0:0:0:
200,176,182983,6,0,B|193:252|269:288|269:288|293:352,1,210,4|0,0:0|0:0,0:0:0:0:
363,352,184288,2,0,B|387:288|387:288|463:252|455:176,1,210,8|0,0:0|0:0,0:0:0:0:
256,192,185592,12,4,188201,0:0:0:0:
20,248,198635,6,0,P|104:276|156:256,1,140,4|2,0:0|0:0,0:0:0:0:
220,272,199614,2,0,P|259:276|294:294,2,70,0|8|0,0:0|0:0|0:0,0:0:0:0:
208,204,200592,2,0,P|237:177|274:163,1,70,2|0,0:0|0:0,0:0:0:0:
332,180,201244,6,0,P|401:173|456:125,1,140,8|2,0:0|0:0,0:0:0:0:
408,76,202222,1,0,0:0:0:0:
348,40,202548,2,0,P|278:46|223:94,1,140,8|2,0:0|0:0,0:0:0:0:
196,152,203527,1,0,0:0:0:0:
164,216,203853,6,0,L|92:216,2,70,8|0|2,0:0|0:0|0:0,0:0:0:0:
224,248,204831,1,0,0:0:0:0:
288,276,205157,2,0,P|352:300|416:276,1,140,8|2,0:0|0:0,0:0:0:0:
452,216,206135,1,0,0:0:0:0:
416,156,206461,6,0,P|352:132|288:156,1,140,8|2,0:0|0:0,0:0:0:0:
208,272,207766,2,0,P|144:296|80:272,1,140,8|2,0:0|0:0,0:0:0:0:
36,220,208744,1,0,0:0:0:0:
80,164,209070,6,0,P|144:140|208:164,1,140,4|2,0:0|0:0,0:0:0:0:
256,212,210048,1,0,0:0:0:0:
324,192,210374,2,0,P|368:168|388:120,2,105,8|0|0,0:0|0:0|0:0,0:0:0:0:
312,260,211679,6,0,P|308:300|300:332,1,70,8|0,0:0|0:0,0:0:0:0:
240,296,212331,2,0,P|216:328|192:348,1,70,2|0,0:0|0:0,0:0:0:0:
148,292,212983,2,0,P|100:308|44:312,2,105,8|2|0,0:0|0:0|0:0,0:0:0:0:
192,236,214288,6,0,P|224:192|312:168,1,140,8|2,0:0|0:0,0:0:0:0:
360,208,215266,2,0,L|392:272,2,70,0|8|0,0:0|0:0|0:0,0:0:0:0:
372,140,216244,1,2,0:0:0:0:
256,60,216896,6,0,P|200:56|160:24,2,105,8|0|0,0:0|0:0|0:0,0:0:0:0:
256,192,218201,12,0,219505,0:0:0:0:
256,192,220809,6,0,L|256:340,1,140,4|2,0:0|0:0,0:0:0:0:
120,364,222113,2,0,P|32:340|12:284,1,140,8|2,0:0|0:0,0:0:0:0:
36,236,223091,1,0,0:0:0:0:
84,188,223417,2,0,P|172:212|192:268,1,140,8|2,0:0|0:0,0:0:0:0:
256,276,224395,1,0,0:0:0:0:
324,256,224722,2,0,P|368:224|400:172,2,105,8|0|0,0:0|0:0|0:0,0:0:0:0:
256,276,226026,6,0,P|169:303|121:267,1,140,8|2,0:0|0:0,0:0:0:0:
100,216,227004,1,0,0:0:0:0:
136,156,227330,2,0,P|222:128|270:164,1,140,8|2,0:0|0:0,0:0:0:0:
320,184,228308,2,0,P|356:188|392:184,2,70,0|8|0,0:0|0:0|0:0,0:0:0:0:
260,220,229287,1,2,0:0:0:0:
120,276,229939,6,0,P|168:336|248:348,1,140,8|2,0:0|0:0,0:0:0:0:
296,336,230917,1,0,0:0:0:0:
360,304,231243,6,0,P|420:256|480:232,1,140,4|2,0:0|0:0,0:0:0:0:
444,96,232548,2,0,P|384:144|324:168,1,140,8|2,0:0|0:0,0:0:0:0:
256,160,233526,1,0,0:0:0:0:
188,140,233852,2,0,P|148:136|112:140,2,70,8|0|2,0:0|0:0|0:0,0:0:0:0:
316,200,235156,2,0,P|356:204|392:200,2,70,8|0|2,0:0|0:0|0:0,0:0:0:0:
256,240,236135,1,0,0:0:0:0:
192,272,236461,6,0,P|104:268|64:240,1,140,8|2,0:0|0:0,0:0:0:0:
100,104,237765,2,0,P|188:108|228:136,1,140,8|2,0:0|0:0,0:0:0:0:
216,276,239069,2,0,P|292:272|340:228,1,140,8|2,0:0|0:0,0:0:0:0:
452,148,240374,2,0,P|469:218|447:280,1,140,8|2,0:0|0:0,0:0:0:0:
392,324,241352,1,0,0:0:0:0:
340,280,241678,6,0,P|318:218|335:148,1,140,4|2,0:0|0:0,0:0:0:0:
256,32,242982,2,0,P|184:44|136:88,1,140,8|2,0:0|0:0,0:0:0:0:
92,144,243961,1,0,0:0:0:0:
24,156,244287,2,0,P|16:192|24:296,1,140,8|2,0:0|0:0,0:0:0:0:
89,316,245265,1,0,0:0:0:0:
156,296,245591,2,0,P|168:224|164:192,2,105,8|2|2,0:0|0:0|0:0,0:0:0:0:
208,340,246895,6,0,P|280:320|328:276,1,140,4|2,0:0|0:0,0:0:0:0:
328,136,248200,2,0,P|280:92|208:72,1,140,8|2,0:0|0:0,0:0:0:0:
144,92,249178,1,0,0:0:0:0:
84,128,249504,2,0,P|48:188|40:264,1,140,8|2,0:0|0:0,0:0:0:0:
80,308,250482,1,0,0:0:0:0:
148,292,250808,2,0,P|160:256|212:216,2,105,8|2|2,0:0|0:0|0:0,0:0:0:0:
208,332,252113,6,0,P|296:344|340:320,1,140,4|2,0:0|0:0,0:0:0:0:
368,256,253091,1,0,0:0:0:0:
384,188,253417,2,0,B|416:160|448:160|448:160|456:92,1,140,8|2,0:0|0:0,0:0:0:0:
388,72,254395,1,0,0:0:0:0:
320,60,254722,2,0,P|244:64|196:104,1,140,8|2,0:0|0:0,0:0:0:0:
80,184,256026,2,0,P|65:142|69:82,2,105,8|2|2,0:0|0:0|0:0,0:0:0:0:
100,252,257330,6,0,B|128:291|116:336|116:336|152:372,1,140,4|2,0:0|0:0,0:0:0:0:
292,371,258635,2,0,B|328:335|328:335|316:290|344:251,1,140,8|2,0:0|0:0,0:0:0:0:
388,196,259613,1,0,0:0:0:0:
256,192,259939,8,2,261895,0:0:0:0:
304,288,262548,6,0,P|340:312|416:308,2,105,2|2|0,0:0|0:0|0:0,0:0:0:0:
236,268,263852,2,0,P|175:270|139:294,2,105,2|0|0,0:0|0:0|0:0,0:0:0:0:
292,224,265156,6,0,P|339:186|354:146,2,105,0|2|2,0:0|0:0|0:0,0:0:0:0:
220,224,266461,2,0,P|172:186|157:146,2,105,0|2|0,0:0|0:0|0:0,0:0:0:0:
256,164,267765,6,0,L|256:56,2,105,2|2|0,0:0|0:0|0:0,0:0:0:0:
292,224,269069,2,0,P|320:272|376:296,1,105,2|0,0:0|0:0,0:0:0:0:
432,308,269885,1,2,0:0:0:0:
256,192,270374,12,2,272894,0:0:0:0:
