osu file format v12

[General]
AudioFilename: The Next Door - Indestructible (Street Fighter IV Main Theme).mp3
AudioLeadIn: 0
PreviewTime: 41641
Countdown: 0
SampleSet: Normal
StackLeniency: 0.7
Mode: 0
LetterboxInBreaks: 0

[Editor]
Bookmarks: 55999,84571
DistanceSpacing: 1
BeatDivisor: 4
GridSize: 4

[Metadata]
Title:Indestructible
TitleUnicode:Indestructible
Artist:EXILE
ArtistUnicode:EXILE
Creator:3er123
Version:Normal
Source:Street Fighter IV
Tags:fighting, the next door, ost, capcom
BeatmapID:256578
BeatmapSetID:95561

[Difficulty]
HPDrainRate:4
CircleSize:3
OverallDifficulty:4
ApproachRate:5
SliderMultiplier:1.6
SliderTickRate:2

[Events]
//Background and Video events
0,0,"bg.jpg",0,0
//Break Periods
//Storyboard Layer 0 (Background)
//Storyboard Layer 1 (Fail)
//Storyboard Layer 2 (Pass)
//Storyboard Layer 3 (Foreground)
//Storyboard Sound Samples
//Background Colour Transformations
3,100,163,162,255

[TimingPoints]
11726,571.428571428571,4,1,0,75,1,0
50499,-100,4,1,0,75,0,1
59641,-100,4,1,0,75,0,1
68784,-100,4,1,0,75,0,0
79927,-100,4,1,0,75,0,0
89356,-100,4,1,0,5,0,0

[Colours]
Combo1 : 255,197,108
Combo2 : 220,62,105
Combo3 : 53,38,125
Combo4 : 252,200,208

[HitObjects]
56,192,11726,2,0,B|112:156|192:184,1,120,0|0,0:0|0:0,0:0:0:0:
220,92,12583,2,0,B|288:112|296:200|244:252,1,160,2|2,0:0|0:0,0:0:0:0:
492,260,14011,6,0,B|436:296|344:264,1,120,2|0,0:0|0:0,0:0:0:0:
320,352,14868,2,0,B|252:332|244:244|296:192,1,160,2|2,0:0|0:0,0:0:0:0:
440,124,16297,6,0,B|384:88|296:116,1,120,2|0,0:0|0:0,0:0:0:0:
276,28,17154,2,0,B|208:48|200:136|252:188,1,160,2|2,0:0|0:0,0:0:0:0:
40,136,18583,6,0,B|0:200|44:284,1,120,2|0,0:0|0:0,0:0:0:0:
256,192,19440,12,0,23154,0:0:0:0:
164,172,23725,6,0,B|292:60|292:60,1,160,0|4,0:0|0:0,0:0:0:0:
344,120,24583,1,0,0:0:0:0:
380,192,24868,1,8,0:0:0:0:
436,340,25440,6,0,P|356:312|280:340,1,160,0|0,0:0|0:0,0:0:0:0:
224,284,26297,1,0,0:0:0:0:
288,236,26583,2,0,P|308:156|296:68,1,160,0|8,0:0|0:0,0:0:0:0:
460,80,27725,5,0,0:0:0:0:
444,240,28297,2,0,P|416:272|376:288,1,80,0|0,0:0|0:0,0:0:0:0:
304,288,28868,2,0,B|188:288,1,80,0|0,0:0|0:0,0:0:0:0:
144,276,29440,2,0,B|76:216|64:88|132:16|268:12|352:68,1,440,8|0,0:0|0:0,0:0:0:0:
356,100,31154,2,0,B|432:192,2,120,0|0|0,0:0|0:0|0:0,0:0:0:0:
296,152,32011,1,0,0:0:0:0:
236,96,32297,6,0,P|212:160|272:232,1,160,0|8,0:0|0:0,0:0:0:0:
392,320,33440,2,0,P|368:260|264:244,1,160,0|8,0:0|0:0,0:0:0:0:
208,204,34297,2,0,L|124:128,1,80,0|0,0:0|0:0,0:0:0:0:
304,108,35154,1,0,0:0:0:0:
368,60,35440,2,0,P|384:136|300:192,1,160,0|0,0:0|0:0,0:0:0:0:
304,108,36297,1,8,0:0:0:0:
168,192,36868,5,0,0:0:0:0:
196,268,37154,2,0,B|116:332,2,80,0|8|0,0:0|0:0|0:0,0:0:0:0:
248,208,38011,2,0,P|224:132|144:112,1,160,0|8,0:0|0:0,0:0:0:0:
264,224,39154,2,0,P|304:288|404:296,1,160,0|8,0:0|0:0,0:0:0:0:
408,148,40297,2,0,P|376:200|332:192,2,80,0|0|8,0:0|0:0|0:0,0:0:0:0:
252,52,41440,6,0,P|352:56|372:132,2,160,4|8|0,0:0|0:0|0:0,0:0:0:0:
296,120,42868,2,0,B|228:208|140:136,1,160,0|0,0:0|0:0,0:0:0:0:
80,172,43725,1,4,0:0:0:0:
96,252,44011,6,0,B|184:220|234:299,1,160,0|0,0:0|0:0,0:0:0:0:
312,284,44868,1,0,0:0:0:0:
388,324,45154,2,0,B|416:224|304:192,1,160,0|0,0:0|0:0,0:0:0:0:
312,284,46011,1,8,0:0:0:0:
240,252,46297,6,0,P|180:312|100:292,1,160,0|0,0:0|0:0,0:0:0:0:
156,232,47154,1,8,0:0:0:0:
172,152,47440,2,0,P|288:116|304:76,1,160,0|0,0:0|0:0,0:0:0:0:
372,56,48297,2,0,B|448:160,1,120,0|0,0:0|0:0,0:0:0:0:
456,192,48868,2,0,P|456:264|252:280,1,320,8|4,0:0|0:0,0:0:0:0:
144,72,50583,6,0,P|160:152|256:168,1,160,0|0,0:0|0:0,0:0:0:0:
224,96,51440,2,0,B|276:52|344:88,1,80,0|0,0:0|0:0,0:0:0:0:
448,128,52297,1,0,0:0:0:0:
456,208,52583,2,0,B|348:240,1,80,0|8,0:0|0:0,0:0:0:0:
312,276,53154,2,0,B|224:276|224:276|144:208,2,160,0|0|0,0:0|0:0|0:0,0:0:0:0:
296,196,54583,5,0,0:0:0:0:
196,72,55154,1,4,0:0:0:0:
116,56,55440,6,0,B|116:152,1,80,0|0,0:0|0:0,0:0:0:0:
72,292,56297,2,0,B|176:316|216:236|216:236|216:332,1,240,8|0,0:0|0:0,0:0:0:0:
296,308,57440,6,0,B|296:236|296:236|352:316|468:292,1,240,8|0,0:0|0:0,0:0:0:0:
480,224,58583,1,8,0:0:0:0:
404,200,58868,2,0,B|452:112|444:16|316:24|388:152|508:24,1,240,0|4,0:0|0:0,0:0:0:0:
320,144,60297,5,0,0:0:0:0:
244,124,60583,2,0,B|148:92,1,80,0|0,0:0|0:0,0:0:0:0:
96,144,61154,2,0,B|96:264,1,80,0|8,0:0|0:0,0:0:0:0:
240,292,62011,1,0,0:0:0:0:
192,140,62583,1,8,0:0:0:0:
236,208,62868,2,0,B|332:208|372:304,1,160,0|0,0:0|0:0,0:0:0:0:
432,248,63725,1,8,0:0:0:0:
392,96,64297,6,0,B|280:104,2,80,4|0|8,0:0|0:0|0:0,0:0:0:0:
472,240,65440,2,0,B|424:344,2,80,0|0|8,0:0|0:0|0:0,0:0:0:0:
440,168,66297,1,0,0:0:0:0:
360,176,66583,2,0,B|288:288|96:232|136:88,1,320,0|0,0:0|0:0,0:0:0:0:
208,96,68011,1,0,0:0:0:0:
288,80,68297,1,8,0:0:0:0:
412,180,68868,5,0,0:0:0:0:
396,260,69154,2,0,B|300:204|228:284,1,160,0|0,0:0|0:0,0:0:0:0:
216,192,70011,2,0,B|120:248|24:144,1,160,0|8,0:0|0:0,0:0:0:0:
200,96,71154,1,0,0:0:0:0:
292,96,71440,6,0,B|364:160|441:105,1,160,0|0,0:0|0:0,0:0:0:0:
368,40,72297,2,0,B|456:0|536:64,1,160,0|8,0:0|0:0,0:0:0:0:
340,212,73725,6,0,B|244:156,1,80,0|8,0:0|0:0,0:0:0:0:
216,232,74297,2,0,B|112:160,1,80,0|0,0:0|0:0,0:0:0:0:
88,240,74868,2,0,B|0:168,1,80,0|8,0:0|0:0,0:0:0:0:
112,48,75725,6,0,B|216:32|272:136,1,160,0|0,0:0|0:0,0:0:0:0:
320,152,76583,1,0,0:0:0:0:
296,232,76868,1,0,0:0:0:0:
224,272,77154,1,0,0:0:0:0:
144,256,77440,1,8,0:0:0:0:
184,104,78011,1,0,0:0:0:0:
56,192,78583,6,0,B|56:304,1,80,8|0,0:0|0:0,0:0:0:0:
136,248,79154,2,0,B|136:152,1,80,0|0,0:0|0:0,0:0:0:0:
216,152,79725,2,0,B|216:256,1,80,8|0,0:0|0:0,0:0:0:0:
296,256,80297,6,0,B|392:288|432:200,1,160,0|8,0:0|0:0,0:0:0:0:
408,128,81154,1,0,0:0:0:0:
172,76,82011,2,0,P|100:88|72:176,1,160,8|0,0:0|0:0,0:0:0:0:
216,228,83154,2,0,B|304:228,1,80,8|0,0:0|0:0,0:0:0:0:
352,172,83725,1,0,0:0:0:0:
320,96,84011,2,0,B|192:96,2,120,0|0|0,0:0|0:0|0:0,0:0:0:0:
228,228,85440,6,0,B|164:284|68:252,2,160,8|0|8,0:0|0:0|0:0,0:0:0:0:
256,152,86868,2,0,B|256:88,1,40,0|0,0:0|0:0,0:0:0:0:
256,192,87154,12,0,89440,0:0:0:0:
