osu file format v4

[General]
AudioFilename: EXILE - I Believe.mp3
AudioLeadIn: 3000
AudioHash: ba8d07c2bc81815b1ec941ebf3fc907d
PreviewTime: -1
SampleSet: Normal

[Metadata]
Title:I Believe
Artist:EXILE
Creator:Ericko Yap
Version:Insane

[Difficulty]
HPDrainRate:8
CircleSize:5
OverallDifficulty:8
SliderMultiplier: 0.4
SliderTickRate: 1

[Events]
3,0,0,0,0

[TimingPoints]
220,128.46865364851,4,1,0

[HitObjects]
64,288,38375,1,0,
96,320,38632,1,0,
192,320,39403,1,0,
224,320,39660,1,0,
256,320,39917,1,0,
288,320,40174,1,0,
320,320,40431,1,0,
416,320,40944,1,0,
448,288,41201,1,0,
352,224,41715,2,0,B|352:224|192:224,1,120
128,224,42358,1,0,
64,224,42615,2,4,B|64:224|32:160|32:129|32:128,3,80
32,96,43899,5,0,
64,64,44156,1,0,
128,32,44413,2,4,B|128:32|320:32,1,160
416,32,46212,5,0,
448,64,46469,1,0,
480,128,46982,1,0,
480,160,47239,1,0,
480,192,47496,1,0,
448,224,47753,2,4,B|448:224|320:288,1,120
224,352,48653,5,0,
160,352,49166,1,0,
96,320,49680,1,0,
32,256,50194,1,0,
32,224,50451,1,0,
32,192,50708,1,0,
32,160,50965,2,0,B|32:160|32:128|96:96,3,80
128,64,51993,5,0,
160,64,52250,1,0,
192,64,52507,1,0,
224,64,52764,1,0,
256,64,53021,2,0,B|256:64|384:64,1,120
448,64,53663,1,0,
448,96,53920,1,0,
448,160,54434,1,0,
448,192,54691,1,0,
448,224,54948,1,0,
435,262,55204,2,4,B|435:262|416:319|384:320,3,80
320,320,56489,5,0,
256,320,56746,1,0,
192,320,57003,2,4,B|192:320|32:320,1,160
32,288,58802,5,0,
32,256,59059,1,0,
32,192,59701,1,0,
32,160,59958,1,0,
32,128,60215,1,0,
32,96,60472,1,4,
128,160,61243,5,0,
192,160,61756,1,0,
256,160,62270,1,0,
352,160,62784,1,0,
384,160,63041,1,0,
384,224,63298,2,0,B|384:224|128:224,1,240
160,128,72034,5,0,
224,128,72291,5,0,
288,128,72548,1,0,
352,128,72805,1,0,
352,224,73319,1,0,
252,222,73832,1,4,
160,224,74218,1,0,
160,224,74732,1,0,
160,224,75246,1,0,
32,64,75759,5,0,
64,32,76016,1,0,
96,64,76273,2,0,B|96:64|192:64,1,80
224,32,76787,1,0,
256,64,77044,2,0,B|256:64|352:64,3,80
416,64,78072,1,0,
448,96,78329,1,0,
416,128,78586,1,0,
448,160,78843,1,0,
416,192,79100,2,4,B|416:192|448:224|480:224|480:256|480:288|480:320|480:352|448:352|416:384,1,240
384,288,80256,6,0,B|384:288|304:288,1,80
288,352,80770,1,0,
224,352,81027,1,0,
160,288,81284,2,0,B|160:288|80:288,1,80
96,224,81798,1,0,
32,224,82054,1,0,
32,160,82311,2,0,B|32:160|128:160,1,80
192,224,82825,5,0,
320,224,83082,1,0,
256,288,83339,2,0,B|256:288|256:32,1,240
416,128,84367,5,0,
352,128,84624,2,0,B|352:128|256:128,1,80
224,128,85138,2,0,B|224:128|144:128,1,80
80,128,85651,1,0,
64,224,86551,2,0,B|64:224|144:224,1,80
224,224,87065,1,4,
288,224,87322,1,0,
336,224,87580,2,0,B|336:224|416:224,1,80
256,192,88863,5,4,
224,224,89120,1,4,
256,256,89377,1,0,
288,224,89634,1,4,
320,192,89891,1,4,
288,128,90148,1,4,
224,128,90405,1,4,
160,160,90662,1,0,
160,160,90790,2,4,B|160:160|160:256,1,80
224,288,91304,2,4,B|224:288|352:288,1,120
416,256,91947,2,4,B|416:256|416:136,1,120
480,64,92589,5,0,
448,32,92846,1,0,
416,64,93103,2,0,B|416:64|336:64,1,80
288,32,93617,1,0,
256,64,93874,2,0,B|256:64|176:64,3,80
96,64,94901,1,0,
64,96,95158,1,0,
96,128,95415,1,0,
64,160,95672,1,0,
96,192,95929,2,4,B|96:192|64:224|32:224|32:256|32:288|32:320|32:352|64:352|96:384,1,240
128,288,97086,6,0,B|128:288|208:288,1,80
224,352,97600,1,0,
288,352,97857,1,0,
352,288,98114,2,0,B|352:288|432:288,1,80
416,224,98628,1,0,
480,224,98884,1,0,
480,160,99141,2,4,B|480:160|384:160,1,80
320,224,99655,5,0,
192,224,99912,1,0,
256,288,100169,2,4,B|256:288|256:32,1,240
384,32,101196,5,0,
320,32,101453,1,4,
224,32,102096,1,4,
192,32,102352,1,4,
160,32,102609,1,4,
160,96,103380,2,4,B|160:96|256:96,1,80
352,160,103894,2,4,B|352:160|272:160,1,80
160,224,104408,2,4,B|160:224|256:224,1,80
368,288,104922,2,4,B|368:288|288:288,1,80
256,352,105436,1,4,
480,128,126762,5,0,
448,96,127018,1,0,
384,64,127789,5,0,
352,64,128046,1,0,
320,64,128303,1,0,
288,64,128560,1,0,
256,64,128817,2,0,B|256:64|128:64,1,120
64,64,129459,1,0,
96,96,129716,2,0,B|96:96|96:192,1,80
64,192,130230,1,0,
32,224,130487,2,0,B|32:224|32:320,1,80
96,288,131001,2,4,B|96:288|115:345|147:346,3,80
192,320,132285,5,0,
256,320,132542,1,0,
320,320,132799,2,4,B|320:320|416:320,5,80
480,288,134598,5,0,
480,256,134855,1,0,
480,192,135497,5,0,
480,160,135754,1,0,
480,128,136011,1,0,
480,96,136268,1,4,
416,112,137039,6,0,B|416:112|416:192,1,80
352,192,137553,2,0,B|352:192|352:96,1,80
288,112,138067,2,0,B|288:112|288:192,1,80
224,160,138580,1,0,
192,224,139094,2,0,B|192:224|320:224,2,120
288,288,140122,1,4,
384,352,140379,6,0,B|384:352|160:352,1,200
128,352,141278,1,0,
64,352,141535,2,0,B|64:352|64:256,1,80
96,192,142049,1,0,
96,128,142306,1,0,
96,128,142563,2,4,B|96:128|169:56|265:56|361:56|320:256,1,360
192,192,144105,1,4,
64,96,144619,5,0,
96,64,144876,1,0,
128,64,145133,1,0,
160,64,145389,2,0,B|160:64|256:64,1,80
320,64,146289,1,0,
352,96,146546,2,0,B|352:96|352:288,2,160
448,128,147830,1,0,
448,160,148087,1,0,
448,192,148344,1,0,
448,224,148601,1,0,
416,288,149115,2,4,B|416:288|352:352|256:352|160:352|96:288,2,360
448,352,151813,5,0,
416,320,152070,2,0,B|416:320|320:320,1,80
288,352,152584,1,0,
256,320,152841,2,0,B|256:320|160:320,3,80
96,320,153869,1,0,
64,288,154126,1,0,
96,256,154383,1,0,
64,224,154640,1,0,
96,192,154897,2,4,B|96:192|64:160|32:160|32:128|32:96|32:64|32:32|64:32|96:0,1,240
128,96,156053,6,0,B|128:96|208:96,1,80
224,32,156567,1,0,
288,32,156824,1,0,
352,96,157081,2,0,B|352:96|432:96,1,80
416,160,157595,1,0,
480,160,157851,1,0,
480,224,158108,2,0,B|480:224|384:224,1,80
320,160,158622,5,0,
192,160,158879,1,0,
256,96,159136,2,0,B|256:96|256:352,1,240
96,256,160164,5,0,
160,256,160421,2,0,B|160:256|256:256,1,80
288,256,160934,2,0,B|288:256|368:256,1,80
416,256,161447,1,0,
416,160,162348,2,0,B|416:160|336:160,1,80
288,160,162862,1,4,
224,160,163119,1,0,
160,160,163377,2,0,B|160:160|80:160,1,80
256,192,164660,5,4,
288,160,164917,1,4,
256,128,165174,1,0,
224,160,165431,1,4,
192,192,165688,1,4,
224,256,165945,1,4,
288,256,166202,1,4,
352,224,166459,1,0,
352,224,166587,2,4,B|352:224|352:128,1,80
288,96,167101,2,4,B|288:96|160:96,1,120
96,128,167744,2,4,B|96:128|96:248,1,120
32,320,168386,5,0,
64,352,168643,1,0,
96,320,168900,2,0,B|96:320|176:320,1,80
224,352,169414,1,0,
256,320,169671,2,0,B|256:320|336:320,3,80
416,320,170698,1,0,
448,288,170955,1,0,
416,256,171212,1,0,
448,224,171469,1,0,
416,192,171726,2,4,B|416:192|448:160|480:160|480:128|480:96|480:64|480:32|448:32|416:0,1,240
384,96,172883,6,0,B|384:96|304:96,1,80
288,32,173397,1,0,
224,32,173654,1,0,
160,96,173911,2,0,B|160:96|80:96,1,80
96,160,174425,1,0,
32,160,174681,1,0,
32,224,174938,2,4,B|32:224|128:224,1,80
192,160,175452,5,0,
320,160,175709,1,0,
256,96,175966,2,4,B|256:96|256:352,1,240
96,352,176993,5,0,
128,352,177250,2,0,B|128:352|256:352,1,120
288,352,177893,1,4,
320,352,178149,1,4,
352,352,178406,1,4,
256,192,178920,12,4,181489
448,352,182003,2,0,B|448:352|352:352,1,80
320,320,182517,1,0,
288,352,182774,1,0,
256,320,183031,1,0,
224,352,183288,2,0,B|224:352|128:352,1,80
64,320,184059,1,0,
32,288,184315,1,0,
32,224,184829,2,4,B|32:224|32:128|64:96|96:64|128:32|224:32,1,280
256,32,185986,5,0,
256,32,186243,1,0,
320,32,186499,2,0,B|320:32|416:32,1,80
480,32,187013,2,0,B|480:32|480:128,1,80
480,160,187527,1,0,
480,224,187784,2,0,B|480:224|400:224,1,80
320,224,188298,1,0,
256,224,188683,1,0,
192,224,189069,2,0,B|192:224|96:224,1,80
128,288,189583,2,4,B|128:288|0:288,1,120
64,352,190482,6,0,B|64:352|160:352,1,80
192,320,190996,1,0,
224,352,191253,1,0,
256,320,191510,1,0,
288,352,191767,2,0,B|288:352|384:352,1,80
448,320,192538,1,0,
480,288,192794,1,0,
480,224,193308,2,4,B|480:224|480:128|448:96|416:64|384:32|288:32,1,280
256,192,194593,12,0,197676
96,96,215276,1,0,
192,96,215790,1,0,
320,96,216304,1,0,
416,96,216818,1,0,
416,192,217332,1,0,
320,192,217846,1,0,
192,192,218360,1,0,
96,192,218617,1,0,
96,192,218874,1,0,
64,288,219130,5,0,
96,288,219387,1,0,
192,288,219901,1,0,
256,288,220158,1,0,
320,288,220415,1,0,
416,288,220929,1,0,
416,288,221058,1,0,
416,288,221186,1,0,
416,192,221443,1,0,
416,192,221700,1,0,
352,192,221957,2,4,B|352:192|64:192,1,280
32,192,223113,1,4,
96,96,223370,5,0,
96,96,223627,1,0,
288,96,224141,1,0,
352,96,224398,1,0,
416,96,224655,1,4,
352,192,225425,5,4,
320,224,225682,1,4,
288,192,225939,1,4,
256,192,226196,1,4,
224,192,226453,1,4,
192,224,226710,1,4,
160,192,226967,1,4,
32,64,227352,5,0,
64,32,227609,1,0,
96,64,227866,2,0,B|96:64|192:64,1,80
224,32,228380,1,0,
256,64,228637,2,0,B|256:64|352:64,3,80
416,64,229665,1,0,
448,96,229922,1,0,
416,128,230179,1,0,
448,160,230436,1,0,
416,192,230693,2,4,B|416:192|448:224|480:224|480:256|480:288|480:320|480:352|448:352|416:384,1,240
384,288,231849,6,0,B|384:288|304:288,1,80
288,352,232363,1,0,
224,352,232620,1,0,
160,288,232877,2,0,B|160:288|80:288,1,80
96,224,233391,1,0,
32,224,233647,1,0,
32,160,233904,2,0,B|32:160|128:160,1,80
192,224,234418,5,0,
320,224,234675,1,0,
256,288,234932,2,0,B|256:288|256:32,1,240
416,128,235960,5,0,
352,128,236217,2,0,B|352:128|256:128,1,80
208,128,236731,2,0,B|208:128|128:128,1,80
96,128,237244,1,0,
96,224,238144,2,0,B|96:224|176:224,1,80
224,224,238658,1,4,
288,224,238915,1,0,
336,224,239173,2,0,B|336:224|416:224,1,80
256,192,240456,5,4,
224,224,240713,1,4,
256,256,240970,1,0,
288,224,241227,1,4,
320,192,241484,1,4,
288,128,241741,1,4,
224,128,241998,1,4,
160,160,242255,1,0,
160,160,242383,2,4,B|160:160|160:256,1,80
224,320,242897,2,4,B|224:320|352:320,1,120
416,256,243540,2,4,B|416:256|416:136,1,120
480,64,244182,5,0,
448,32,244439,1,0,
416,64,244696,2,0,B|416:64|336:64,1,80
288,32,245210,1,0,
256,64,245467,2,0,B|256:64|176:64,3,80
96,64,246494,1,0,
64,96,246751,1,0,
96,128,247008,1,0,
64,160,247265,1,0,
96,192,247522,2,4,B|96:192|64:224|32:224|32:256|32:288|32:320|32:352|64:352|96:384,1,240
128,288,248679,6,0,B|128:288|208:288,1,80
224,352,249193,1,0,
288,352,249450,1,0,
352,288,249707,2,0,B|352:288|432:288,1,80
416,224,250221,1,0,
480,224,250477,1,0,
480,160,250734,2,4,B|480:160|384:160,1,80
320,224,251248,5,0,
192,224,251505,1,0,
256,288,251762,2,4,B|256:288|256:32,1,240
416,32,252789,5,0,
384,32,253046,2,0,B|384:32|256:32,1,120
192,31,253689,1,4,
160,31,253945,1,4,
128,31,254202,1,4,
256,192,254716,12,4,257414
