osu file format v9

[General]
AudioFilename: Ib.mp3
AudioLeadIn: 1000
PreviewTime: 68964
Countdown: 0
SampleSet: Soft
StackLeniency: 0.7
Mode: 0
LetterboxInBreaks: 0

[Editor]
DistanceSpacing: 1
BeatDivisor: 4
GridSize: 4

[Metadata]
Title:Memory
Artist:EX Industry
Creator:Megurine Luka
Version:Mary
Source:Ib
Tags:kioku kouri

[Difficulty]
HPDrainRate:3
CircleSize:3
OverallDifficulty:2
ApproachRate:3
SliderMultiplier:1
SliderTickRate:1

[Events]
//Background and Video events
0,0,"BG1.jpg"
//Break Periods
2,69315,80797
2,120239,131704
//Storyboard Layer 0 (Background)
//Storyboard Layer 1 (Fail)
//Storyboard Layer 2 (Pass)
//Storyboard Layer 3 (Foreground)
//Storyboard Sound Samples
//Background Colour Transformations
3,100,163,162,255

[TimingPoints]
870,535.714285714286,3,2,1,30,1,0
11316,-100,3,2,1,20,0,0
12120,-100,3,2,1,30,0,0
24977,560.747663551402,3,2,1,30,1,0
25257,-100,3,2,1,5,0,0
26659,-100,3,2,1,30,0,0
27754,560.747663551402,3,2,1,30,1,0
28310,550.45871559633,3,2,1,30,1,0
29961,541.516245487365,3,2,1,30,1,0
41351,545.454545454546,3,2,1,30,1,0
44618,542.986425339367,3,2,1,30,1,0
47871,540.540540540541,3,2,1,30,1,0
64076,555.555555555556,3,2,1,30,1,0
66020,-100,3,2,1,5,0,0
67409,565.50424128181,3,2,1,5,1,0
69115,550.45871559633,3,2,1,30,1,0
72407,550.45871559633,3,2,1,30,1,0
75692,545.454545454546,3,2,1,30,1,0
92057,566.037735849057,3,2,1,30,1,0
92340,-100,3,2,1,5,0,0
93189,576.923076923077,3,2,1,5,1,0
95594,540.540540540541,3,2,1,30,1,0
116675,560.747663551402,3,2,1,30,1,0
120039,550.45871559633,3,2,1,30,1,0
121690,545.454545454546,3,2,1,30,1,0
141326,571.428571428571,3,2,1,30,1,0
143037,582.52427184466,3,2,1,30,1,0
144784,618.556701030928,3,2,1,30,1,0
144938,-100,3,2,1,5,0,0
145419,645.161290322581,3,2,1,5,1,0
146064,769.230769230769,3,2,1,5,1,0
146833,-100,3,2,1,15,0,0

[Colours]
Combo1 : 255,255,0
Combo2 : 255,0,0
SliderBorder : 255,255,255

[HitObjects]
112,260,870,2,0,B|124:200|192:188,1,100,2|0
272,156,1941,1,0
292,56,2477,2,0,B|352:64|364:128,2,100,2|0|0
272,156,4084,6,0,B|152:128|88:232,1,200,2|0
128,312,5691,2,0,B|248:340|312:236,1,200,2|0
368,172,7298,6,0,B|396:120|464:120,2,100,2|0|0
380,272,8905,2,0,B|316:280|284:224,1,100,2|0
224,164,9977,1,0
128,184,10512,6,0,B|124:88|224:72,2,150,2|0|2
140,284,12655,1,0
220,344,13191,1,0
320,356,13727,6,0,B|368:324|360:256,1,100,4|0
368,172,14798,1,0
276,128,15334,2,0,B|172:96|68:160,1,200,4|0
100,252,16941,6,0,B|188:196|300:236,1,200,4|0
380,284,18548,1,4
480,268,19084,2,0,B|500:204|476:156,1,100,0|0
436,80,20155,6,0,B|340:124|220:80,1,200,4|0
152,44,21762,2,0,B|92:68|100:140,2,100,4|0|0
200,132,23370,2,0,B|248:228|196:336,1,200,4|0
112,360,24977,1,4
256,192,25257,12,2,26659
428,88,28310,5,4
328,76,28860,2,0,B|324:140|376:176,1,100,0|0
412,256,29961,2,0,B|344:328|216:308,1,200,4|0
132,284,31585,5,4
212,224,32127,2,0,B|256:112|176:24,2,200,0|4|0
112,244,34834,6,0,B|84:296|128:352,2,100,4|0|0
56,160,36459,2,0,B|128:80|256:108,1,200,4|0
340,116,38083,5,4
428,160,38625,1,0
464,252,39166,1,0
436,348,39708,2,0,B|324:316|312:200,1,200,4|0
284,108,41351,6,0,B|204:112|200:188|104:192,1,200,4|0
72,100,42987,2,0,B|152:96|156:20|252:16,1,200,4|0
340,60,44618,1,4
432,236,45703,5,0
448,336,46246,2,0,B|328:324|336:200,1,200,4|0
352,104,47871,5,4
272,44,48411,1,0
192,104,48952,2,0,B|236:148|216:216,1,100,0|4
164,276,50033,2,0,B|120:232|140:164,1,100,0|0
192,104,51114,6,0,B|276:176|396:140,1,200,4|0
436,64,52735,2,0,B|488:84|480:160,2,100,4|0|0
380,144,54357,5,4
412,240,54898,2,0,B|352:260|308:212,1,100,0|0
240,160,55979,2,0,B|192:120|136:136,2,100,4|0|0
168,228,57600,5,4
140,324,58141,2,0,B|200:340|240:292,1,100,0|0
296,224,59222,2,0,B|354:216|398:266,2,100,4|0|0
212,172,60843,6,0,B|176:100|228:12,2,150,4|0|4
268,256,63006,1,0
356,300,63546,1,0
344,204,64076,6,0,B|376:156|436:164,1,100,4|0
512,116,65187,2,0,B|484:64|412:64,1,100,0|4
256,192,66020,12,4,69115
100,308,82237,6,0,B|152:296|164:220,1,100,4|0
188,140,83328,1,0
260,72,83873,2,0,B|312:48|368:76,2,100,4|0|0
188,140,85510,5,4
284,164,86055,2,0,B|356:252|296:372,1,200,0|4
216,308,87692,1,0
116,312,88237,1,0
156,220,88782,6,0,B|220:120|148:16,1,200,4|0
64,68,90419,1,4
40,164,90964,1,0
68,260,91510,1,0
148,320,92057,1,4
256,192,92340,12,0,93765
256,196,95594,5,4
356,180,96134,2,0,B|352:124|292:100,1,100,0|0
208,68,97215,2,0,B|168:172|44:192,1,200,4|0
40,288,98837,5,4
88,376,99377,2,0,B|140:360|144:284,1,100,0|0
184,208,100458,2,0,B|288:180|380:248,1,200,4|0
412,336,102080,6,0,B|464:320|480:256,1,100,4|0
484,164,103161,1,0
436,76,103702,2,0,B|384:92|332:56,2,100,4|0|0
484,164,105323,6,0,B|456:272|336:304,1,200,4|0
268,240,106945,2,0,B|244:188|176:184,2,100,4|0|0
180,288,108566,6,0,B|132:316|68:292|48:228,1,150,4|0
4,240,109648,2,0,B|40:200|28:128,2,100,0|4|0
4,340,111269,1,0
100,312,111810,6,0,B|192:280|300:300,1,200,4|0
396,316,113431,2,0,B|448:336|504:308,2,100,4|0|0
440,224,115053,6,0,B|512:156|497:37,1,200,4|0
404,56,116675,2,0,B|368:92|308:88,2,100,4|0|0
476,124,118357,2,0,B|405:200|283:179,1,200,4|0
196,156,120039,5,4
112,124,133144,6,0,B|124:184|192:196,1,100,4|0
272,228,134235,1,0
308,320,134780,2,0,B|364:308|372:244,2,100,4|0|0
272,228,136417,6,0,B|208:140|76:152,2,200,4|0|0
348,160,139144,1,0
376,256,139690,6,0,B|404:308|472:308,2,100,4|0|0
384,160,141326,2,0,B|320:152|288:208,1,100,4|0
240,280,142468,1,0
164,340,143037,6,0,B|48:335|8:225,1,200,4|0
48,144,144784,1,4
256,192,144938,12,4,146833
