osu file format v9

[General]
AudioFilename: Ib.mp3
AudioLeadIn: 1000
PreviewTime: 68964
Countdown: 0
SampleSet: Soft
StackLeniency: 0.6
Mode: 0
LetterboxInBreaks: 0

[Editor]
Bookmarks: 27754,41351
DistanceSpacing: 1
BeatDivisor: 4
GridSize: 4

[Metadata]
Title:Memory
Artist:EX Industry
Creator:Megurine Luka
Version:Ib
Source:Ib
Tags:kioku kouri

[Difficulty]
HPDrainRate:6
CircleSize:4
OverallDifficulty:6
ApproachRate:7
SliderMultiplier:1.6
SliderTickRate:1

[Events]
//Background and Video events
0,0,"BG3.jpg"
//Break Periods
//Storyboard Layer 0 (Background)
//Storyboard Layer 1 (Fail)
//Storyboard Layer 2 (Pass)
//Storyboard Layer 3 (Foreground)
//Storyboard Sound Samples
//Background Colour Transformations
3,100,163,162,255

[TimingPoints]
870,535.714285714286,3,2,1,30,1,0
24977,560.747663551402,3,2,1,30,1,0
27754,560.747663551402,3,2,1,30,1,0
28310,550.45871559633,3,2,1,30,1,0
29961,541.516245487365,3,2,1,30,1,0
41351,545.454545454546,3,2,1,30,1,0
44618,542.986425339367,3,2,1,30,1,0
47871,540.540540540541,3,2,1,30,1,0
64076,555.555555555556,3,2,1,30,1,0
67409,565.50424128181,3,2,1,30,1,0
69115,550.45871559633,3,2,1,30,1,0
72407,550.45871559633,3,2,1,30,1,0
75692,545.454545454546,3,2,1,30,1,0
92057,566.037735849057,3,2,1,30,1,0
93189,576.923076923077,3,2,1,30,1,0
95594,540.540540540541,3,2,1,30,1,0
116675,560.747663551402,3,2,1,30,1,0
120039,550.45871559633,3,2,1,30,1,0
121690,545.454545454546,3,2,1,30,1,0
141326,571.428571428571,3,2,1,30,1,0
143037,582.52427184466,3,2,1,30,1,0
144784,618.556701030928,3,2,1,30,1,0
144938,-100,3,2,1,5,0,0
145419,645.161290322581,3,2,1,5,1,0
146064,769.230769230769,3,2,1,5,1,0
146833,-100,3,2,1,15,0,0

[Colours]
Combo1 : 255,255,0
Combo2 : 255,0,0
Combo3 : 128,128,192
SliderBorder : 255,255,255

[HitObjects]
72,312,870,2,0,B|104:280|88:224,1,80,2|0
32,192,1405,2,0,B|104:232|192:200,1,160,0|0
264,168,2209,1,0
232,100,2477,2,0,B|228:148|276:176,1,80,2|0
276,248,3012,2,0,B|324:240|344:188,2,80,0|0|0
448,344,4084,6,0,B|448:252,1,80,2|0
512,232,4620,2,0,B|442:282|361:236,1,160,0|0
288,204,5423,1,0
144,280,5691,2,0,B|188:296|236:252,1,80,2|0
332,364,6227,2,0,B|292:336|292:280,1,80,0|0
288,204,6762,1,0
196,72,7298,5,2
116,56,7566,1,0
196,72,7834,2,0,B|188:124|124:132,1,80,0|0
76,160,8370,6,0,B|172:160|208:72,1,160,0|2
284,64,9173,1,0
260,140,9441,2,0,B|312:152|344:112,2,80,0|0|0
116,324,10512,5,2
184,280,10780,1,0
280,280,11048,2,0,B|236:304|184:276,1,80,0|0
160,296,11584,2,0,B|240:336|316:292,1,160,0|2
388,268,12387,1,0
416,192,12655,2,0,B|468:208|468:268,2,80,0|0|0
256,36,13727,5,4
196,88,13995,1,0
312,96,14262,1,2
228,164,14530,1,0
376,156,14798,1,0
264,240,15066,1,0
392,296,15334,5,4
376,156,15602,1,0
292,208,15870,1,2
436,276,16137,1,0
416,136,16405,1,0
308,252,16673,1,0
432,320,16941,6,0,B|484:328|512:276,1,80,4|0
440,244,17477,2,0,B|468:216|456:164,1,80,2|0
380,192,18012,2,0,B|388:144|352:112,1,80,0|0
299,171,18548,2,0,B|264:80|152:72,2,160,4|2|0
92,312,20155,6,0,B|148:248,1,80,4|0
68,188,20691,2,0,B|164:168,1,80,2|0
132,76,21227,2,0,B|212:116,1,80,0|0
276,24,21762,2,0,B|268:116|340:160,1,160,4|2
412,288,22566,1,0
324,216,22834,5,0
484,200,23102,1,0
324,216,23370,2,0,B|356:144,1,80,4|0
484,200,23905,2,0,B|432:128,1,80,2|0
388,72,24441,1,0
388,72,24977,5,4
256,192,25117,12,2,26659
256,192,27754,6,0,B|256:112,1,80,0|0
256,192,28310,1,4
180,220,28585,1,0
244,268,28860,1,0
320,244,29135,1,0
388,200,29410,1,0
468,208,29686,1,0
440,137,29961,2,0,B|476:161|468:213,1,80,4|0
500,280,30502,2,0,B|447:298|373:258|391:170,1,160,0|0
97,177,31585,6,0,B|141:166|153:124,1,80,4|0
188,52,32127,1,0
108,58,32397,1,0
32,216,32668,2,0,B|124:208|164:100,1,160,0|4
188,52,33480,2,0,B|232:68|236:120,1,80,0|0
279,176,34022,2,0,B|248:204|204:184,1,80,0|0
404,352,34834,6,0,B|448:328|440:268,1,80,4|0
396,180,35376,2,0,B|352:204|360:264,1,80,0|0
296,328,35917,2,0,B|256:348|216:328,1,80,0|0
72,368,36459,2,0,B|152:336|156:228,1,160,4|0
78,249,37271,2,0,B|126:265|182:225,1,80,0|0
256,84,38083,5,4
336,84,38354,1,0
396,136,38625,2,0,B|364:184|296:152,1,80,0|0
184,168,39166,2,0,B|200:212|264:216,1,80,0|0
412,272,39708,2,0,B|348:340|244:288,1,160,4|0
184,288,40520,1,0
132,348,40791,1,0
152,220,41062,1,0
260,304,41351,6,0,B|316:312|336:260,1,80,4|0
348,192,41896,1,2
468,276,42169,1,0
344,328,42441,1,0
388,264,42714,1,0
300,260,42987,5,4
424,160,43260,1,0
344,328,43532,1,2
344,328,43805,1,0
300,260,44078,1,0
424,160,44351,1,0
276,112,44618,6,0,B|280:72|324:48,1,80,4|0
424,160,45160,2,0,B|420:200|376:224,1,80,2|0
248,204,45703,2,0,B|228:164|256:116,1,80,0|0
408,64,46246,2,0,B|428:104|400:152,1,80,4|0
476,260,46789,2,0,B|424:280|392:216,2,80,2|0|0
364,100,47871,6,0,B|312:168|228:180,1,160,4|2
152,184,48681,1,0
136,104,48952,1,0
96,248,49222,1,0
236,216,49492,1,4
304,172,49762,1,0
384,168,50033,1,2
232,136,50303,1,0
284,280,50573,1,0
320,88,50843,1,0
240,212,51114,6,0,B|280:212|308:168,1,80,4|0
316,184,51654,2,0,B|256:252|176:252,1,160,2|0
96,256,52465,1,0
136,192,52735,2,0,B|136:240|96:256,1,80,4|0
52,192,53276,1,2
200,144,53546,1,0
96,256,53816,1,0
200,144,54357,5,4
196,64,54627,1,0
268,96,54898,1,2
200,144,55168,1,0
352,44,55438,1,0
360,220,55708,1,0
128,108,55979,6,0,B|104:152|136:192,1,80,4|0
196,240,56519,2,0,B|228:208|280:228,1,80,2|0
196,240,57060,1,0
128,108,57330,1,0
196,240,57600,6,0,B|272:204,1,80,4|0
196,240,58141,1,2
316,304,58411,1,0
436,204,58681,1,0
276,144,58952,1,0
276,224,59222,5,4
392,344,59492,1,0
316,304,59762,1,2
456,276,60033,1,0
392,344,60303,1,0
440,196,60573,1,0
440,196,60843,2,0,B|468:112,1,80,4|0
456,200,61384,6,0,B|508:44,1,160,2|0
456,200,62195,1,0
428,276,62465,1,4
356,308,62735,1,0
428,276,63006,1,2
316,240,63276,1,0
428,276,63546,1,0
368,148,63816,1,0
368,148,64076,5,4
288,164,64353,1,0
368,148,64631,1,2
280,60,64909,1,0
368,148,65187,1,0
388,16,65464,1,0
496,104,65742,5,4
496,104,66020,1,0
428,148,66298,1,0
424,68,66576,1,0
496,104,66853,1,0
496,184,67131,1,0
424,228,67409,1,0
340,200,67691,5,0
256,180,67974,1,0
156,144,68257,1,0
52,200,68540,1,0
76,316,68822,1,0
196,324,69115,5,4
196,324,70215,2,0,B|196:228,1,80,0|0
196,324,70766,1,4
272,344,71041,1,0
340,300,71316,1,0
352,216,71592,1,0
352,216,71867,2,0,B|352:120,1,80,0|0
352,216,72407,5,4
280,172,72957,5,0
244,100,73507,5,0
244,100,73783,1,0
244,100,74058,2,0,B|192:104|160:68,1,80,4|0
104,132,74608,2,0,B|164:192|252:184,1,160,0|0
336,184,75434,1,0
400,236,75692,5,4
400,236,75964,1,0
344,296,76237,1,0
460,184,76510,1,0
324,216,76782,1,0
476,264,77055,1,0
384,156,77328,5,4
400,236,77601,1,0
416,316,77873,1,0
344,296,78146,1,0
268,292,78419,2,0,B|224:288|184:304,1,80,0|0
112,320,78964,6,0,B|184:281|272:284,1,160,4|0
320,224,79782,1,0
308,144,80055,2,0,B|360:132|392:176,1,80,0|0
400,240,80601,1,4
348,300,80873,1,0
428,316,81146,1,0
452,180,81419,1,0
320,224,81692,1,0
56,268,82237,6,0,B|96:248|104:192,1,80,4|0
172,164,82782,1,0
56,268,83055,1,0
24,196,83328,1,0
208,236,83601,1,0
128,232,83873,1,4
124,148,84146,1,0
176,84,84419,6,0,B|204:44|256:48,1,80,0|0
340,92,84964,2,0,B|316:132|260:128,1,80,0|0
244,204,85510,1,4
300,260,85782,1,0
372,228,86055,1,0
280,332,86328,1,0
300,260,86601,1,0
444,256,86873,1,0
368,152,87146,5,4
220,160,87419,1,0
296,188,87692,1,0
192,88,87964,1,0
172,224,88237,1,0
288,336,88782,6,0,B|260:372|200:364,1,80,4|0
120,328,89328,2,0,B|208:352|272:288,1,160,0|0
267,291,90146,1,0
284,212,90419,2,0,B|332:216|352:272,1,80,4|0
420,224,90964,2,0,B|448:272|408:324,1,80,0|0
504,312,91510,2,0,B|504:368|444:384,1,80,0|0
384,380,92057,6,0,B|420:220,1,160,4|0
384,152,92906,1,0
308,176,93189,2,0,B|216:212,2,80,0|0|0
308,176,95594,6,0,B|264:252|148:240,1,160,4|2
92,236,96404,1,0
80,156,96675,2,0,B|68:64,1,80,0|0
4,124,97215,2,0,B|92:152|156:92,1,160,4|2
228,64,98026,1,0
308,76,98296,1,0
404,228,98837,6,0,B|384:272|336:276,1,80,4|0
264,292,99377,1,2
176,176,99648,1,0
152,264,99918,1,0
320,360,100188,1,0
200,352,100458,1,4
152,264,100729,1,0
264,292,100999,1,2
176,176,101269,1,0
328,152,101539,1,0
124,48,102080,6,0,B|76:40|44:80,1,80,4|0
124,48,102621,1,2
108,128,102891,1,0
204,40,103161,1,0
92,208,103431,1,0
244,112,103702,1,4
204,40,103972,1,0
244,112,104242,2,0,B|288:144|336:128,1,80,2|0
316,212,104783,2,0,B|332:260|392:272,1,80,0|0
376,344,105323,6,0,B|376:260|460:208,1,160,4|2
453,212,106134,1,0
416,140,106404,2,0,B|464:120|500:148,2,80,0|0|4
316,264,107485,5,2
252,312,107756,1,0
176,328,108026,1,0
252,312,108296,1,0
376,208,108566,6,0,B|412:180|408:112,1,80,4|0
328,140,109107,2,0,B|332:80|296:56,1,80,2|0
244,116,109648,2,0,B|208:88|152:104,1,80,0|0
148,24,110188,2,0,B|188:104|140:184,1,160,4|2
104,244,110999,1,0
24,244,111269,2,0,B|24:296|80:320,1,80,0|0
120,364,111810,6,0,B|140:316|188:304,1,80,4|0
248,280,112350,1,2
328,156,112621,1,0
248,192,112891,1,0
392,216,113161,1,0
372,295,113431,2,0,B|332:288|316:244,1,80,4|0
396,372,113972,2,0,B|440:356|448:312,2,80,2|0|0
256,188,115053,5,4
192,236,115323,1,0
112,252,115594,2,0,B|88:164,1,80,2|0
20,136,116134,2,0,B|112:156|164:80,1,160,0|4
240,64,116955,1,0
256,144,117235,2,0,B|308:128|316:76,2,80,2|0|0
348,364,118357,1,4
408,312,118637,1,0
488,300,118917,2,0,B|512:252|492:216,1,80,2|0
463,154,119478,6,0,B|439:206|443:270|495:306,1,160,0|4
428,356,120314,1,0
364,308,120589,2,0,B|316:292|260:316,1,80,0|0
144,232,121139,2,0,B|192:248|248:224,1,80,0|0
296,188,121690,2,0,B|344:104|300:20,1,160,0|0
306,34,122508,1,0
306,34,122780,1,0
160,120,123326,6,0,B|120:144|68:132,1,80,4|0
184,264,123871,2,0,B|187:217|226:181,1,80,0|0
52,212,124417,2,0,B|88:241|94:294,1,80,0|0
56,348,124962,2,0,B|96:268|192:264,1,160,0|0
264,276,125780,1,0
264,276,126053,1,0
460,264,126599,6,0,B|504:180,1,80,4|0
420,168,127144,1,0
400,44,127417,1,0
352,116,127690,1,0
472,96,127962,1,0
420,168,128235,2,0,B|388:208|328:196,1,80,0|0
272,228,128780,2,0,B|288:184|260:124,1,80,0|0
244,72,129326,1,0
244,72,129871,6,0,B|200:152|272:236,1,160,4|0
280,300,130690,1,0
232,364,130962,2,0,B|192:328|208:280,1,80,0|0
160,208,131508,2,0,B|112:288|12:272,1,160,0|0
160,208,132326,1,0
240,216,132599,1,0
352,32,133144,6,0,B|400:36|416:92,1,80,4|0
444,152,133690,1,0
364,140,133962,1,0
411,78,134235,1,0
480,224,134508,1,0
312,200,134780,5,4
411,78,135053,1,0
364,140,135326,1,0
444,152,135599,1,0
411,78,135871,1,0
260,260,136144,1,0
512,292,136417,5,4
411,78,136690,1,0
444,152,136962,1,0
364,140,137235,1,0
411,78,137508,1,0
480,224,137780,1,0
312,200,138053,5,4
411,78,138326,1,0
332,68,138599,1,0
252,80,138871,2,0,B|204:88|168:40,1,80,0|0
104,196,139690,6,0,B|152:184|176:124,1,80,4|0
244,160,140235,1,0
304,212,140508,1,0
228,240,140780,1,0
260,80,141053,1,0
380,192,141326,5,4
228,240,141611,1,0
244,160,141897,1,0
304,212,142183,1,0
228,240,142468,1,0
228,240,143037,5,4
172,296,143328,1,0
100,332,143619,2,0,B|54:355|10:336,1,80,0|0
100,332,144202,1,0
172,296,144493,1,0
228,240,144784,1,4
256,192,144938,12,4,146833
