osu file format v9

[General]
AudioFilename: Ib.mp3
AudioLeadIn: 1000
PreviewTime: 68964
Countdown: 0
SampleSet: Soft
StackLeniency: 0.7
Mode: 0
LetterboxInBreaks: 0

[Editor]
DistanceSpacing: 1
BeatDivisor: 4
GridSize: 4

[Metadata]
Title:Memory
Artist:EX Industry
Creator:Megurine Luka
Version:Garry
Source:Ib
Tags:kioku kouri

[Difficulty]
HPDrainRate:4
CircleSize:3
OverallDifficulty:4
ApproachRate:5
SliderMultiplier:1.3
SliderTickRate:1

[Events]
//Background and Video events
0,0,"BG2.jpg"
//Break Periods
2,65942,67915
2,82437,94394
2,120239,131944
//Storyboard Layer 0 (Background)
//Storyboard Layer 1 (Fail)
//Storyboard Layer 2 (Pass)
//Storyboard Layer 3 (Foreground)
//Storyboard Sound Samples
//Background Colour Transformations
3,100,163,162,255

[TimingPoints]
870,535.714285714286,3,2,1,30,1,0
24977,560.747663551402,3,2,1,30,1,0
25257,-100,3,2,1,5,0,0
26659,-100,3,2,1,30,0,0
27754,560.747663551402,3,2,1,30,1,0
28310,550.45871559633,3,2,1,30,1,0
29961,541.516245487365,3,2,1,30,1,0
41351,545.454545454546,3,2,1,30,1,0
44618,542.986425339367,3,2,1,30,1,0
47871,540.540540540541,3,2,1,30,1,0
64076,555.555555555556,3,2,1,30,1,0
67409,565.50424128181,3,2,1,30,1,0
69115,550.45871559633,3,2,1,30,1,0
72407,550.45871559633,3,2,1,30,1,0
75692,545.454545454546,3,2,1,30,1,0
92057,566.037735849057,3,2,1,30,1,0
93189,576.923076923077,3,2,1,30,1,0
95594,540.540540540541,3,2,1,30,1,0
116675,560.747663551402,3,2,1,30,1,0
120039,550.45871559633,3,2,1,30,1,0
121690,545.454545454546,3,2,1,30,1,0
141326,571.428571428571,3,2,1,30,1,0
143037,582.52427184466,3,2,1,30,1,0
144784,618.556701030928,3,2,1,30,1,0
144938,-100,3,2,1,5,0,0
145419,645.161290322581,3,2,1,5,1,0
146064,769.230769230769,3,2,1,5,1,0
146833,-100,3,2,1,15,0,0

[Colours]
Combo1 : 128,128,192
Combo2 : 255,0,0
SliderBorder : 255,255,255

[HitObjects]
352,296,870,1,2
300,176,1405,2,0,B|372:140|436:196,2,130,0|0|2
240,200,2745,1,0
188,240,3012,2,0,B|112:208|120:120,1,130,0|0
196,36,4084,5,2
196,36,4352,1,0
196,36,4620,2,0,B|240:92|328:80,1,130,0|0
440,60,5691,2,0,B|463:130|399:174,1,130,2|0
400,173,6762,1,0
412,304,7298,6,0,B|340:336|272:296,1,130,2|0
224,288,8102,1,0
160,296,8370,2,0,B|188:232|160:168,1,130,0|2
112,48,9441,1,0
240,60,9977,1,0
348,132,10512,6,0,B|388:68|480:68,2,130,2|0|0
296,252,12120,1,2
196,336,12655,2,0,B|168:312|168:268,2,65,0|0|2
296,252,13727,6,0,B|328:188|304:116,1,130,4|2
188,172,14798,1,0
104,272,15334,2,0,B|68:252|60:196,1,65,4|0
32,164,15870,2,0,B|76:108|44:32,1,130,2|0
176,60,16941,6,0,B|236:100|320:72,1,130,4|2
428,108,18012,1,0
464,232,18548,2,0,B|416:292,2,65,4|0|2
432,176,19352,2,0,B|484:112,1,65,0|0
368,48,20155,5,4
272,136,20691,1,2
148,180,21227,2,0,B|80:192|12:138,1,130,0|4
112,52,22298,1,2
148,180,22834,5,2
208,204,23102,1,0
272,208,23370,1,4
352,308,23905,2,0,B|420:276|412:184,1,130,2|0
408,76,24977,1,4
256,192,25257,12,2,26659
256,324,27754,6,0,B|256:244,1,65,0|0
256,192,28310,1,4
176,88,28860,1,0
176,88,29410,1,0
176,88,29961,6,0,B|256:40,1,65,4|0
288,84,30502,2,0,B|340:124,2,65,0|0|0
224,196,31585,6,0,B|220:280|296:320,1,130,4|0
224,196,32668,1,0
96,164,33210,2,0,B|112:120|156:108,1,65,4|0
196,92,33751,2,0,B|240:100|264:76,2,65,0|0|0
304,164,34834,6,0,B|368:200|452:164,1,130,4|0
456,300,35917,2,0,B|432:340|388:344,1,65,0|0
344,356,36459,2,0,B|328:316|284:304,1,65,4|0
236,320,37000,2,0,B|192:328|148:292,2,65,0|0|0
256,192,38083,5,4
340,92,38625,1,0
340,92,39166,2,0,B|376:88|404:108,2,65,0|0|4
212,120,40249,2,0,B|160:180|88:176,1,130,0|0
156,296,41351,5,4
280,336,41896,2,0,B|336:292|424:324,1,130,2|0
468,336,42714,1,0
468,336,42987,1,4
456,208,43532,2,0,B|440:152|440:120,2,65,2|0|0
456,208,44351,1,0
400,240,44618,6,0,B|328:236|264:296,1,130,4|2
172,352,45703,1,0
64,280,46246,2,0,B|92:208|48:144,2,130,4|2|0
184,232,47871,5,4
184,232,48411,2,0,B|260:184,1,65,2|0
220,136,48952,2,0,B|280:180|356:156,1,130,0|4
404,140,49762,1,0
448,92,50033,2,0,B|484:88|516:112,2,65,2|0|0
444,240,51114,6,0,B|416:308|328:320,1,130,4|2
220,348,52195,2,0,B|232:300|216:276,1,65,0|0
208,220,52735,1,4
156,100,53276,1,2
284,116,53816,1,0
384,32,54357,6,0,B|444:80|412:168,1,130,4|2
388,280,55438,1,0
388,280,55708,1,0
388,280,55979,2,0,B|316:252|252:280,1,130,4|2
200,296,56789,1,0
136,308,57060,2,0,B|84:264|100:180,1,130,0|4
108,60,58141,5,2
108,60,58411,1,0
108,60,58681,2,0,B|184:92,1,65,0|0
180,148,59222,2,0,B|256:72|384:88,1,195,4|0
420,68,60303,2,0,B|468:144,1,65,0|0
492,176,60843,6,0,B|440:232|472:324,1,130,4|2
464,297,61654,1,0
412,336,61925,2,0,B|356:284,1,65,0|0
316,248,62465,2,0,B|281:221|281:221|233:225|204:177,1,130,4|2
155,64,63546,1,0
40,104,64076,6,0,B|60:172|136:184,1,130,4|2
264,184,65187,2,0,B|312:176|348:220,2,65,0|0|4
256,344,69115,5,4
168,248,69665,2,0,B|212:196|296:216,2,130,0|0|4
428,244,71867,1,0
428,244,72407,2,0,B|444:168|424:100,2,130,4|0|0
340,340,74058,2,0,B|284:288|200:304,1,130,4|0
92,312,75159,1,0
92,312,75692,5,4
200,76,76782,2,0,B|268:88|296:160,2,130,0|4|0
176,204,78419,1,0
224,324,78964,2,0,B|280:272|360:292,1,130,4|0
408,288,79782,1,0
408,288,80055,2,0,B|372:224|412:148,1,130,0|4
432,36,81146,5,0
432,36,81692,1,0
432,36,82237,1,4
84,316,95594,6,0,B|128:260|208:272,1,130,4|2
264,280,96404,1,0
324,256,96675,2,0,B|348:320,1,65,0|0
400,352,97215,2,0,B|484:360,1,65,4|0
488,296,97756,2,0,B|516:228,1,65,2|0
492,176,98296,2,0,B|472:104,1,65,0|0
460,48,98837,6,0,B|424:112|320:112,1,130,4|2
288,116,99648,1,0
228,88,99918,2,0,B|184:152,1,65,0|0
128,128,100458,2,0,B|120:208|52:248,2,130,4|2|0
224,216,102080,5,4
312,312,102621,2,0,B|348:256,1,65,2|0
344,192,103161,2,0,B|404:164,1,65,0|0
464,144,103702,1,4
368,56,104242,1,2
248,108,104783,1,0
124,144,105323,6,0,B|140:216|220:240,1,130,4|2
244,288,106134,1,0
260,352,106404,2,0,B|312:304|400:320,1,130,0|4
460,216,107485,1,2
428,160,107756,1,0
416,96,108026,1,0
428,32,108296,1,0
428,32,108566,6,0,B|368:76|292:64,1,130,4|2
240,64,109377,1,0
184,36,109648,2,0,B|152:108,1,65,0|0
92,84,110188,2,0,B|120:156|100:240,1,130,4|2
84,340,111269,6,0,B|124:352|168:320,1,65,0|0
208,360,111810,2,0,B|248:304|328:296,1,130,4|2
380,296,112621,1,0
444,304,112891,2,0,B|480:244|460:176,1,130,0|4
440,48,113972,1,2
380,76,114242,1,0
316,76,114512,1,0
220,164,115053,6,0,B|164:248|40:236,1,195,4|0
32,300,116134,2,0,B|20:364,1,65,0|0
20,363,116675,1,4
144,328,117235,1,2
276,332,117796,1,0
404,356,118357,6,0,B|456:280|444:168,1,195,4|0
444,169,119478,1,2
428,36,120039,1,4
256,192,133144,5,4
256,192,134235,2,0,B|256:112,2,65,0|0|4
256,192,135871,2,0,B|256:44,1,130,0|4
28,192,137508,5,0
48,320,138053,2,0,B|128:316|144:232,1,130
28,192,139144,1,0
64,68,139690,6,0,B|140:76|148:156,1,130,4|0
220,256,140780,1,0
220,256,141326,2,0,B|252:184|336:184,1,130,4|0
452,180,142468,1,0
452,180,143037,5,4
192,180,144202,2,0,B|120:180,2,65,0|0|4
256,192,144938,12,4,146833
