osu file format v12

[General]
AudioFilename: Ib_Memory.mp3
AudioLeadIn: 1000
PreviewTime: 41360
Countdown: 0
SampleSet: Soft
StackLeniency: 0.6
Mode: 0
LetterboxInBreaks: 0
WidescreenStoryboard: 0

[Editor]
DistanceSpacing: 1
BeatDivisor: 2
GridSize: 4

[Metadata]
Title:Memory
TitleUnicode:Memory
Artist:EX Industry
ArtistUnicode:EX Industry
Creator:Andrea
Version:Easy
Source:Ib
Tags:osuplayer111 garry mary game eve rose kioku kouri remix
BeatmapID:327799
BeatmapSetID:129734

[Difficulty]
HPDrainRate:2
CircleSize:3
OverallDifficulty:2
ApproachRate:3
SliderMultiplier:1
SliderTickRate:1

[Events]
//Background and Video events
0,0,"BG.jpg",0,0
//Break Periods
//Storyboard Layer 0 (Background)
//Storyboard Layer 1 (Fail)
//Storyboard Layer 2 (Pass)
//Storyboard Layer 3 (Foreground)
//Storyboard Sound Samples
//Background Colour Transformations
3,100,255,255,255

[TimingPoints]
855,536.193029490617,3,2,1,30,1,0
16940,534.75935828877,3,2,1,30,1,0
24961,560.747663551402,3,2,1,30,1,0
28318,541.27198917456,3,2,1,50,1,0
38060,548.446069469835,3,2,1,50,1,0
41350,541.27198917456,3,2,1,70,1,0
64083,545.454545454546,3,2,1,70,1,0
65730,550.45871559633,3,2,1,70,1,0
67656,-100,3,2,1,30,0,0
69115,548.446069469835,3,2,1,50,1,0

[Colours]
Combo1 : 213,213,0
Combo2 : 213,0,0
Combo3 : 0,106,213

[HitObjects]
80,60,855,1,2,0:0:0:0:
132,144,1391,1,0,0:0:0:0:
232,144,1927,1,0,0:0:0:0:
284,60,2463,2,0,P|384:60|460:124,1,200,2|0,0:0|0:0,0:0:0:0:
496,212,4072,6,0,P|496:261|469:302,1,100,2|0,0:0|0:0,0:0:0:0:
372,324,5144,1,0,0:0:0:0:
272,304,5680,2,0,P|168:304|92:240,1,200,2|0,0:0|0:0,0:0:0:0:
36,164,7289,6,0,L|112:100,1,100,2|0,0:0|0:0,0:0:0:0:
204,140,8361,1,0,0:0:0:0:
192,40,8897,2,0,P|292:40|372:96,1,200,2|0,0:0|0:0,0:0:0:0:
440,168,10506,5,2,0:0:0:0:
460,268,11042,2,0,B|364:268|364:212|264:212,1,200,0|2,0:0|0:0,0:0:0:0:
192,272,12651,1,0,0:0:0:0:
116,208,13187,1,0,0:0:0:0:
192,144,13723,6,0,P|292:144|368:84,1,200,2|0,0:0|0:0,0:0:0:0:
452,140,15332,1,2,0:0:0:0:
452,240,15868,2,0,P|400:240|360:268,1,100,0|0,0:0|0:0,0:0:0:0:
280,324,16940,5,2,0:0:0:0:
188,364,17474,2,0,P|147:337|98:338,1,100,0|0,0:0|0:0,0:0:0:0:
4,300,18544,1,2,0:0:0:0:
16,200,19079,6,0,P|16:100|84:28,1,200,0|2,0:0|0:0,0:0:0:0:
180,44,20683,1,0,0:0:0:0:
256,108,21218,1,0,0:0:0:0:
332,44,21752,2,0,P|424:84|424:176,1,200,2|0,0:0|0:0,0:0:0:0:
376,260,23357,5,2,0:0:0:0:
306,330,23891,1,0,0:0:0:0:
206,330,24426,1,0,0:0:0:0:
136,260,24961,2,0,L|72:184,1,100,2|0,0:0|0:0,0:0:0:0:
164,144,26082,2,0,L|100:68,1,100,0|2,0:0|0:0,0:0:0:0:
296,44,27764,5,0,0:0:0:0:
388,88,28318,2,0,P|440:88|480:112,1,100,4|0,0:0|0:0,0:0:0:0:
464,212,29400,1,0,0:0:0:0:
376,260,29941,2,0,P|276:260|200:324,1,200,2|0,0:0|0:0,0:0:0:0:
108,284,31565,6,0,L|28:216,1,100,2|0,0:0|0:0,0:0:0:0:
20,120,32648,1,0,0:0:0:0:
92,52,33189,2,0,P|192:52|256:124,1,200,2|0,0:0|0:0,0:0:0:0:
352,100,34813,6,0,L|396:200,1,100,2|0,0:0|0:0,0:0:0:0:
424,284,35895,1,0,0:0:0:0:
324,264,36437,2,0,P|224:264|152:328,1,200,2|0,0:0|0:0,0:0:0:0:
52,324,38060,5,2,0:0:0:0:
0,236,38608,1,0,0:0:0:0:
52,152,39156,1,0,0:0:0:0:
152,152,39705,2,0,P|252:152|320:80,1,200,2|0,0:0|0:0,0:0:0:0:
408,20,41350,6,0,L|472:96,1,100,4|0,0:0|0:0,0:0:0:0:
444,192,42432,1,0,0:0:0:0:
472,288,42973,2,0,P|384:348|288:348,1,200,2|0,0:0|0:0,0:0:0:0:
220,280,44597,6,0,P|168:280|128:256,1,100,2|0,0:0|0:0,0:0:0:0:
80,168,45680,1,0,0:0:0:0:
60,68,46221,2,0,P|164:68|252:20,1,200,2|0,0:0|0:0,0:0:0:0:
348,24,47845,6,0,L|432:84,1,100,2|0,0:0|0:0,0:0:0:0:
508,140,48927,1,0,0:0:0:0:
436,208,49469,2,0,L|296:356,1,200,2|0,0:0|0:0,0:0:0:0:
220,292,51092,5,2,0:0:0:0:
140,352,51634,2,0,P|88:352|48:324,1,100,0|0,0:0|0:0,0:0:0:0:
48,224,52716,2,0,P|48:124|112:48,1,200,2|0,0:0|0:0,0:0:0:0:
208,48,54340,6,0,L|312:48,1,100,4|0,0:0|0:0,0:0:0:0:
408,48,55423,1,0,0:0:0:0:
476,120,55964,2,0,B|476:224|476:224|420:304,1,200,2|0,0:0|0:0,0:0:0:0:
356,228,57588,6,0,L|296:320,1,100,2|0,0:0|0:0,0:0:0:0:
200,332,58670,1,0,0:0:0:0:
100,312,59211,2,0,P|24:236|24:144,1,200,2|0,0:0|0:0,0:0:0:0:
68,60,60835,6,0,P|120:60|160:36,1,100,2|0,0:0|0:0,0:0:0:0:
256,60,61918,1,0,0:0:0:0:
352,36,62459,2,0,P|452:36|508:112,1,200,2|0,0:0|0:0,0:0:0:0:
452,192,64083,5,2,0:0:0:0:
444,292,64628,2,0,P|392:292|352:320,1,100,0|0,0:0|0:0,0:0:0:0:
256,360,65719,1,2,0:0:0:0:
158,318,66280,2,0,P|117:291|68:292,1,100,0|0,0:0|0:0,0:0:0:0:
60,192,67381,1,2,0:0:0:0:
256,192,67656,12,4,69115,0:0:0:0:
