osu file format v14

[General]
AudioFilename: 2-08 - Say A Vengeance(Original Extended).mp3
AudioLeadIn: 0
PreviewTime: 189110
Countdown: 0
SampleSet: Normal
StackLeniency: 0.7
Mode: 1
LetterboxInBreaks: 0
WidescreenStoryboard: 0

[Editor]
DistanceSpacing: 0.8
BeatDivisor: 4
GridSize: 32
TimelineZoom: 2.4

[Metadata]
Title:Say A Vengeance(Original Extended)
TitleUnicode:Say A Vengeance(Original Extended)
Artist:ETIA. feat.Jenga
ArtistUnicode:ETIA. feat.Jenga
Creator:[ S a k u r a ]
Version:Inner Oni
Source:BMS
Tags:
BeatmapID:681883
BeatmapSetID:291403

[Difficulty]
HPDrainRate:6
CircleSize:4
OverallDifficulty:6
ApproachRate:4
SliderMultiplier:1.4
SliderTickRate:1

[Events]
//Background and Video events
0,0,"maxresdefault.jpg",0,0
//Break Periods
//Storyboard Layer 0 (Background)
//Storyboard Layer 1 (Fail)
//Storyboard Layer 2 (Pass)
//Storyboard Layer 3 (Foreground)
//Storyboard Sound Samples

[TimingPoints]
176,324.324324324324,4,1,0,60,1,0
41608,-100,4,1,0,80,0,0

[HitObjects]
256,192,176,5,0,0:0:0:0:
256,192,338,1,0,0:0:0:0:
256,192,500,1,8,0:0:0:0:
256,192,662,1,0,0:0:0:0:
256,192,824,1,8,0:0:0:0:
256,192,1148,1,8,0:0:0:0:
256,192,1473,1,0,0:0:0:0:
256,192,1797,1,8,0:0:0:0:
256,192,1959,1,0,0:0:0:0:
256,192,2284,1,0,0:0:0:0:
256,192,2446,1,8,0:0:0:0:
256,192,2608,1,0,0:0:0:0:
256,192,2770,1,8,0:0:0:0:
256,192,3094,1,8,0:0:0:0:
256,192,3419,1,8,0:0:0:0:
256,192,3581,1,0,0:0:0:0:
256,192,3743,1,8,0:0:0:0:
256,192,4067,1,8,0:0:0:0:
256,192,4392,1,8,0:0:0:0:
256,192,4716,1,8,0:0:0:0:
256,192,4878,1,0,0:0:0:0:
256,192,5040,1,8,0:0:0:0:
256,192,5203,1,0,0:0:0:0:
256,192,5365,1,0,0:0:0:0:
256,192,5527,1,0,0:0:0:0:
256,192,5689,1,8,0:0:0:0:
256,192,5851,1,0,0:0:0:0:
256,192,6013,1,8,0:0:0:0:
256,192,6338,1,8,0:0:0:0:
256,192,6662,1,0,0:0:0:0:
256,192,6986,1,8,0:0:0:0:
256,192,7148,1,8,0:0:0:0:
256,192,7473,1,0,0:0:0:0:
256,192,7635,1,8,0:0:0:0:
256,192,7797,1,0,0:0:0:0:
256,192,7959,1,8,0:0:0:0:
256,192,8284,1,8,0:0:0:0:
256,192,8608,1,8,0:0:0:0:
256,192,8770,1,0,0:0:0:0:
256,192,8932,1,8,0:0:0:0:
256,192,9257,1,8,0:0:0:0:
256,192,9581,1,8,0:0:0:0:
256,192,9905,1,8,0:0:0:0:
256,192,10067,1,0,0:0:0:0:
256,192,10230,1,8,0:0:0:0:
256,192,10392,1,0,0:0:0:0:
256,192,10554,1,4,0:0:0:0:
256,192,10716,1,0,0:0:0:0:
256,192,10878,1,8,0:0:0:0:
256,192,11040,1,0,0:0:0:0:
256,192,11203,1,8,0:0:0:0:
256,192,11527,1,8,0:0:0:0:
256,192,11851,1,0,0:0:0:0:
256,192,12175,1,8,0:0:0:0:
256,192,12338,1,0,0:0:0:0:
256,192,12662,1,0,0:0:0:0:
256,192,12824,1,8,0:0:0:0:
256,192,12986,1,0,0:0:0:0:
256,192,13148,1,0,0:0:0:0:
256,192,13473,1,8,0:0:0:0:
256,192,13797,1,8,0:0:0:0:
256,192,13959,1,0,0:0:0:0:
256,192,14121,1,8,0:0:0:0:
256,192,14446,1,8,0:0:0:0:
256,192,14770,1,8,0:0:0:0:
256,192,15094,1,8,0:0:0:0:
256,192,15257,1,0,0:0:0:0:
256,192,15419,1,8,0:0:0:0:
256,192,15581,1,0,0:0:0:0:
256,192,15743,1,0,0:0:0:0:
256,192,15905,1,0,0:0:0:0:
256,192,16067,1,8,0:0:0:0:
256,192,16230,1,0,0:0:0:0:
256,192,16392,1,8,0:0:0:0:
256,192,16716,1,8,0:0:0:0:
256,192,17040,1,0,0:0:0:0:
256,192,17365,1,8,0:0:0:0:
256,192,17527,1,8,0:0:0:0:
256,192,17851,1,0,0:0:0:0:
256,192,18013,1,8,0:0:0:0:
256,192,18175,1,0,0:0:0:0:
256,192,18338,1,8,0:0:0:0:
256,192,18662,1,8,0:0:0:0:
256,192,18986,1,8,0:0:0:0:
256,192,19148,1,0,0:0:0:0:
256,192,19311,1,8,0:0:0:0:
256,192,19635,1,8,0:0:0:0:
256,192,19959,1,8,0:0:0:0:
256,192,20284,1,8,0:0:0:0:
256,192,20446,1,0,0:0:0:0:
256,192,20608,1,8,0:0:0:0:
256,192,20770,1,0,0:0:0:0:
256,192,20932,1,4,0:0:0:0:
256,192,21094,1,0,0:0:0:0:
256,192,21257,1,8,0:0:0:0:
256,192,21419,1,8,0:0:0:0:
256,192,21581,1,0,0:0:0:0:
256,192,21743,1,0,0:0:0:0:
256,192,21905,1,8,0:0:0:0:
256,192,22230,1,0,0:0:0:0:
256,192,22392,1,0,0:0:0:0:
256,192,22554,1,8,0:0:0:0:
256,192,22716,1,0,0:0:0:0:
256,192,23040,1,0,0:0:0:0:
256,192,23203,1,8,0:0:0:0:
256,192,23365,1,0,0:0:0:0:
256,192,23527,1,0,0:0:0:0:
256,192,23851,1,8,0:0:0:0:
256,192,24013,1,0,0:0:0:0:
256,192,24094,1,0,0:0:0:0:
256,192,24175,1,0,0:0:0:0:
256,192,24338,1,0,0:0:0:0:
256,192,24500,1,8,0:0:0:0:
256,192,24824,1,0,0:0:0:0:
256,192,24986,1,0,0:0:0:0:
256,192,25148,1,8,0:0:0:0:
256,192,25311,1,0,0:0:0:0:
256,192,25392,1,0,0:0:0:0:
256,192,25473,1,0,0:0:0:0:
256,192,25635,1,0,0:0:0:0:
256,192,25797,1,8,0:0:0:0:
256,192,26121,1,0,0:0:0:0:
256,192,26284,1,0,0:0:0:0:
256,192,26446,1,8,0:0:0:0:
256,192,26608,1,8,0:0:0:0:
256,192,26770,1,0,0:0:0:0:
256,192,26932,1,0,0:0:0:0:
256,192,27094,1,8,0:0:0:0:
256,192,27419,1,0,0:0:0:0:
256,192,27581,1,0,0:0:0:0:
256,192,27743,1,8,0:0:0:0:
256,192,27905,1,8,0:0:0:0:
256,192,28230,1,8,0:0:0:0:
256,192,28392,1,8,0:0:0:0:
256,192,28554,1,0,0:0:0:0:
256,192,28716,1,8,0:0:0:0:
256,192,29040,1,8,0:0:0:0:
256,192,29365,1,0,0:0:0:0:
256,192,29527,1,0,0:0:0:0:
256,192,29689,1,8,0:0:0:0:
256,192,30013,1,0,0:0:0:0:
256,192,30175,1,0,0:0:0:0:
256,192,30338,1,8,0:0:0:0:
256,192,30500,1,8,0:0:0:0:
256,192,30581,1,8,0:0:0:0:
256,192,30662,1,0,0:0:0:0:
256,192,30986,1,0,0:0:0:0:
256,192,31311,1,4,0:0:0:0:
256,192,31473,1,0,0:0:0:0:
256,192,31635,1,8,0:0:0:0:
256,192,31797,1,8,0:0:0:0:
256,192,31959,1,0,0:0:0:0:
256,192,32121,1,0,0:0:0:0:
256,192,32284,1,8,0:0:0:0:
256,192,32608,1,0,0:0:0:0:
256,192,32770,1,0,0:0:0:0:
256,192,32932,1,8,0:0:0:0:
256,192,33094,1,0,0:0:0:0:
256,192,33419,1,0,0:0:0:0:
256,192,33581,1,8,0:0:0:0:
256,192,33743,1,0,0:0:0:0:
256,192,33905,1,0,0:0:0:0:
256,192,34230,1,8,0:0:0:0:
256,192,34392,1,0,0:0:0:0:
256,192,34473,1,0,0:0:0:0:
256,192,34554,1,0,0:0:0:0:
256,192,34716,1,0,0:0:0:0:
256,192,34878,1,8,0:0:0:0:
256,192,35203,1,0,0:0:0:0:
256,192,35365,1,0,0:0:0:0:
256,192,35527,1,8,0:0:0:0:
256,192,35689,1,0,0:0:0:0:
256,192,35770,1,0,0:0:0:0:
256,192,35851,1,0,0:0:0:0:
256,192,36013,1,0,0:0:0:0:
256,192,36175,1,8,0:0:0:0:
256,192,36500,5,4,0:0:0:0:
256,192,36662,1,0,0:0:0:0:
256,192,36824,1,8,0:0:0:0:
256,192,36986,1,0,0:0:0:0:
256,192,37148,1,0,0:0:0:0:
256,192,37311,1,0,0:0:0:0:
256,192,37473,1,8,0:0:0:0:
256,192,37635,1,0,0:0:0:0:
256,192,37797,1,0,0:0:0:0:
256,192,37959,1,0,0:0:0:0:
256,192,38121,1,8,0:0:0:0:
256,192,38284,1,0,0:0:0:0:
256,192,38446,1,0,0:0:0:0:
256,192,38608,1,0,0:0:0:0:
256,192,38770,1,8,0:0:0:0:
256,224,38932,1,0,0:0:0:0:
256,192,39094,1,8,0:0:0:0:
256,192,39175,1,0,0:0:0:0:
256,192,39257,1,0,0:0:0:0:
256,192,39338,1,0,0:0:0:0:
256,192,39419,1,8,0:0:0:0:
256,192,39500,1,0,0:0:0:0:
256,192,39581,1,0,0:0:0:0:
256,192,39662,1,0,0:0:0:0:
256,192,39743,1,8,0:0:0:0:
256,192,39824,1,0,0:0:0:0:
256,192,39905,1,0,0:0:0:0:
256,192,39986,1,0,0:0:0:0:
256,192,40067,1,8,0:0:0:0:
256,192,40148,1,0,0:0:0:0:
256,192,40230,1,0,0:0:0:0:
256,192,40392,1,12,0:0:0:0:
256,192,40716,1,0,0:0:0:0:
256,192,40797,1,0,0:0:0:0:
256,192,40878,1,0,0:0:0:0:
256,192,40959,1,0,0:0:0:0:
256,192,41040,1,8,0:0:0:0:
256,192,41121,1,8,0:0:0:0:
256,192,41203,1,8,0:0:0:0:
256,192,41284,1,8,0:0:0:0:
256,192,41365,1,8,0:0:0:0:
256,192,41446,1,8,0:0:0:0:
256,192,41527,1,8,0:0:0:0:
256,192,41689,1,4,0:0:0:0:
256,192,41851,1,8,0:0:0:0:
256,192,42013,1,0,0:0:0:0:
256,192,42094,1,8,0:0:0:0:
256,192,42257,1,0,0:0:0:0:
256,192,42338,1,0,0:0:0:0:
256,192,42500,1,0,0:0:0:0:
256,192,42581,1,8,0:0:0:0:
256,192,42662,1,0,0:0:0:0:
256,192,42743,1,0,0:0:0:0:
256,192,42824,1,8,0:0:0:0:
256,192,42986,1,0,0:0:0:0:
256,192,43067,1,0,0:0:0:0:
256,192,43148,1,8,0:0:0:0:
256,192,43311,1,0,0:0:0:0:
256,192,43392,1,8,0:0:0:0:
256,192,43554,1,0,0:0:0:0:
256,192,43635,1,0,0:0:0:0:
256,192,43797,1,0,0:0:0:0:
256,192,43878,1,8,0:0:0:0:
256,192,43959,1,0,0:0:0:0:
256,192,44040,1,0,0:0:0:0:
256,192,44121,1,8,0:0:0:0:
256,192,44284,1,0,0:0:0:0:
256,192,44365,1,0,0:0:0:0:
256,192,44446,1,8,0:0:0:0:
256,192,44608,1,0,0:0:0:0:
256,192,44689,1,8,0:0:0:0:
256,192,44851,1,0,0:0:0:0:
256,192,44932,1,0,0:0:0:0:
256,192,45094,1,0,0:0:0:0:
256,192,45175,1,8,0:0:0:0:
256,192,45257,1,0,0:0:0:0:
256,192,45338,1,0,0:0:0:0:
256,192,45419,1,8,0:0:0:0:
256,192,45581,1,0,0:0:0:0:
256,192,45662,1,0,0:0:0:0:
256,192,45743,1,8,0:0:0:0:
256,192,45905,1,0,0:0:0:0:
256,192,45986,1,8,0:0:0:0:
256,192,46148,1,8,0:0:0:0:
256,192,46230,1,8,0:0:0:0:
256,192,46392,1,0,0:0:0:0:
256,192,46473,1,8,0:0:0:0:
256,192,46554,1,0,0:0:0:0:
256,192,46635,1,0,0:0:0:0:
256,192,46716,1,8,0:0:0:0:
256,192,46797,1,8,0:0:0:0:
256,192,46878,1,0,0:0:0:0:
256,192,46959,1,0,0:0:0:0:
256,192,47040,1,8,0:0:0:0:
256,192,47203,1,0,0:0:0:0:
256,192,47284,1,8,0:0:0:0:
256,192,47447,1,0,0:0:0:0:
256,192,47528,1,0,0:0:0:0:
256,192,47690,1,0,0:0:0:0:
256,192,47771,1,8,0:0:0:0:
256,192,47852,1,0,0:0:0:0:
256,192,47933,1,0,0:0:0:0:
256,192,48014,1,8,0:0:0:0:
256,192,48176,1,0,0:0:0:0:
256,192,48257,1,0,0:0:0:0:
256,192,48338,1,8,0:0:0:0:
256,192,48501,1,0,0:0:0:0:
256,192,48582,1,8,0:0:0:0:
256,192,48744,1,0,0:0:0:0:
256,192,48825,1,0,0:0:0:0:
256,192,48987,1,0,0:0:0:0:
256,192,49068,1,8,0:0:0:0:
256,192,49149,1,0,0:0:0:0:
256,192,49230,1,0,0:0:0:0:
256,192,49311,1,8,0:0:0:0:
256,192,49474,1,0,0:0:0:0:
256,192,49555,1,0,0:0:0:0:
256,192,49636,1,8,0:0:0:0:
256,192,49798,1,0,0:0:0:0:
256,192,49879,1,8,0:0:0:0:
256,192,50041,1,0,0:0:0:0:
256,192,50122,1,0,0:0:0:0:
256,192,50284,1,0,0:0:0:0:
256,192,50365,1,8,0:0:0:0:
256,192,50447,1,0,0:0:0:0:
256,192,50528,1,0,0:0:0:0:
256,192,50609,1,8,0:0:0:0:
256,192,50771,1,8,0:0:0:0:
256,192,50852,1,0,0:0:0:0:
256,192,50933,1,8,0:0:0:0:
256,192,51095,1,0,0:0:0:0:
256,192,51176,1,8,0:0:0:0:
256,192,51338,1,8,0:0:0:0:
256,192,51420,1,8,0:0:0:0:
256,192,51582,1,0,0:0:0:0:
256,192,51663,1,8,0:0:0:0:
256,192,51743,1,0,0:0:0:0:
256,192,51825,1,0,0:0:0:0:
256,192,51905,1,8,0:0:0:0:
256,192,51986,1,8,0:0:0:0:
256,192,52067,1,0,0:0:0:0:
256,192,52148,1,0,0:0:0:0:
256,192,52229,1,8,0:0:0:0:
256,192,52391,1,0,0:0:0:0:
256,192,52472,1,8,0:0:0:0:
256,192,52635,1,0,0:0:0:0:
256,192,52716,1,0,0:0:0:0:
256,192,52878,1,0,0:0:0:0:
256,192,52959,1,8,0:0:0:0:
256,192,53040,1,0,0:0:0:0:
256,192,53121,1,0,0:0:0:0:
256,192,53202,1,8,0:0:0:0:
256,192,53364,1,0,0:0:0:0:
256,192,53445,1,0,0:0:0:0:
256,192,53526,1,8,0:0:0:0:
256,192,53689,1,0,0:0:0:0:
256,192,53770,1,8,0:0:0:0:
256,192,53932,1,0,0:0:0:0:
256,192,54013,1,0,0:0:0:0:
256,192,54175,1,0,0:0:0:0:
256,192,54256,1,8,0:0:0:0:
256,192,54337,1,0,0:0:0:0:
256,192,54418,1,0,0:0:0:0:
256,192,54499,1,8,0:0:0:0:
256,192,54662,1,0,0:0:0:0:
256,192,54743,1,0,0:0:0:0:
256,192,54824,1,8,0:0:0:0:
256,192,54986,1,0,0:0:0:0:
256,192,55067,1,8,0:0:0:0:
256,192,55229,1,0,0:0:0:0:
256,192,55310,1,0,0:0:0:0:
256,192,55472,1,0,0:0:0:0:
256,192,55553,1,8,0:0:0:0:
256,192,55635,1,0,0:0:0:0:
256,192,55716,1,0,0:0:0:0:
256,192,55797,1,8,0:0:0:0:
256,192,55959,1,0,0:0:0:0:
256,192,56040,1,0,0:0:0:0:
256,192,56121,1,8,0:0:0:0:
256,192,56283,1,0,0:0:0:0:
256,192,56364,1,8,0:0:0:0:
256,192,56526,1,8,0:0:0:0:
256,192,56608,1,8,0:0:0:0:
256,192,56770,1,0,0:0:0:0:
256,192,56851,1,8,0:0:0:0:
256,192,56932,1,0,0:0:0:0:
256,192,57013,1,0,0:0:0:0:
256,192,57094,1,8,0:0:0:0:
256,192,57175,1,8,0:0:0:0:
256,192,57257,1,0,0:0:0:0:
256,192,57338,1,0,0:0:0:0:
256,192,57419,1,8,0:0:0:0:
256,192,57581,1,0,0:0:0:0:
256,192,57662,1,8,0:0:0:0:
256,192,57825,1,0,0:0:0:0:
256,192,57906,1,0,0:0:0:0:
256,192,58068,1,0,0:0:0:0:
256,192,58149,1,8,0:0:0:0:
256,192,58230,1,0,0:0:0:0:
256,192,58311,1,0,0:0:0:0:
256,192,58392,1,8,0:0:0:0:
256,192,58554,1,0,0:0:0:0:
256,192,58635,1,0,0:0:0:0:
256,192,58716,1,8,0:0:0:0:
256,192,58879,1,0,0:0:0:0:
256,192,58960,1,8,0:0:0:0:
256,192,59122,1,0,0:0:0:0:
256,192,59203,1,0,0:0:0:0:
256,192,59365,1,0,0:0:0:0:
256,192,59446,1,8,0:0:0:0:
256,192,59527,1,0,0:0:0:0:
256,192,59608,1,0,0:0:0:0:
256,192,59689,1,8,0:0:0:0:
256,192,59852,1,0,0:0:0:0:
256,192,59933,1,0,0:0:0:0:
256,192,60014,1,8,0:0:0:0:
256,192,60176,1,0,0:0:0:0:
256,192,60257,1,8,0:0:0:0:
256,192,60419,1,0,0:0:0:0:
256,192,60500,1,0,0:0:0:0:
256,192,60662,1,0,0:0:0:0:
256,192,60743,1,8,0:0:0:0:
256,192,60825,1,0,0:0:0:0:
256,192,60906,1,0,0:0:0:0:
256,192,60987,1,8,0:0:0:0:
256,192,61149,1,0,0:0:0:0:
256,192,61230,1,8,0:0:0:0:
256,192,61311,1,8,0:0:0:0:
256,192,61473,1,0,0:0:0:0:
256,192,61554,1,8,0:0:0:0:
256,192,61716,1,8,0:0:0:0:
256,192,61798,1,8,0:0:0:0:
256,192,61960,1,0,0:0:0:0:
256,192,62041,1,8,0:0:0:0:
256,192,62122,1,0,0:0:0:0:
256,192,62203,1,0,0:0:0:0:
256,192,62284,1,8,0:0:0:0:
256,192,62446,1,0,0:0:0:0:
256,192,62608,1,0,0:0:0:0:
256,192,62770,1,12,0:0:0:0:
256,192,63094,1,8,0:0:0:0:
256,192,63257,1,8,0:0:0:0:
256,192,63419,1,0,0:0:0:0:
256,192,63581,1,0,0:0:0:0:
256,192,63743,1,8,0:0:0:0:
256,192,64067,1,8,0:0:0:0:
256,192,64392,1,8,0:0:0:0:
256,192,64554,1,0,0:0:0:0:
256,192,64716,1,8,0:0:0:0:
256,192,65040,1,0,0:0:0:0:
256,192,65365,1,8,0:0:0:0:
256,192,65527,1,8,0:0:0:0:
256,192,65689,1,0,0:0:0:0:
256,192,66013,1,8,0:0:0:0:
256,192,66338,1,0,0:0:0:0:
256,192,66500,1,0,0:0:0:0:
256,192,66662,1,8,0:0:0:0:
256,192,66824,1,8,0:0:0:0:
256,192,66986,1,0,0:0:0:0:
256,192,67148,1,0,0:0:0:0:
256,192,67311,1,8,0:0:0:0:
256,192,67473,1,8,0:0:0:0:
256,192,67554,1,8,0:0:0:0:
256,192,67635,1,0,0:0:0:0:
256,192,67797,1,0,0:0:0:0:
256,192,67959,1,8,0:0:0:0:
256,192,68121,1,8,0:0:0:0:
256,192,68284,1,0,0:0:0:0:
256,192,68365,1,8,0:0:0:0:
256,192,68446,1,0,0:0:0:0:
256,192,68608,1,8,0:0:0:0:
256,192,68770,1,0,0:0:0:0:
256,192,68932,1,0,0:0:0:0:
256,192,69257,1,8,0:0:0:0:
256,192,69419,1,8,0:0:0:0:
256,192,69581,1,0,0:0:0:0:
256,192,69662,1,0,0:0:0:0:
256,192,69743,1,0,0:0:0:0:
256,192,69905,1,8,0:0:0:0:
256,192,70067,1,8,0:0:0:0:
256,192,70148,1,8,0:0:0:0:
256,192,70230,1,0,0:0:0:0:
256,192,70392,1,0,0:0:0:0:
256,192,70554,1,8,0:0:0:0:
256,192,70716,1,8,0:0:0:0:
256,192,70797,1,8,0:0:0:0:
256,192,70878,1,0,0:0:0:0:
256,192,71040,1,0,0:0:0:0:
256,192,71203,1,8,0:0:0:0:
256,192,71527,1,0,0:0:0:0:
256,192,71689,1,0,0:0:0:0:
256,192,71851,1,8,0:0:0:0:
256,192,72013,1,8,0:0:0:0:
256,192,72094,1,8,0:0:0:0:
256,192,72175,1,0,0:0:0:0:
256,192,72338,1,0,0:0:0:0:
256,192,72500,1,8,0:0:0:0:
256,192,72662,1,0,0:0:0:0:
256,192,72824,1,4,0:0:0:0:
256,192,73148,1,8,0:0:0:0:
256,192,73311,1,0,0:0:0:0:
256,192,73473,1,8,0:0:0:0:
256,192,73554,1,0,0:0:0:0:
256,192,73635,1,8,0:0:0:0:
256,192,73797,1,8,0:0:0:0:
256,192,73959,1,0,0:0:0:0:
256,192,74040,1,0,0:0:0:0:
256,192,74121,1,8,0:0:0:0:
256,192,74203,1,8,0:0:0:0:
256,192,74284,1,0,0:0:0:0:
256,192,74446,1,8,0:0:0:0:
256,192,74608,1,0,0:0:0:0:
256,192,74689,1,0,0:0:0:0:
256,192,74770,1,8,0:0:0:0:
256,192,74932,1,0,0:0:0:0:
256,192,75094,1,8,0:0:0:0:
256,192,75257,1,0,0:0:0:0:
256,192,75338,1,0,0:0:0:0:
256,192,75419,1,0,0:0:0:0:
256,192,75581,1,0,0:0:0:0:
256,192,75743,1,8,0:0:0:0:
256,192,75905,1,8,0:0:0:0:
256,192,76067,1,0,0:0:0:0:
256,192,76392,1,8,0:0:0:0:
256,192,76716,1,0,0:0:0:0:
256,192,76878,1,0,0:0:0:0:
256,192,77040,1,8,0:0:0:0:
256,192,77203,1,0,0:0:0:0:
256,192,77284,1,0,0:0:0:0:
256,192,77365,1,8,0:0:0:0:
256,192,77527,1,0,0:0:0:0:
256,192,77689,1,8,0:0:0:0:
256,192,77851,1,8,0:0:0:0:
256,192,78013,1,0,0:0:0:0:
256,192,78338,1,8,0:0:0:0:
256,192,78662,1,0,0:0:0:0:
256,192,78824,1,0,0:0:0:0:
256,192,78986,1,8,0:0:0:0:
256,192,79148,1,8,0:0:0:0:
256,192,79311,1,0,0:0:0:0:
256,192,79635,1,8,0:0:0:0:
256,192,79959,1,8,0:0:0:0:
256,192,80121,1,0,0:0:0:0:
256,192,80284,1,8,0:0:0:0:
256,192,80608,1,4,0:0:0:0:
256,192,81419,1,0,0:0:0:0:
256,192,81581,1,8,0:0:0:0:
256,192,81743,1,8,0:0:0:0:
256,192,81905,1,0,0:0:0:0:
256,192,81986,1,0,0:0:0:0:
256,192,82067,1,0,0:0:0:0:
256,192,82148,1,0,0:0:0:0:
256,192,82230,1,8,0:0:0:0:
256,192,82392,1,0,0:0:0:0:
256,192,82554,1,8,0:0:0:0:
256,192,82635,1,8,0:0:0:0:
256,192,82716,1,8,0:0:0:0:
256,192,82797,1,8,0:0:0:0:
256,192,82878,1,0,0:0:0:0:
256,192,83040,1,8,0:0:0:0:
256,192,83203,1,4,0:0:0:0:
256,192,83689,1,8,0:0:0:0:
256,192,84175,1,0,0:0:0:0:
256,192,84662,1,0,0:0:0:0:
256,192,85148,1,8,0:0:0:0:
256,192,85797,1,8,0:0:0:0:
256,192,86284,1,8,0:0:0:0:
256,192,86770,1,0,0:0:0:0:
256,192,87257,1,8,0:0:0:0:
256,192,87743,1,8,0:0:0:0:
256,192,88392,1,0,0:0:0:0:
256,192,88878,1,8,0:0:0:0:
256,192,89365,1,8,0:0:0:0:
256,192,89527,1,8,0:0:0:0:
256,192,90013,1,0,0:0:0:0:
256,192,90338,1,8,0:0:0:0:
256,192,90662,1,8,0:0:0:0:
256,192,90986,1,0,0:0:0:0:
256,192,91797,1,0,0:0:0:0:
256,192,91959,1,8,0:0:0:0:
256,192,92121,1,8,0:0:0:0:
256,192,92932,1,8,0:0:0:0:
256,192,93094,1,0,0:0:0:0:
256,192,93257,1,8,0:0:0:0:
256,192,93419,1,8,0:0:0:0:
256,192,93581,1,4,0:0:0:0:
256,192,93905,1,0,0:0:0:0:
256,192,94067,1,8,0:0:0:0:
256,192,94392,1,8,0:0:0:0:
256,192,94554,1,0,0:0:0:0:
256,192,95040,1,8,0:0:0:0:
256,192,95203,1,8,0:0:0:0:
256,192,95365,1,0,0:0:0:0:
256,192,95527,1,8,0:0:0:0:
256,192,95851,1,8,0:0:0:0:
256,192,96175,1,8,0:0:0:0:
256,192,96500,1,8,0:0:0:0:
256,192,96662,1,8,0:0:0:0:
256,192,96986,1,0,0:0:0:0:
256,192,97148,1,8,0:0:0:0:
256,192,97635,1,8,0:0:0:0:
256,192,97797,1,8,0:0:0:0:
256,192,97959,1,0,0:0:0:0:
256,192,98121,1,0,0:0:0:0:
256,192,98446,1,8,0:0:0:0:
256,192,98770,1,0,0:0:0:0:
256,192,99094,1,0,0:0:0:0:
256,192,99419,1,0,0:0:0:0:
256,192,99743,1,0,0:0:0:0:
256,192,99905,1,0,0:0:0:0:
256,192,100067,1,8,0:0:0:0:
256,192,100392,1,0,0:0:0:0:
256,192,100716,1,8,0:0:0:0:
256,192,100878,1,8,0:0:0:0:
256,192,101040,1,0,0:0:0:0:
256,192,101203,1,8,0:0:0:0:
256,192,101365,1,0,0:0:0:0:
256,192,101689,1,0,0:0:0:0:
256,192,102013,1,0,0:0:0:0:
256,192,102175,1,0,0:0:0:0:
256,192,102338,1,8,0:0:0:0:
256,192,102500,1,4,0:0:0:0:
256,192,102824,1,4,0:0:0:0:
256,192,103148,1,12,0:0:0:0:
256,192,103473,1,0,0:0:0:0:
256,192,103554,1,0,0:0:0:0:
256,192,103635,1,8,0:0:0:0:
256,192,103959,1,4,0:0:0:0:
256,192,104284,1,8,0:0:0:0:
256,192,104446,1,8,0:0:0:0:
256,192,104527,1,8,0:0:0:0:
256,192,104608,1,0,0:0:0:0:
256,192,104770,1,0,0:0:0:0:
256,192,104932,1,8,0:0:0:0:
256,192,105094,1,8,0:0:0:0:
256,192,105257,1,0,0:0:0:0:
256,192,105338,1,0,0:0:0:0:
256,192,105419,1,0,0:0:0:0:
256,192,105581,1,8,0:0:0:0:
256,192,105743,1,8,0:0:0:0:
256,192,105824,1,8,0:0:0:0:
256,192,105905,1,0,0:0:0:0:
256,192,106067,1,0,0:0:0:0:
256,192,106230,1,8,0:0:0:0:
256,192,106392,1,8,0:0:0:0:
256,192,106473,1,8,0:0:0:0:
256,192,106554,1,0,0:0:0:0:
256,192,106878,1,8,0:0:0:0:
256,192,107040,1,8,0:0:0:0:
256,192,107121,1,8,0:0:0:0:
256,192,107203,1,0,0:0:0:0:
256,192,107365,1,8,0:0:0:0:
256,192,107527,1,8,0:0:0:0:
256,192,107689,1,0,0:0:0:0:
256,192,107851,1,8,0:0:0:0:
256,192,107932,1,8,0:0:0:0:
256,192,108013,1,0,0:0:0:0:
256,192,108094,1,0,0:0:0:0:
256,192,108175,1,8,0:0:0:0:
256,192,108338,1,8,0:0:0:0:
256,192,108419,1,8,0:0:0:0:
256,192,108500,1,0,0:0:0:0:
256,192,108662,1,0,0:0:0:0:
256,192,108824,1,8,0:0:0:0:
256,192,109148,1,0,0:0:0:0:
256,192,109473,1,8,0:0:0:0:
256,192,109635,1,0,0:0:0:0:
256,192,109797,1,8,0:0:0:0:
256,192,109878,1,0,0:0:0:0:
256,192,109959,1,8,0:0:0:0:
256,192,110121,1,8,0:0:0:0:
256,192,110284,1,0,0:0:0:0:
256,192,110446,1,8,0:0:0:0:
256,192,110527,1,8,0:0:0:0:
256,192,110608,1,8,0:0:0:0:
256,192,110770,1,0,0:0:0:0:
256,192,110932,1,8,0:0:0:0:
256,192,111013,1,8,0:0:0:0:
256,192,111094,1,0,0:0:0:0:
256,192,111257,1,0,0:0:0:0:
256,192,111419,1,8,0:0:0:0:
256,192,111500,1,8,0:0:0:0:
256,192,111581,1,0,0:0:0:0:
256,192,111662,1,0,0:0:0:0:
256,192,111743,1,8,0:0:0:0:
256,192,112067,1,8,0:0:0:0:
256,192,112230,1,0,0:0:0:0:
256,192,112392,1,8,0:0:0:0:
256,192,112473,1,0,0:0:0:0:
256,192,112554,1,8,0:0:0:0:
256,192,112716,1,8,0:0:0:0:
256,192,112878,1,0,0:0:0:0:
256,192,113040,1,8,0:0:0:0:
256,192,113203,1,8,0:0:0:0:
256,192,113284,1,8,0:0:0:0:
256,192,113365,1,8,0:0:0:0:
256,192,113527,1,0,0:0:0:0:
256,192,113689,1,0,0:0:0:0:
256,192,114013,1,0,0:0:0:0:
256,192,114338,1,4,0:0:0:0:
256,192,114662,1,8,0:0:0:0:
256,192,114824,1,8,0:0:0:0:
256,192,114905,1,8,0:0:0:0:
256,192,114986,1,0,0:0:0:0:
256,192,115148,1,0,0:0:0:0:
256,192,115311,1,8,0:0:0:0:
256,192,115473,1,8,0:0:0:0:
256,192,115635,1,0,0:0:0:0:
256,192,115716,1,0,0:0:0:0:
224,192,115797,1,0,0:0:0:0:
256,192,115959,1,8,0:0:0:0:
256,192,116121,1,8,0:0:0:0:
256,192,116203,1,8,0:0:0:0:
256,192,116284,1,0,0:0:0:0:
256,192,116446,1,0,0:0:0:0:
256,192,116608,1,8,0:0:0:0:
256,192,116689,1,8,0:0:0:0:
256,224,116770,1,8,0:0:0:0:
256,224,116851,1,8,0:0:0:0:
256,224,116932,1,0,0:0:0:0:
256,192,117094,1,0,0:0:0:0:
256,192,117175,1,0,0:0:0:0:
256,192,117257,1,8,0:0:0:0:
256,192,117419,1,8,0:0:0:0:
256,192,117500,1,8,0:0:0:0:
256,192,117581,1,0,0:0:0:0:
256,192,117743,1,0,0:0:0:0:
256,192,117905,1,8,0:0:0:0:
256,192,118067,1,8,0:0:0:0:
256,192,118230,1,0,0:0:0:0:
256,192,118311,1,0,0:0:0:0:
256,192,118392,1,0,0:0:0:0:
256,192,118473,1,0,0:0:0:0:
256,192,118554,1,8,0:0:0:0:
256,192,118716,1,8,0:0:0:0:
256,192,118797,1,8,0:0:0:0:
256,192,118878,1,0,0:0:0:0:
256,192,119040,1,0,0:0:0:0:
256,192,119203,1,8,0:0:0:0:
256,192,119365,1,8,0:0:0:0:
256,192,119527,1,4,0:0:0:0:
256,192,119689,1,8,0:0:0:0:
256,192,119851,1,8,0:0:0:0:
256,192,120013,1,8,0:0:0:0:
256,192,120175,1,0,0:0:0:0:
256,192,120338,1,0,0:0:0:0:
256,192,120500,1,8,0:0:0:0:
256,192,120662,1,8,0:0:0:0:
256,192,120824,1,4,0:0:0:0:
256,192,120986,1,8,0:0:0:0:
256,192,121148,1,8,0:0:0:0:
256,192,121311,1,8,0:0:0:0:
256,192,121473,1,0,0:0:0:0:
256,192,121635,1,0,0:0:0:0:
256,192,121797,1,8,0:0:0:0:
256,192,121959,1,8,0:0:0:0:
256,192,122121,1,8,0:0:0:0:
224,192,122203,1,0,0:0:0:0:
224,192,122284,1,0,0:0:0:0:
224,192,122365,1,0,0:0:0:0:
224,192,122446,1,8,0:0:0:0:
224,192,122527,1,0,0:0:0:0:
224,192,122608,1,0,0:0:0:0:
224,192,122689,1,0,0:0:0:0:
224,192,122770,1,8,0:0:0:0:
256,192,122851,1,0,0:0:0:0:
256,192,122932,1,0,0:0:0:0:
256,192,123013,1,0,0:0:0:0:
256,192,123094,1,8,0:0:0:0:
256,192,123175,1,8,0:0:0:0:
256,192,123257,1,8,0:0:0:0:
256,192,123419,1,4,0:0:0:0:
224,192,123743,1,8,0:0:0:0:
224,192,123905,1,8,0:0:0:0:
224,192,124067,1,8,0:0:0:0:
224,192,124148,1,0,0:0:0:0:
224,192,124230,1,0,0:0:0:0:
224,192,124311,1,0,0:0:0:0:
224,192,124392,1,8,0:0:0:0:
224,192,124473,1,8,0:0:0:0:
224,192,124554,1,8,0:0:0:0:
224,192,124716,1,4,0:0:0:0:
256,192,126986,1,8,0:0:0:0:
256,192,127311,1,4,0:0:0:0:
256,192,127473,1,8,0:0:0:0:
256,192,127635,1,0,0:0:0:0:
256,192,127716,1,8,0:0:0:0:
256,192,127879,1,0,0:0:0:0:
256,192,127960,1,0,0:0:0:0:
256,192,128122,1,0,0:0:0:0:
256,192,128203,1,8,0:0:0:0:
256,192,128284,1,0,0:0:0:0:
256,192,128365,1,0,0:0:0:0:
256,192,128446,1,8,0:0:0:0:
256,192,128608,1,0,0:0:0:0:
256,192,128689,1,0,0:0:0:0:
256,192,128770,1,8,0:0:0:0:
256,192,128933,1,0,0:0:0:0:
256,192,129014,1,8,0:0:0:0:
256,192,129176,1,0,0:0:0:0:
256,192,129257,1,0,0:0:0:0:
256,192,129419,1,0,0:0:0:0:
256,192,129500,1,8,0:0:0:0:
256,192,129581,1,0,0:0:0:0:
256,192,129662,1,0,0:0:0:0:
256,192,129743,1,8,0:0:0:0:
256,192,129906,1,0,0:0:0:0:
256,192,129987,1,0,0:0:0:0:
256,192,130068,1,8,0:0:0:0:
256,192,130230,1,0,0:0:0:0:
256,192,130311,1,8,0:0:0:0:
256,192,130473,1,0,0:0:0:0:
256,192,130554,1,0,0:0:0:0:
256,192,130716,1,0,0:0:0:0:
256,192,130797,1,8,0:0:0:0:
256,192,130879,1,0,0:0:0:0:
256,192,130960,1,0,0:0:0:0:
256,192,131041,1,8,0:0:0:0:
256,192,131203,1,0,0:0:0:0:
256,192,131284,1,0,0:0:0:0:
256,192,131365,1,8,0:0:0:0:
256,192,131527,1,0,0:0:0:0:
256,192,131608,1,8,0:0:0:0:
256,192,131770,1,8,0:0:0:0:
256,192,131852,1,8,0:0:0:0:
256,192,132014,1,0,0:0:0:0:
256,192,132095,1,8,0:0:0:0:
256,192,132176,1,0,0:0:0:0:
256,192,132257,1,0,0:0:0:0:
256,192,132338,1,8,0:0:0:0:
256,192,132419,1,8,0:0:0:0:
256,192,132500,1,0,0:0:0:0:
256,192,132581,1,0,0:0:0:0:
256,192,132662,1,8,0:0:0:0:
256,192,132825,1,0,0:0:0:0:
256,192,132906,1,8,0:0:0:0:
256,192,133069,1,0,0:0:0:0:
256,192,133150,1,0,0:0:0:0:
256,192,133312,1,0,0:0:0:0:
256,192,133393,1,8,0:0:0:0:
256,192,133474,1,0,0:0:0:0:
256,192,133555,1,0,0:0:0:0:
256,192,133636,1,8,0:0:0:0:
256,192,133798,1,0,0:0:0:0:
256,192,133879,1,0,0:0:0:0:
256,192,133960,1,8,0:0:0:0:
256,192,134123,1,0,0:0:0:0:
256,192,134204,1,8,0:0:0:0:
256,192,134366,1,0,0:0:0:0:
256,192,134447,1,0,0:0:0:0:
256,192,134609,1,0,0:0:0:0:
256,192,134690,1,8,0:0:0:0:
256,192,134771,1,0,0:0:0:0:
256,192,134852,1,0,0:0:0:0:
256,192,134933,1,8,0:0:0:0:
256,192,135096,1,0,0:0:0:0:
256,192,135177,1,0,0:0:0:0:
256,192,135258,1,8,0:0:0:0:
256,192,135420,1,0,0:0:0:0:
256,192,135501,1,8,0:0:0:0:
256,192,135663,1,0,0:0:0:0:
256,192,135744,1,0,0:0:0:0:
256,192,135906,1,0,0:0:0:0:
256,192,135987,1,8,0:0:0:0:
256,192,136069,1,0,0:0:0:0:
256,192,136150,1,0,0:0:0:0:
256,192,136231,1,8,0:0:0:0:
256,192,136393,1,0,0:0:0:0:
256,192,136474,1,8,0:0:0:0:
256,192,136555,1,8,0:0:0:0:
256,192,136717,1,0,0:0:0:0:
256,192,136798,1,8,0:0:0:0:
256,192,136960,1,8,0:0:0:0:
256,192,137042,1,8,0:0:0:0:
256,192,137204,1,0,0:0:0:0:
256,192,137285,1,8,0:0:0:0:
256,192,137365,1,0,0:0:0:0:
256,192,137447,1,0,0:0:0:0:
256,192,137527,1,8,0:0:0:0:
256,192,137608,1,8,0:0:0:0:
256,192,137689,1,0,0:0:0:0:
256,192,137770,1,0,0:0:0:0:
256,192,137851,1,8,0:0:0:0:
256,192,138013,1,0,0:0:0:0:
256,192,138094,1,8,0:0:0:0:
256,192,138257,1,0,0:0:0:0:
256,192,138338,1,0,0:0:0:0:
256,192,138500,1,0,0:0:0:0:
256,192,138581,1,8,0:0:0:0:
256,192,138662,1,0,0:0:0:0:
256,192,138743,1,0,0:0:0:0:
256,192,138824,1,8,0:0:0:0:
256,192,138986,1,0,0:0:0:0:
256,192,139067,1,0,0:0:0:0:
256,192,139148,1,8,0:0:0:0:
256,192,139311,1,0,0:0:0:0:
256,192,139392,1,8,0:0:0:0:
256,192,139554,1,0,0:0:0:0:
256,192,139635,1,0,0:0:0:0:
256,192,139797,1,0,0:0:0:0:
256,192,139878,1,8,0:0:0:0:
256,192,139959,1,0,0:0:0:0:
256,192,140040,1,0,0:0:0:0:
256,192,140121,1,8,0:0:0:0:
256,192,140284,1,0,0:0:0:0:
256,192,140365,1,0,0:0:0:0:
256,192,140446,1,8,0:0:0:0:
256,192,140608,1,0,0:0:0:0:
256,192,140689,1,8,0:0:0:0:
256,192,140851,1,0,0:0:0:0:
256,192,140932,1,0,0:0:0:0:
256,192,141094,1,0,0:0:0:0:
256,192,141175,1,8,0:0:0:0:
256,192,141257,1,0,0:0:0:0:
256,192,141338,1,0,0:0:0:0:
256,192,141419,1,8,0:0:0:0:
256,192,141581,1,0,0:0:0:0:
256,192,141662,1,0,0:0:0:0:
256,192,141743,1,8,0:0:0:0:
256,192,141905,1,0,0:0:0:0:
256,192,141986,1,8,0:0:0:0:
256,192,142148,1,8,0:0:0:0:
256,192,142230,1,8,0:0:0:0:
256,192,142392,1,0,0:0:0:0:
256,192,142473,1,8,0:0:0:0:
256,192,142554,1,0,0:0:0:0:
256,192,142635,1,0,0:0:0:0:
256,192,142716,1,8,0:0:0:0:
256,192,142879,1,4,0:0:0:0:
256,192,143041,1,8,0:0:0:0:
256,192,143203,1,0,0:0:0:0:
256,192,143284,1,8,0:0:0:0:
256,192,143447,1,0,0:0:0:0:
256,192,143528,1,0,0:0:0:0:
256,192,143690,1,0,0:0:0:0:
256,192,143771,1,8,0:0:0:0:
256,192,143852,1,0,0:0:0:0:
256,192,143933,1,0,0:0:0:0:
256,192,144014,1,8,0:0:0:0:
256,192,144176,1,4,0:0:0:0:
256,192,144338,1,8,0:0:0:0:
256,192,144501,1,0,0:0:0:0:
256,192,144582,1,8,0:0:0:0:
256,192,144744,1,0,0:0:0:0:
256,192,144825,1,0,0:0:0:0:
256,192,144987,1,0,0:0:0:0:
256,192,145068,1,8,0:0:0:0:
256,192,145149,1,0,0:0:0:0:
256,192,145230,1,0,0:0:0:0:
256,192,145311,1,8,0:0:0:0:
256,192,145473,1,4,0:0:0:0:
256,192,145636,1,8,0:0:0:0:
256,192,145797,1,0,0:0:0:0:
256,192,145878,1,8,0:0:0:0:
256,192,146040,1,0,0:0:0:0:
256,192,146122,1,8,0:0:0:0:
256,192,146203,1,0,0:0:0:0:
256,192,146284,1,0,0:0:0:0:
256,192,146365,1,8,0:0:0:0:
256,192,146447,1,0,0:0:0:0:
256,192,146528,1,0,0:0:0:0:
256,192,146609,1,8,0:0:0:0:
256,192,146689,1,8,0:0:0:0:
256,192,146771,1,0,0:0:0:0:
256,192,146933,1,12,0:0:0:0:
256,192,147176,1,12,0:0:0:0:
256,192,147420,1,12,0:0:0:0:
256,192,147663,1,4,0:0:0:0:
256,192,147906,1,12,0:0:0:0:
256,192,148068,1,0,0:0:0:0:
256,192,148230,1,0,0:0:0:0:
256,192,148392,1,12,0:0:0:0:
