osu file format v14

[General]
AudioFilename: ETIA feat. Jenga - Say A Vengeance.mp3
AudioLeadIn: 0
PreviewTime: 106406
Countdown: 1
SampleSet: Normal
StackLeniency: 0.7
Mode: 0
LetterboxInBreaks: 1
WidescreenStoryboard: 1

[Editor]
Bookmarks: 125216
DistanceSpacing: 1.1
BeatDivisor: 4
GridSize: 4
TimelineZoom: 1

[Metadata]
Title:Say A Vengeance
TitleUnicode:Say A Vengeance
Artist:ETIA. feat. Jenga
ArtistUnicode:ETIA. feat. Jenga
Creator:Foreverends
Version:Normal
Source:BMS
Tags:bof2012 Fort orza6006 BakaAyano_12q WTHkapo
BeatmapID:501990
BeatmapSetID:174470

[Difficulty]
HPDrainRate:4
CircleSize:4
OverallDifficulty:4
ApproachRate:4
SliderMultiplier:1.19999990463257
SliderTickRate:1

[Events]
//Background and Video events
0,0,"bg.jpg",0,0
Video,0,"ETIA feat. Jenga - Say A Vengeance.avi"
//Break Periods
2,63795,72653
//Storyboard Layer 0 (Background)
//Storyboard Layer 1 (Fail)
//Storyboard Layer 2 (Pass)
//Storyboard Layer 3 (Foreground)
//Storyboard Sound Samples

[TimingPoints]
1325,324.324324324324,4,1,1,50,1,0
1325,-133.333333333333,4,1,1,50,0,0
11703,-100,4,1,1,50,0,0
22081,-100,4,1,1,50,0,1
42838,-100,4,1,1,50,0,0
63594,-200,4,1,1,50,0,0
73892,-142.857142857143,4,1,1,50,0,0
79000,-100,4,1,1,50,0,0
99919,-100,4,1,1,50,0,1
100081,-100,4,1,1,50,0,0
101216,-100,4,1,1,50,0,1
101379,-100,4,1,1,50,0,0
102514,-100,4,1,1,50,0,1
105108,-100,4,1,1,50,0,0
107703,-100,4,1,1,50,0,1
128460,-100,4,1,1,50,0,0

[Colours]
Combo1 : 192,192,192
Combo2 : 128,0,0
Combo3 : 128,128,128
Combo4 : 64,0,128

[HitObjects]
20,284,1325,6,0,P|84:331|116:328,1,89.9999962806701,0|0,0:0|0:0,0:0:0:0:
180,288,1973,2,0,P|244:241|272:248,1,89.9999962806701,0|0,0:0|0:0,0:0:0:0:
344,268,2622,2,0,P|416:268|392:208,2,134.999994421005,0|0|0,0:0|0:0|0:0,0:0:0:0:
292,184,3919,2,0,B|276:152|240:152|240:152|224:164|212:176,1,89.9999962806701
160,248,4568,2,0,P|100:280|60:264,1,89.9999962806701
92,180,5216,2,0,P|142:152|120:56,2,134.999994421005,0|0|0,0:0|0:0|0:0,0:0:0:0:
24,252,6514,6,0,L|36:344,1,89.9999962806701
132,364,7162,2,0,L|120:264,1,89.9999962806701
184,196,7811,2,0,P|228:256|196:340,2,134.999994421005,0|0|0,0:0|0:0|0:0,0:0:0:0:
104,136,9108,2,0,P|76:100|92:28,1,89.9999962806701
172,68,9757,1,0,0:0:0:0:
260,24,10081,1,0,0:0:0:0:
348,72,10406,2,0,P|351:123|324:164,1,89.9999962806701
260,224,11054,5,0,0:0:0:0:
260,224,11379,1,0,0:0:0:0:
260,224,11703,6,0,L|104:212,1,119.999990463257
44,124,12352,1,0,0:0:0:0:
16,252,12676,1,0,0:0:0:0:
128,324,13000,2,0,L|247:333,1,119.999990463257
376,368,13649,2,0,L|385:248,1,119.999990463257
312,140,14297,5,0,0:0:0:0:
228,240,14622,1,0,0:0:0:0:
124,160,14946,2,0,P|124:104|172:52,1,119.999990463257
292,24,15595,2,0,P|348:24|400:72,2,119.999990463257,0|0|0,0:0|0:0|0:0,0:0:0:0:
212,128,16568,1,0,0:0:0:0:
304,220,16892,6,0,B|328:268|328:268|312:340,1,119.999990463257
184,360,17541,2,0,B|160:312|160:312|176:240,1,119.999990463257
292,184,18189,2,0,P|315:138|248:40,2,179.999985694886,0|0|0,0:0|0:0|0:0,0:0:0:0:
256,192,19487,12,0,21757,0:0:0:0:
64,108,22081,6,0,P|56:176|108:240,1,119.999990463257,0|0,0:0|0:0,0:0:0:0:
180,308,22730,2,0,P|224:280|300:296,1,119.999990463257
412,336,23379,1,0,0:0:0:0:
464,216,23703,1,0,0:0:0:0:
364,128,24027,2,0,L|216:132,1,119.999990463257
140,212,24676,6,0,B|84:236|84:236|-16:204,2,119.999990463257
192,88,25649,1,0,0:0:0:0:
320,60,25973,2,0,P|368:48|440:128,1,119.999990463257
472,208,26622,2,0,P|484:256|404:328,1,119.999990463257
324,344,27270,6,0,L|340:216,1,119.999990463257
232,144,27919,2,0,L|216:272,1,119.999990463257
140,368,28568,1,0,0:0:0:0:
32,296,28892,1,0,0:0:0:0:
68,168,29216,2,0,P|89:106|64:20,1,119.999990463257
212,40,29865,6,0,P|205:99|226:154,2,119.999990463257
336,84,30838,1,0,0:0:0:0:
424,184,31162,2,0,P|430:243|409:298,1,119.999990463257,0|0,0:0|0:0,0:0:0:0:
292,356,31811,2,0,L|164:352,1,119.999990463257
116,232,32460,6,0,L|244:236,1,119.999990463257
352,172,33109,2,0,P|380:128|364:52,1,119.999990463257
244,104,33758,1,0,0:0:0:0:
140,24,34082,1,0,0:0:0:0:
60,128,34406,2,0,L|76:268,1,119.999990463257
164,344,35055,6,0,B|220:362|220:362|276:338,2,119.999990463257
44,288,36028,1,0,0:0:0:0:
132,188,36352,2,0,B|150:131|150:131|126:75,1,119.999990463257,0|0,0:0|0:0,0:0:0:0:
248,24,37000,2,0,B|229:80|229:80|253:136,1,119.999990463257,0|0,0:0|0:0,0:0:0:0:
356,220,37649,6,0,P|388:192|488:208,1,119.999990463257
496,320,38297,2,0,P|464:348|364:332,1,119.999990463257
276,284,38946,1,0,0:0:0:0:
168,360,39270,1,0,0:0:0:0:
56,292,39595,2,0,P|28:260|44:160,1,119.999990463257
152,148,40243,6,0,P|180:180|164:280,2,119.999990463257
40,80,41216,1,0,0:0:0:0:
168,40,41541,6,0,B|220:32|220:32|244:40|244:40|296:32,1,119.999990463257
400,96,42189,2,0,P|403:124|384:164,1,59.9999952316285,0|0,0:0|0:0,0:0:0:0:
348,200,42514,2,0,P|344:228|364:268,1,59.9999952316285,0|0,0:0|0:0,0:0:0:0:
400,304,42838,5,0,0:0:0:0:
284,368,43162,1,0,0:0:0:0:
156,340,43487,2,0,P|128:292|148:208,1,119.999990463257
188,112,44135,2,0,P|244:156|252:224,2,119.999990463257,0|0|0,0:0|0:0|0:0,0:0:0:0:
68,168,45108,1,0,0:0:0:0:
84,300,45433,6,0,P|137:324|195:313,1,119.999990463257
324,348,46081,2,0,P|377:323|435:334,1,119.999990463257,0|0,0:0|0:0,0:0:0:0:
496,216,46730,1,0,0:0:0:0:
436,100,47054,1,0,0:0:0:0:
328,176,47379,2,0,B|280:200|280:200|216:144,1,119.999990463257
116,92,48027,6,0,P|92:156|128:232,1,119.999990463257
156,324,48676,2,0,P|220:348|296:312,1,119.999990463257
380,268,49324,2,0,P|444:244|520:280,2,119.999990463257,0|0|0,0:0|0:0|0:0,0:0:0:0:
256,220,50297,1,0,0:0:0:0:
164,316,50622,6,0,P|100:340|24:304,1,119.999990463257
24,200,51270,2,0,B|32:160|32:160|24:124|24:124|36:68,1,119.999990463257
160,120,51919,2,0,B|152:160|152:160|160:196|160:196|148:252,2,119.999990463257,0|0|0,0:0|0:0|0:0,0:0:0:0:
256,32,52892,2,0,P|280:24|328:40,1,59.9999952316285
368,68,53216,6,0,P|392:120|360:208,1,119.999990463257
280,264,53865,2,0,P|252:216|272:132,1,119.999990463257
160,64,54513,2,0,P|100:32|48:48,2,119.999990463257,0|0|0,0:0|0:0|0:0,0:0:0:0:
88,176,55486,1,0,0:0:0:0:
20,288,55811,6,0,P|73:312|131:301,1,119.999990463257
224,204,56460,2,0,L|208:44,1,119.999990463257
328,24,57108,1,0,0:0:0:0:
444,84,57432,1,0,0:0:0:0:
396,208,57757,2,0,L|412:368,1,119.999990463257
280,304,58406,6,0,B|220:292|220:292|140:332,1,119.999990463257
72,228,59054,2,0,B|132:240|132:240|212:200,1,119.999990463257
288,132,59702,2,0,P|312:68|276:-8,2,119.999990463257,0|0|0,0:0|0:0|0:0,0:0:0:0:
172,68,60675,1,0,0:0:0:0:
88,172,61000,2,0,P|52:240|208:200,1,359.999971389771
256,192,62297,12,0,63595,0:0:0:0:
60,244,73973,6,0,P|40:284|96:380,2,125.999986141205,0|0|0,0:0|0:0|0:0,0:0:0:0:
136,296,75270,1,0,0:0:0:0:
212,240,75595,1,0,0:0:0:0:
292,284,75919,2,0,B|332:292|332:292|408:260,1,83.9999907608036
428,204,76568,6,0,P|396:184|304:216,2,125.999986141205
476,124,77865,2,0,L|492:16,1,83.9999907608036
400,16,78514,2,0,L|384:124,1,83.9999907608036
320,212,79162,6,0,P|381:239|448:216,2,119.999990463257
248,104,80135,1,0,0:0:0:0:
172,212,80460,2,0,B|184:296|184:296|144:340,1,119.999990463257
36,280,81108,2,0,B|24:196|24:196|64:152,1,119.999990463257
256,192,81757,12,0,84027,0:0:0:0:
80,128,84352,5,0,0:0:0:0:
192,56,84676,1,0,0:0:0:0:
268,164,85000,2,0,P|291:223|256:284,1,119.999990463257
156,340,85649,2,0,L|28:348,2,119.999990463257
284,368,86622,1,0,0:0:0:0:
404,316,86946,6,0,B|424:260|424:260|388:172,1,119.999990463257
284,144,87595,2,0,B|261:200|261:200|281:256,1,119.999990463257
184,344,88243,2,0,P|112:356|40:304,1,119.999990463257
132,224,88892,1,0,0:0:0:0:
40,128,89216,1,0,0:0:0:0:
124,24,89541,6,0,L|252:36,1,119.999990463257
364,88,90189,2,0,L|444:72,1,59.9999952316285
492,188,90676,2,0,P|392:252|296:212,1,179.999985694886
220,184,91487,2,0,L|240:332,1,119.999990463257
124,372,92135,6,0,P|104:320|132:248,1,119.999990463257
156,132,92784,2,0,B|124:132|124:132|76:108,1,59.9999952316285
12,20,93270,2,0,L|208:56,1,179.999985694886
320,80,94081,5,0,0:0:0:0:
320,80,94406,1,0,0:0:0:0:
320,80,94730,6,0,L|460:56,1,119.999990463257
476,188,95379,2,0,B|424:216|424:216|332:200,1,119.999990463257
296,320,96027,2,0,B|368:332|368:332|424:400,2,119.999990463257
168,356,97000,1,0,0:0:0:0:
60,280,97324,6,0,P|36:216|64:144,1,119.999990463257
156,92,97973,2,0,B|208:116|208:116|312:88,1,119.999990463257
396,64,98622,2,0,L|420:196,1,119.999990463257
344,292,99270,1,0,0:0:0:0:
232,220,99595,1,0,0:0:0:0:
144,316,99919,5,0,0:0:0:0:
388,160,101216,5,0,0:0:0:0:
256,192,102514,12,0,105108,0:0:0:0:
88,56,107379,5,0,0:0:0:0:
48,180,107703,6,0,P|116:188|180:136,1,119.999990463257
260,80,108352,2,0,B|288:128|288:128|272:200,1,119.999990463257
232,316,109001,1,0,0:0:0:0:
344,248,109325,1,0,0:0:0:0:
440,340,109649,2,0,P|480:264|448:196,1,119.999990463257
384,140,110297,6,0,P|344:64|376:-4,2,119.999990463257
500,200,111271,1,0,0:0:0:0:
388,272,111595,2,0,L|228:276,1,119.999990463257
161,350,112244,2,0,P|129:301|140:244,1,119.999990463257
248,168,112892,6,0,L|232:40,1,119.999990463257
104,32,113541,2,0,B|84:60|84:60|96:160,1,119.999990463257
152,260,114190,1,0,0:0:0:0:
248,168,114514,1,0,0:0:0:0:
288,292,114838,2,0,P|348:304|402:278,1,119.999990463257
332,164,115487,6,0,P|320:104|346:50,2,119.999990463257
456,120,116460,1,0,0:0:0:0:
488,248,116784,2,0,P|494:307|473:362,1,119.999990463257
340,360,117433,2,0,L|212:356,1,119.999990463257
120,268,118081,6,0,B|104:204|104:204|188:176,1,119.999990463257
288,200,118730,2,0,B|304:136|304:136|220:108,1,119.999990463257
116,76,119380,1,0,0:0:0:0:
16,180,119704,1,0,0:0:0:0:
108,292,120028,2,0,L|248:276,1,119.999990463257
360,224,120677,6,0,B|378:280|378:280|354:336,2,119.999990463257
248,136,121650,1,0,0:0:0:0:
136,228,121974,2,0,B|118:171|118:171|142:115,1,119.999990463257
252,24,122622,2,0,B|352:48,2,59.9999952316285
136,112,123271,6,0,P|108:80|124:-20,2,119.999990463257
268,172,124243,1,0,0:0:0:0:
404,120,124568,2,0,B|424:176|424:176|388:280,1,119.999990463257
268,284,125216,2,0,B|248:226|248:226|268:170,1,119.999990463257
152,84,125865,6,0,L|72:100,4,59.9999952316285
292,44,126838,1,0,0:0:0:0:
292,44,127324,6,0,B|308:88|308:88|284:144,1,89.9999928474428
216,204,127811,2,0,L|108:184,1,89.9999928474428
20,172,128297,2,0,L|28:232,1,59.9999952316285
140,324,128784,1,0,0:0:0:0:
