osu file format v14

[General]
AudioFilename: IKAROS.mp3
AudioLeadIn: 0
PreviewTime: 38400
Countdown: 0
SampleSet: Soft
StackLeniency: 0.7
Mode: 3
LetterboxInBreaks: 0
SpecialStyle: 0
WidescreenStoryboard: 1

[Editor]
DistanceSpacing: 0.5
BeatDivisor: 4
GridSize: 8
TimelineZoom: 1.1

[Metadata]
Title:IKAROS
TitleUnicode:IKAROS
Artist:ETIA. feat. Jenga
ArtistUnicode:ETIA. feat. Jenga
Creator:liaoxingyao
Version:Normal
Source:BMS
Tags:J-CORE BOFU2016 -[Apple]- SquareXD
BeatmapID:1211819
BeatmapSetID:571830

[Difficulty]
HPDrainRate:7
CircleSize:4
OverallDifficulty:8
ApproachRate:5
SliderMultiplier:1.4
SliderTickRate:1

[Events]
//Background and Video events
0,0,"59120277_p0.jpg",0,0
//Break Periods
//Storyboard Layer 0 (Background)
//Storyboard Layer 1 (Fail)
//Storyboard Layer 2 (Pass)
//Storyboard Layer 3 (Foreground)
//Storyboard Sound Samples

[TimingPoints]
0,342.857142857143,4,2,0,0,1,0

[HitObjects]
64,192,1371,5,0,0:0:0:0:
448,192,2057,1,0,0:0:0:0:
192,192,2828,1,0,0:0:0:0:
448,192,3428,1,0,0:0:0:0:
64,192,4114,1,0,0:0:0:0:
320,192,4114,1,0,0:0:0:0:
448,192,4800,1,0,0:0:0:0:
192,192,5571,1,0,0:0:0:0:
448,192,6171,1,0,0:0:0:0:
64,192,6857,1,0,0:0:0:0:
320,192,6857,1,0,0:0:0:0:
448,192,7200,1,0,0:0:0:0:
448,192,7885,1,0,0:0:0:0:
192,192,8228,1,0,0:0:0:0:
448,192,8742,1,0,0:0:0:0:
64,192,9257,1,0,0:0:0:0:
64,192,9942,1,0,0:0:0:0:
64,192,10628,1,0,0:0:0:0:
320,192,10971,1,0,0:0:0:0:
64,192,11485,1,0,0:0:0:0:
320,192,12000,1,0,0:0:0:0:
448,192,12342,1,0,0:0:0:0:
64,192,12342,1,0,0:0:0:0:
320,192,12685,1,0,0:0:0:0:
320,192,13200,1,0,0:0:0:0:
192,192,13714,1,0,0:0:0:0:
64,192,14228,1,0,0:0:0:0:
448,192,14742,1,0,0:0:0:0:
192,192,15085,1,0,0:0:0:0:
64,192,15085,1,0,0:0:0:0:
448,192,15428,1,0,0:0:0:0:
320,192,15942,1,0,0:0:0:0:
64,192,16457,1,0,0:0:0:0:
448,192,16457,1,0,0:0:0:0:
320,192,16971,1,0,0:0:0:0:
192,192,17485,1,0,0:0:0:0:
64,192,17828,1,0,0:0:0:0:
448,192,17828,1,0,0:0:0:0:
192,192,18342,1,0,0:0:0:0:
320,192,19200,1,0,0:0:0:0:
448,192,19200,1,0,0:0:0:0:
192,192,19714,1,0,0:0:0:0:
64,192,21085,1,0,0:0:0:0:
192,192,21942,1,0,0:0:0:0:
448,192,21942,1,0,0:0:0:0:
64,192,22457,1,0,0:0:0:0:
320,192,22971,128,0,23314:0:0:0:0:
64,192,23314,1,0,0:0:0:0:
448,192,23314,1,0,0:0:0:0:
192,192,23828,1,0,0:0:0:0:
320,192,24685,1,0,0:0:0:0:
448,192,24685,1,0,0:0:0:0:
192,192,25200,1,0,0:0:0:0:
64,192,25542,1,0,0:0:0:0:
448,192,25885,1,0,0:0:0:0:
320,192,26057,1,0,0:0:0:0:
64,192,26057,1,0,0:0:0:0:
192,192,26571,1,0,0:0:0:0:
320,192,26742,1,0,0:0:0:0:
448,192,26742,1,0,0:0:0:0:
64,192,27257,1,0,0:0:0:0:
192,192,27428,1,0,0:0:0:0:
448,192,27428,1,0,0:0:0:0:
320,192,27942,1,0,0:0:0:0:
192,192,28457,1,0,0:0:0:0:
64,192,28800,1,0,0:0:0:0:
448,192,28800,1,0,0:0:0:0:
320,192,29142,1,0,0:0:0:0:
64,192,29485,1,0,0:0:0:0:
320,192,29828,1,0,0:0:0:0:
192,192,30171,1,0,0:0:0:0:
448,192,30514,1,0,0:0:0:0:
192,192,30857,1,0,0:0:0:0:
448,192,31200,1,0,0:0:0:0:
320,192,31542,1,0,0:0:0:0:
64,192,31885,1,0,0:0:0:0:
320,192,32228,1,0,0:0:0:0:
64,192,32571,1,0,0:0:0:0:
448,192,32914,1,0,0:0:0:0:
192,192,33257,1,0,0:0:0:0:
448,192,33600,1,0,0:0:0:0:
192,192,33942,1,0,0:0:0:0:
64,192,34285,1,0,0:0:0:0:
448,192,34285,1,0,0:0:0:0:
192,192,34628,1,0,0:0:0:0:
320,192,34971,1,0,0:0:0:0:
192,192,35314,1,0,0:0:0:0:
448,192,35657,1,0,0:0:0:0:
320,192,36000,1,0,0:0:0:0:
192,192,36342,1,0,0:0:0:0:
320,192,36685,1,0,0:0:0:0:
448,192,37028,1,0,0:0:0:0:
64,192,37028,1,0,0:0:0:0:
192,192,37371,1,0,0:0:0:0:
448,192,37714,1,0,0:0:0:0:
320,192,38057,1,0,0:0:0:0:
192,192,38400,1,0,0:0:0:0:
192,192,39257,1,0,0:0:0:0:
64,192,39428,1,0,0:0:0:0:
320,192,39771,1,0,0:0:0:0:
448,192,39771,1,0,0:0:0:0:
64,192,40114,1,0,0:0:0:0:
320,192,40628,1,0,0:0:0:0:
64,192,40800,1,0,0:0:0:0:
192,192,41142,1,0,0:0:0:0:
448,192,41485,1,0,0:0:0:0:
192,192,42000,1,0,0:0:0:0:
448,192,42171,1,0,0:0:0:0:
64,192,42514,1,0,0:0:0:0:
448,192,42857,1,0,0:0:0:0:
64,192,43371,1,0,0:0:0:0:
448,192,43542,1,0,0:0:0:0:
192,192,43885,1,0,0:0:0:0:
320,192,44228,1,0,0:0:0:0:
192,192,44400,1,0,0:0:0:0:
64,192,44742,1,0,0:0:0:0:
320,192,44914,1,0,0:0:0:0:
192,192,45085,1,0,0:0:0:0:
448,192,45257,1,0,0:0:0:0:
64,192,45600,1,0,0:0:0:0:
448,192,46114,1,0,0:0:0:0:
64,192,46285,1,0,0:0:0:0:
192,192,46628,1,0,0:0:0:0:
320,192,46971,1,0,0:0:0:0:
192,192,47485,1,0,0:0:0:0:
320,192,47657,1,0,0:0:0:0:
64,192,48000,1,0,0:0:0:0:
320,192,48342,1,0,0:0:0:0:
64,192,48857,1,0,0:0:0:0:
320,192,49028,1,0,0:0:0:0:
448,192,49371,1,0,0:0:0:0:
192,192,49714,1,0,0:0:0:0:
448,192,49885,1,0,0:0:0:0:
320,192,50228,1,0,0:0:0:0:
64,192,50400,1,0,0:0:0:0:
320,192,50571,128,0,51085:0:0:0:0:
64,192,51085,1,0,0:0:0:0:
448,192,51085,1,0,0:0:0:0:
192,192,51428,1,0,0:0:0:0:
320,192,51771,1,0,0:0:0:0:
448,192,52114,1,0,0:0:0:0:
64,192,52457,1,0,0:0:0:0:
320,192,52800,1,0,0:0:0:0:
192,192,53142,1,0,0:0:0:0:
320,192,53485,1,0,0:0:0:0:
448,192,53828,1,0,0:0:0:0:
192,192,54171,1,0,0:0:0:0:
64,192,54514,1,0,0:0:0:0:
448,192,54857,1,0,0:0:0:0:
192,192,55200,1,0,0:0:0:0:
320,192,55542,1,0,0:0:0:0:
64,192,55885,1,0,0:0:0:0:
192,192,56228,1,0,0:0:0:0:
448,192,56571,1,0,0:0:0:0:
64,192,56914,1,0,0:0:0:0:
320,192,57257,1,0,0:0:0:0:
192,192,57600,1,0,0:0:0:0:
320,192,57942,1,0,0:0:0:0:
64,192,58285,1,0,0:0:0:0:
448,192,58628,1,0,0:0:0:0:
320,192,58971,1,0,0:0:0:0:
64,192,58971,1,0,0:0:0:0:
192,192,60342,1,0,0:0:0:0:
448,192,60342,1,0,0:0:0:0:
64,192,61028,1,0,0:0:0:0:
320,192,61028,1,0,0:0:0:0:
192,192,61714,1,0,0:0:0:0:
448,192,61714,1,0,0:0:0:0:
64,192,62057,1,0,0:0:0:0:
192,192,62400,1,0,0:0:0:0:
320,192,62742,1,0,0:0:0:0:
192,192,64457,1,0,0:0:0:0:
64,192,64457,1,0,0:0:0:0:
448,192,64971,1,0,0:0:0:0:
320,192,65828,1,0,0:0:0:0:
192,192,65828,1,0,0:0:0:0:
64,192,66342,1,0,0:0:0:0:
448,192,67200,1,0,0:0:0:0:
192,192,67714,1,0,0:0:0:0:
64,192,68571,1,0,0:0:0:0:
320,192,68571,1,0,0:0:0:0:
448,192,69085,1,0,0:0:0:0:
192,192,70457,1,0,0:0:0:0:
64,192,71314,1,0,0:0:0:0:
448,192,71314,1,0,0:0:0:0:
320,192,71828,1,0,0:0:0:0:
192,192,72342,1,0,0:0:0:0:
64,192,72685,1,0,0:0:0:0:
320,192,72685,1,0,0:0:0:0:
448,192,73200,1,0,0:0:0:0:
320,192,74057,1,0,0:0:0:0:
192,192,74057,1,0,0:0:0:0:
64,192,74571,1,0,0:0:0:0:
320,192,75428,1,0,0:0:0:0:
448,192,75428,1,0,0:0:0:0:
64,192,75771,1,0,0:0:0:0:
64,192,76457,1,0,0:0:0:0:
192,192,77142,1,0,0:0:0:0:
192,192,77828,1,0,0:0:0:0:
320,192,78514,1,0,0:0:0:0:
320,192,79200,1,0,0:0:0:0:
448,192,79885,1,0,0:0:0:0:
448,192,80571,1,0,0:0:0:0:
64,192,80914,1,0,0:0:0:0:
320,192,80914,1,0,0:0:0:0:
448,192,81257,1,0,0:0:0:0:
192,192,81600,1,0,0:0:0:0:
320,192,81942,1,0,0:0:0:0:
192,192,82285,1,0,0:0:0:0:
448,192,82285,1,0,0:0:0:0:
64,192,82628,1,0,0:0:0:0:
320,192,82971,1,0,0:0:0:0:
192,192,83314,1,0,0:0:0:0:
64,192,83657,1,0,0:0:0:0:
448,192,83657,1,0,0:0:0:0:
320,192,84342,1,0,0:0:0:0:
192,192,84342,1,0,0:0:0:0:
64,192,85028,1,0,0:0:0:0:
448,192,85028,1,0,0:0:0:0:
192,192,85542,1,0,0:0:0:0:
320,192,86057,128,0,86400:0:0:0:0:
64,192,86400,1,0,0:0:0:0:
448,192,86400,1,0,0:0:0:0:
320,192,86742,1,0,0:0:0:0:
192,192,87085,1,0,0:0:0:0:
448,192,87428,1,0,0:0:0:0:
320,192,87771,1,0,0:0:0:0:
64,192,88114,1,0,0:0:0:0:
448,192,88457,1,0,0:0:0:0:
192,192,88800,1,0,0:0:0:0:
320,192,89142,1,0,0:0:0:0:
448,192,89485,1,0,0:0:0:0:
192,192,89828,1,0,0:0:0:0:
64,192,90171,1,0,0:0:0:0:
448,192,90514,1,0,0:0:0:0:
192,192,90857,1,0,0:0:0:0:
320,192,91200,1,0,0:0:0:0:
64,192,91542,1,0,0:0:0:0:
192,192,91885,1,0,0:0:0:0:
448,192,92228,1,0,0:0:0:0:
64,192,92571,1,0,0:0:0:0:
320,192,92914,1,0,0:0:0:0:
192,192,93257,1,0,0:0:0:0:
320,192,93600,1,0,0:0:0:0:
64,192,93942,1,0,0:0:0:0:
448,192,94285,1,0,0:0:0:0:
320,192,94628,1,0,0:0:0:0:
64,192,94971,1,0,0:0:0:0:
448,192,95314,1,0,0:0:0:0:
192,192,95657,1,0,0:0:0:0:
64,192,96000,1,0,0:0:0:0:
320,192,96342,1,0,0:0:0:0:
192,192,96685,1,0,0:0:0:0:
448,192,97028,1,0,0:0:0:0:
320,192,97371,1,0,0:0:0:0:
192,192,97371,1,0,0:0:0:0:
448,192,97714,1,0,0:0:0:0:
64,192,98057,1,0,0:0:0:0:
320,192,98400,1,0,0:0:0:0:
192,192,98742,1,0,0:0:0:0:
320,192,99085,1,0,0:0:0:0:
64,192,99428,1,0,0:0:0:0:
448,192,99771,1,0,0:0:0:0:
192,192,100114,1,0,0:0:0:0:
64,192,100457,1,0,0:0:0:0:
320,192,100800,1,0,0:0:0:0:
448,192,101142,1,0,0:0:0:0:
64,192,101485,1,0,0:0:0:0:
320,192,101828,1,0,0:0:0:0:
192,192,102171,1,0,0:0:0:0:
448,192,102514,1,0,0:0:0:0:
320,192,102857,1,0,0:0:0:0:
64,192,103200,1,0,0:0:0:0:
448,192,103542,1,0,0:0:0:0:
192,192,103885,1,0,0:0:0:0:
320,192,104228,1,0,0:0:0:0:
192,192,104571,1,0,0:0:0:0:
448,192,104914,1,0,0:0:0:0:
64,192,105257,1,0,0:0:0:0:
192,192,105600,1,0,0:0:0:0:
320,192,105600,1,0,0:0:0:0:
448,192,105942,1,0,0:0:0:0:
64,192,106285,1,0,0:0:0:0:
320,192,106628,1,0,0:0:0:0:
448,192,106971,1,0,0:0:0:0:
192,192,106971,128,0,108342:0:0:0:0:
64,192,108685,1,0,0:0:0:0:
448,192,108685,1,0,0:0:0:0:
192,192,109714,128,0,110228:0:0:0:0:
320,192,110228,128,0,110742:0:0:0:0:
64,192,110742,1,0,0:0:0:0:
448,192,111085,128,0,111771:0:0:0:0:
192,192,111771,128,0,112457:0:0:0:0:
320,192,112457,128,0,113142:0:0:0:0:
192,192,113142,128,0,113828:0:0:0:0:
64,192,113828,1,0,0:0:0:0:
448,192,113828,1,0,0:0:0:0:
320,192,114171,1,0,0:0:0:0:
64,192,114514,1,0,0:0:0:0:
320,192,114857,1,0,0:0:0:0:
64,192,115200,1,0,0:0:0:0:
448,192,115200,1,0,0:0:0:0:
192,192,115542,1,0,0:0:0:0:
64,192,115885,1,0,0:0:0:0:
448,192,115885,1,0,0:0:0:0:
192,192,116228,1,0,0:0:0:0:
64,192,116571,1,0,0:0:0:0:
448,192,116571,1,0,0:0:0:0:
320,192,116914,1,0,0:0:0:0:
64,192,117257,1,0,0:0:0:0:
448,192,117257,1,0,0:0:0:0:
320,192,117600,1,0,0:0:0:0:
192,192,117942,1,0,0:0:0:0:
448,192,117942,1,0,0:0:0:0:
64,192,118457,1,0,0:0:0:0:
320,192,118457,1,0,0:0:0:0:
192,192,118971,1,0,0:0:0:0:
448,192,118971,1,0,0:0:0:0:
64,192,119657,1,0,0:0:0:0:
448,192,119657,1,0,0:0:0:0:
192,192,120685,1,0,0:0:0:0:
320,192,121200,1,0,0:0:0:0:
64,192,122057,128,0,125314:0:0:0:0:
