osu file format v12

[General]
AudioFilename: 14 - .mp3
AudioLeadIn: 0
PreviewTime: 165794
Countdown: 1
SampleSet: Soft
StackLeniency: 0.2
Mode: 0
LetterboxInBreaks: 1
WidescreenStoryboard: 0

[Editor]
DistanceSpacing: 1.8
BeatDivisor: 4
GridSize: 8

[Metadata]
Title:yasashii sekai no chiheisen
TitleUnicode:優しい世界の地平線
Artist:ETIA.
ArtistUnicode:ETIA.
Creator:abuduola
Version:Easy
Source:
Tags:
BeatmapID:320707
BeatmapSetID:126155

[Difficulty]
HPDrainRate:5
CircleSize:4
OverallDifficulty:8
ApproachRate:9
SliderMultiplier:1.8
SliderTickRate:1

[Events]
//Background and Video events
0,0,"39400722.jpg",0,0
//Break Periods
2,28812,30660
2,31636,33484
2,34460,36307
2,37283,38954
//Storyboard Layer 0 (Background)
//Storyboard Layer 1 (Fail)
//Storyboard Layer 2 (Pass)
//Storyboard Layer 3 (Foreground)
//Storyboard Sound Samples
//Background Colour Transformations
3,100,163,162,255

[TimingPoints]
1437,352.941176470588,4,2,0,40,1,0
1437,-142.857142857143,4,2,1,40,0,0
12662,-200,4,2,3,40,0,0
16789,-200,4,2,3,35,0,0
17029,-125,4,2,3,60,0,0
27617,-125,4,2,3,5,0,0
27705,-125,4,2,0,60,0,0
27794,-125,4,2,0,5,0,0
27882,-125,4,2,0,60,0,0
27970,-125,4,2,0,5,0,0
28058,-125,4,2,0,60,0,0
28147,-125,4,2,0,5,0,0
28235,-125,4,2,3,70,0,0
39529,-100,4,2,1,60,0,0
41382,-142.857142857143,4,2,1,60,0,0
42264,-100,4,2,1,60,0,0
44205,-142.857142857143,4,2,1,60,0,0
50823,-100,4,2,1,70,0,0
60705,-50,4,2,1,70,0,0
60819,-50,4,2,1,5,0,0
61058,-100,4,2,1,70,0,0
61436,-100,4,1,1,70,0,0
62142,-100,4,2,1,70,0,0
69617,-76.9230769230769,4,2,1,70,0,0
69907,-76.9230769230769,4,2,1,5,0,0
70084,-76.9230769230769,4,2,1,70,0,0
70260,-76.9230769230769,4,2,1,5,0,0
70436,-76.9230769230769,4,2,1,40,0,0
71205,-133.333333333333,4,2,1,50,0,0
71911,-76.9230769230769,4,2,1,60,0,0
73436,-76.9230769230769,4,2,1,70,0,0
74823,-133.333333333333,4,2,1,70,0,0
76147,-76.9230769230769,4,2,1,70,0,0
77647,-133.333333333333,4,2,1,70,0,0
78970,-76.9230769230769,4,2,1,70,0,0
82966,-76.9230769230769,4,1,0,50,0,0
83319,-76.9230769230769,4,1,0,70,0,0
83999,-100,4,2,1,50,0,0
84176,-83.3333333333333,4,2,1,60,0,0
84352,-71.4285714285714,4,2,1,70,0,0
84529,-62.5,4,2,1,80,0,0
84705,-76.9230769230769,4,2,1,90,0,0
90025,-76.9230769230769,4,1,0,50,0,0
90378,-76.9230769230769,4,2,1,90,0,0
93201,-76.9230769230769,4,2,1,100,0,0
94789,-76.9230769230769,4,2,1,70,0,0
95672,-76.9230769230769,4,1,0,60,0,0
96025,-76.9230769230769,4,2,1,100,0,0
98823,-100,4,2,1,70,0,0
99705,-133.333333333333,4,2,1,70,0,0
100058,-200,4,2,1,70,0,0
100411,-100,4,2,1,70,0,0
104470,-66.6666666666667,4,2,1,70,0,0
104999,-200,4,2,1,70,0,0
105529,-100,4,2,1,70,0,0
105882,-66.6666666666667,4,2,1,70,0,0
106941,-100,4,2,1,70,0,0
107294,-200,4,2,3,60,0,0
108025,-200,4,2,4,60,0,0
110117,-166.666666666667,4,2,4,60,0,0
112941,-142.857142857143,4,2,4,60,0,0
115764,-125,4,2,4,60,0,0
117176,-200,4,2,4,60,0,0
117907,-200,4,2,2,40,0,0
124588,-200,4,2,1,5,0,0
124764,-200,4,2,1,70,0,0
125117,-200,4,2,1,5,0,0
125294,-200,4,2,1,70,0,0
125647,-200,4,2,1,5,0,0
125823,-200,4,2,1,70,0,0
126176,-200,4,2,1,5,0,0
126352,-142.857142857143,4,2,2,70,0,0
127411,-142.857142857143,4,2,1,5,0,0
127588,-142.857142857143,4,2,1,70,0,0
127941,-142.857142857143,4,2,1,5,0,0
128117,-142.857142857143,4,2,1,70,0,0
128470,-142.857142857143,4,2,1,5,0,0
128647,-142.857142857143,4,2,1,70,0,0
128999,-142.857142857143,4,2,1,5,0,0
129176,-100,4,2,1,40,0,0
129378,-100,4,2,1,50,0,0
129554,-100,4,2,1,60,0,0
129731,-100,4,2,1,70,0,0
129882,-83.3333333333333,4,2,1,100,0,0
130348,-83.3333333333333,4,2,1,70,0,0
133147,-100,4,2,1,70,0,0
133588,-142.857142857143,4,2,1,5,0,0
133764,-142.857142857143,4,2,1,70,0,0
133941,-142.857142857143,4,2,1,5,0,0
134294,-133.333333333333,4,2,1,70,0,0
134382,-142.857142857143,4,2,1,5,0,0
134647,-100,4,2,1,70,0,0
139764,-50,4,1,0,90,0,0
139966,-50,4,1,0,5,0,0
140117,-100,4,2,1,90,0,0
141529,-50,4,1,0,70,0,0
141642,-50,4,1,0,5,0,0
141882,-100,4,2,1,70,0,0
142562,-100,4,2,2,70,0,0
153882,-58.8235294117647,4,1,0,70,0,0
153995,-58.8235294117647,4,1,0,40,0,0
154147,-100,4,2,1,70,0,0
162705,-100,4,2,1,5,0,0
162882,-83.3333333333333,4,2,1,70,0,0
163235,-83.3333333333333,4,2,1,5,0,0
163411,-71.4285714285714,4,2,1,70,0,0
163764,-71.4285714285714,4,2,1,5,0,0
163941,-62.5,4,2,1,70,0,0
164294,-62.5,4,2,1,5,0,0
164470,-200,4,2,1,70,0,0
165176,-66.6666666666667,4,2,2,70,0,0
165882,-100,4,2,1,40,0,0
166058,-76.9230769230769,4,2,1,50,0,0
166235,-62.5,4,2,1,60,0,0
166411,-52.6315789473684,4,2,1,70,0,0
166588,-76.9230769230769,4,2,1,80,0,0
169235,-200,4,2,1,80,0,0
169588,-76.9230769230769,4,2,1,80,0,0
172676,-100,4,2,1,80,0,0
174350,-76.9230769230769,4,2,1,80,0,0
183441,-50,4,2,1,80,0,0
183642,-50,4,2,1,40,0,0
183819,-50,4,2,1,50,0,0
183995,-50,4,2,1,60,0,0
184172,-50,4,2,1,70,0,0
184348,-50,4,2,1,80,0,0
184525,-50,4,2,1,90,0,0
186705,-100,4,2,1,80,0,0
187235,-76.9230769230769,4,2,1,80,0,0
187764,-62.5,4,2,1,70,0,0
188294,-52.6315789473684,4,2,1,70,0,0
188470,-100,4,2,1,40,0,0
188647,-76.9230769230769,4,2,1,50,0,0
188823,-62.5,4,2,1,60,0,0
188999,-52.6315789473684,4,2,1,70,0,0
189201,-66.6666666666667,4,2,2,100,0,1
189289,-66.6666666666667,4,2,1,80,0,1
197823,-100,4,2,1,80,0,1
198529,-83.3333333333333,4,2,1,80,0,1
199235,-71.4285714285714,4,2,1,80,0,1
200470,-66.6666666666667,4,2,1,80,0,1
205789,-66.6666666666667,4,2,1,50,0,1
206231,-66.6666666666667,4,2,1,40,0,1
206407,-66.6666666666667,4,2,1,50,0,1
206584,-66.6666666666667,4,2,1,60,0,1
206760,-66.6666666666667,4,2,1,70,0,1
206936,-66.6666666666667,4,2,1,80,0,1
207113,-66.6666666666667,4,2,1,90,0,1
208941,-50,4,2,1,90,0,1
210970,-76.9230769230769,4,2,1,70,0,1
211789,-76.9230769230769,4,2,3,70,0,0
213529,-76.9230769230769,4,2,1,5,0,0
213705,-76.9230769230769,4,2,1,70,0,0
214058,-76.9230769230769,4,2,1,5,0,0
214235,-76.9230769230769,4,2,1,70,0,0
214588,-76.9230769230769,4,2,1,5,0,0
217436,-76.9230769230769,4,2,3,25,0,0

[Colours]
Combo1 : 113,175,164
Combo2 : 170,138,87
Combo3 : 255,255,255

[HitObjects]
424,336,1437,2,0,P|392:328|360:312,1,62.9999980773926
208,304,1789,2,0,P|240:296|272:280,1,62.9999980773926,0|0,0:0|0:0,0:0:0:0:
392,120,2142,1,2,0:0:0:0:
392,120,2319,2,0,P|376:160|376:192,1,62.9999980773926
392,304,2672,1,0,0:0:0:0:
392,120,2848,2,0,P|360:144|344:168,1,62.9999980773926
392,304,3201,2,0,P|424:280|440:256,1,62.9999980773926,0|0,0:0|0:0,0:0:0:0:
464,32,3554,1,2,0:0:0:0:
464,32,3731,2,0,P|424:56|392:64,1,62.9999980773926
232,48,4084,1,0,0:0:0:0:
96,264,4260,6,0,P|128:240|144:216,1,62.9999980773926
64,56,4613,2,0,P|88:80|128:104,1,62.9999980773926,0|0,0:0|0:0,0:0:0:0:
352,144,4966,1,2,0:0:0:0:
232,48,5142,2,0,P|224:80|224:128,1,62.9999980773926
240,232,5495,1,0,0:0:0:0:
432,104,5672,2,0,P|392:112|368:128,1,62.9999980773926
264,320,6025,2,0,P|304:312|328:296,1,62.9999980773926,0|0,0:0|0:0,0:0:0:0:
312,24,6378,1,2,0:0:0:0:
88,184,6554,2,0,P|120:160|136:136,1,62.9999980773926
192,32,6907,1,0,0:0:0:0:
16,72,7084,5,0,0:0:0:0:
128,240,7260,1,0,0:0:0:0:
160,120,7436,1,0,0:0:0:0:
0,224,7613,1,0,0:0:0:0:
152,336,7789,5,2,0:0:0:0:
152,336,7966,6,0,P|192:328|224:312,1,62.9999980773926
320,248,8319,1,0,0:0:0:0:
392,64,8495,5,0,0:0:0:0:
232,144,8672,1,0,0:0:0:0:
288,32,8848,1,0,0:0:0:0:
352,184,9025,1,0,0:0:0:0:
136,112,9201,5,2,0:0:0:0:
136,112,9378,6,0,P|168:136|184:160,1,62.9999980773926
224,272,9731,1,0,0:0:0:0:
344,336,9907,5,0,0:0:0:0:
392,280,10084,1,0,0:0:0:0:
400,208,10260,1,0,0:0:0:0:
368,136,10436,1,0,0:0:0:0:
296,88,10613,1,2,0:0:0:0:
168,168,10789,1,0,0:0:0:0:
192,72,10966,1,0,0:0:0:0:
264,184,11142,1,0,0:0:0:0:
224,264,11319,5,0,0:0:0:0:
144,288,11495,1,0,0:0:0:0:
64,256,11672,1,0,0:0:0:0:
32,176,11848,1,0,0:0:0:0:
72,72,12025,1,2,0:0:0:0:
168,216,12201,1,0,0:0:0:0:
32,176,12378,1,0,0:0:0:0:
216,96,12554,1,0,0:0:0:0:
216,96,12731,6,4,B|280:96|328:104|328:104|360:80|368:24|368:24|392:72|400:128|400:128|440:152|496:144|496:144|456:176|400:192|400:192|400:248|424:296|424:296|368:264|336:216|336:216|288:232|248:272|248:272|256:208|296:160|296:160|264:120|216:96,1,1080
80,56,17142,6,0,P|88:96|112:128,1,72
240,80,17495,1,0,0:0:0:0:
240,80,17672,2,0,P|259:110|265:145,1,72
408,112,18025,2,0,P|400:146|379:176,1,72,2|0,0:0|0:0,0:0:0:0:
504,248,18378,2,0,P|476:271|442:282,1,72
440,368,18731,1,0,0:0:0:0:
360,344,18907,1,0,0:0:0:0:
304,280,19084,1,0,0:0:0:0:
304,192,19260,1,0,0:0:0:0:
304,192,19348,1,0,0:0:0:0:
304,192,19436,1,2,0:0:0:0:
368,128,19613,1,0,0:0:0:0:
456,120,19789,6,0,P|440:160|408:200,1,72
304,280,20142,2,0,P|320:240|352:200,1,72
456,120,20495,1,0,0:0:0:0:
496,224,20672,1,0,0:0:0:0:
432,312,20848,1,2,0:0:0:0:
328,320,21025,1,0,0:0:0:0:
216,216,21201,2,0,P|264:216|296:232,1,72
296,64,21554,2,0,P|328:96|344:128,1,72
384,216,21907,1,0,0:0:0:0:
384,216,22260,5,2,0:0:0:0:
384,216,22613,5,4,0:0:0:0:
248,256,22789,1,0,0:0:0:0:
336,144,22966,1,0,0:0:0:0:
336,288,23142,1,0,0:0:0:0:
248,168,23319,1,0,0:0:0:0:
312,192,23495,1,0,0:0:0:0:
352,248,23672,1,2,0:0:0:0:
328,320,23848,1,0,0:0:0:0:
264,352,24025,5,0,0:0:0:0:
232,264,24201,1,0,0:0:0:0:
280,184,24378,1,0,0:0:0:0:
376,168,24554,1,0,0:0:0:0:
456,224,24731,1,0,0:0:0:0:
368,248,24907,1,0,0:0:0:0:
336,232,24995,1,0,0:0:0:0:
312,200,25084,1,2,0:0:0:0:
296,96,25260,1,0,0:0:0:0:
376,24,25436,6,0,P|408:56|416:96,1,72
320,288,25789,2,0,P|288:256|280:216,1,72
376,24,26142,1,0,0:0:0:0:
472,80,26319,1,0,0:0:0:0:
504,184,26495,1,2,0:0:0:0:
448,280,26672,1,0,0:0:0:0:
352,328,26848,2,0,P|328:336|264:344,1,72
72,360,27201,2,0,P|104:320|112:280,1,72
104,72,27554,6,2,L|128:112,1,36,2|0,0:0|0:0,0:0:0:0:
136,200,27731,2,2,L|168:216,1,36
232,288,27907,2,2,L|280:288,1,36
352,328,28084,2,2,L|400:312,1,36
392,48,28260,5,4,0:0:0:0:
392,48,28436,6,2,L|360:128,1,72,2|2,0:0|0:0,0:0:0:0:
384,72,31260,6,2,L|352:152,1,72,2|2,0:0|0:0,0:0:0:0:
349,162,34084,6,2,L|376:96,1,72
368,120,36907,6,2,L|336:200,1,72
80,96,39554,5,4,0:0:0:0:
104,112,39642,1,0,0:0:0:0:
128,128,39731,1,0,0:0:0:0:
120,296,39907,1,8,0:0:0:0:
120,296,40260,2,0,L|176:224,1,90
272,96,40613,1,8,0:0:0:0:
120,296,40966,2,0,L|208:184,1,135
272,96,41319,1,8,0:0:0:0:
120,296,41495,2,0,L|216:264,1,94.499997116089
192,208,41848,2,0,L|176:304,1,94.499997116089,8|0,0:0|0:0,0:0:0:0:
168,360,42201,1,8,0:0:0:0:
344,336,42378,5,4,0:0:0:0:
360,312,42466,1,0,0:0:0:0:
376,288,42554,1,0,0:0:0:0:
464,152,42731,1,8,0:0:0:0:
464,152,43084,2,0,L|376:184,1,90
200,240,43436,1,8,0:0:0:0:
464,152,43789,2,0,L|312:208,1,135
200,240,44142,1,8,0:0:0:0:
464,152,44319,2,0,L|368:112,1,94.499997116089
424,80,44672,2,0,L|400:184,1,94.499997116089,8|0,0:0|0:0,0:0:0:0:
392,224,45025,1,8,0:0:0:0:
168,64,45201,5,4,0:0:0:0:
184,104,45289,1,0,0:0:0:0:
200,144,45378,1,0,0:0:0:0:
456,192,45554,1,8,0:0:0:0:
456,192,45907,2,0,L|384:224,1,62.9999980773926,2|0,0:0|0:0,0:0:0:0:
256,264,46260,1,8,0:0:0:0:
344,64,46613,5,4,0:0:0:0:
328,104,46701,1,0,0:0:0:0:
312,144,46789,1,0,0:0:0:0:
56,192,46966,1,8,0:0:0:0:
56,192,47319,2,0,L|128:224,1,62.9999980773926,2|0,0:0|0:0,0:0:0:0:
256,264,47672,1,8,0:0:0:0:
256,24,48025,5,4,0:0:0:0:
256,56,48113,1,0,0:0:0:0:
256,88,48201,1,0,0:0:0:0:
256,264,48378,1,8,0:0:0:0:
256,24,48731,5,4,0:0:0:0:
256,56,48819,1,0,0:0:0:0:
256,88,48907,1,0,0:0:0:0:
256,264,49084,1,8,0:0:0:0:
112,160,49436,5,4,0:0:0:0:
112,160,49525,1,0,0:0:0:0:
112,160,49613,1,0,0:0:0:0:
256,264,49789,1,8,0:0:0:0:
400,376,49966,1,4,0:0:0:0:
400,376,50054,1,0,0:0:0:0:
400,376,50142,1,0,0:0:0:0:
480,200,50319,1,12,0:0:0:0:
480,200,50407,1,0,0:0:0:0:
480,200,50495,1,0,0:0:0:0:
256,264,50672,1,14,0:0:0:0:
64,312,50848,6,0,B|72:264|72:264|112:240,1,90,4|0,0:0|0:0,0:0:0:0:
320,176,51201,2,0,B|312:224|312:224|272:248,1,90,2|0,0:0|0:0,0:0:0:0:
64,312,51554,1,0,0:0:0:0:
77,269,51642,1,0,0:0:0:0:
110,239,51731,1,0,0:0:0:0:
153,230,51819,1,0,0:0:0:0:
200,224,51907,2,0,P|240:208|272:160,1,90,2|2,0:0|0:0,0:0:0:0:
280,40,52260,5,0,0:0:0:0:
296,80,52348,1,0,0:0:0:0:
312,120,52436,1,0,0:0:0:0:
360,248,52613,1,2,0:0:0:0:
232,208,52789,1,2,0:0:0:0:
104,168,52966,1,0,0:0:0:0:
120,208,53054,1,0,0:0:0:0:
136,248,53142,1,0,0:0:0:0:
184,376,53319,1,2,0:0:0:0:
232,208,53495,1,2,0:0:0:0:
280,40,53672,6,0,B|240:64|240:64|240:112,1,90
112,288,54025,2,0,B|152:264|152:264|152:216,1,90,2|0,0:0|0:0,0:0:0:0:
280,40,54378,1,0,0:0:0:0:
236,46,54466,1,0,0:0:0:0:
207,79,54554,1,0,0:0:0:0:
209,123,54642,1,0,0:0:0:0:
240,152,54731,2,0,L|336:168|336:168,1,90,2|2,0:0|0:0,0:0:0:0:
504,168,55084,5,0,0:0:0:0:
472,200,55172,1,0,0:0:0:0:
440,232,55260,1,0,0:0:0:0:
336,320,55436,1,2,0:0:0:0:
328,184,55613,1,2,0:0:0:0:
320,48,55789,1,0,0:0:0:0:
288,80,55878,1,0,0:0:0:0:
256,112,55966,1,0,0:0:0:0:
152,200,56142,1,2,0:0:0:0:
328,184,56319,1,2,0:0:0:0:
480,56,56495,6,0,P|440:80|424:128,1,90
424,336,56848,2,0,P|423:289|389:251,1,90,2|0,0:0|0:0,0:0:0:0:
248,112,57201,1,0,0:0:0:0:
237,122,57289,1,0,0:0:0:0:
226,133,57378,1,0,0:0:0:0:
216,143,57466,1,0,0:0:0:0:
208,152,57554,2,2,P|248:174|298:164,1,90
440,40,57907,5,0,0:0:0:0:
416,80,57995,1,0,0:0:0:0:
392,120,58084,1,0,0:0:0:0:
344,120,58172,1,0,0:0:0:0:
296,120,58260,2,2,L|248:200,1,90
104,280,58613,1,0,0:0:0:0:
128,240,58701,1,0,0:0:0:0:
152,200,58789,1,0,0:0:0:0:
200,200,58878,1,0,0:0:0:0:
248,200,58966,2,2,L|296:120,1,90
352,16,59319,5,0,0:0:0:0:
432,120,59495,1,0,0:0:0:0:
304,152,59672,1,2,0:0:0:0:
432,120,59848,1,0,0:0:0:0:
432,120,59936,1,0,0:0:0:0:
432,120,60025,1,0,0:0:0:0:
272,56,60201,1,2,0:0:0:0:
304,232,60378,1,2,0:0:0:0:
432,120,60554,1,2,0:0:0:0:
272,56,60731,6,8,L|120:160|120:160,1,180
272,96,61084,2,0,L|296:88,6,22.5
216,112,61436,5,8,0:0:0:0:
128,136,61554,1,8,0:0:0:0:
40,160,61672,1,8,0:0:0:0:
16,48,61789,5,8,0:0:0:0:
116,79,61907,1,8,0:0:0:0:
216,112,62025,1,8,0:0:0:0:
216,112,62142,6,0,L|304:152,1,90,4|0,0:0|0:0,0:0:0:0:
216,112,62495,2,0,L|232:208,1,90,2|0,0:0|0:0,0:0:0:0:
216,112,62848,1,0,0:0:0:0:
216,112,62936,1,0,0:0:0:0:
216,112,63025,1,0,0:0:0:0:
216,112,63113,1,0,0:0:0:0:
216,112,63201,2,2,L|144:184,1,90
88,336,63554,2,0,P|128:312|136:272,1,90
184,136,63907,2,2,P|144:160|136:200,1,90
236,284,64260,2,0,P|212:244|172:236,1,90
36,188,64613,2,2,P|60:228|100:236,1,90
296,272,64966,6,0,L|208:232,1,90,0|0,0:0|0:0,0:0:0:0:
296,272,65319,2,0,L|280:176,1,90,2|0,0:0|0:0,0:0:0:0:
296,272,65672,1,0,0:0:0:0:
296,272,65760,1,0,0:0:0:0:
296,272,65848,1,0,0:0:0:0:
296,272,65936,1,0,0:0:0:0:
296,272,66025,2,2,L|368:200,1,90
411,148,66378,2,0,P|454:157|476:196,1,90
340,147,66731,2,2,P|297:138|276:100,1,90
375,183,67084,2,0,P|366:226|328:248,1,90
376,112,67436,2,2,P|385:69|424:48,1,90
480,216,67789,6,0,P|448:248|400:264,1,90
216,152,68142,1,2,0:0:0:0:
247,120,68231,1,0,0:0:0:0:
289,104,68319,1,0,0:0:0:0:
456,144,68495,6,0,P|424:112|376:96,1,90
248,224,68848,1,2,0:0:0:0:
279,256,68936,1,0,0:0:0:0:
321,272,69025,1,0,0:0:0:0:
456,144,69201,5,0,0:0:0:0:
432,184,69289,1,0,0:0:0:0:
408,224,69378,1,0,0:0:0:0:
352,40,69554,1,2,0:0:0:0:
352,40,69731,2,0,B|320:104|320:104|392:200,1,175.499991966248,2|0,0:0|0:0,0:0:0:0:
408,96,70084,2,0,B|470:179|470:179|438:243,1,175.499991966248,2|0,0:0|0:0,0:0:0:0:
438,243,70436,1,2,0:0:0:0:
160,312,70613,5,0,0:0:0:0:
192,304,70701,1,0,0:0:0:0:
224,296,70789,1,0,0:0:0:0:
438,243,70966,1,8,0:0:0:0:
160,312,71319,2,0,L|248:288,1,67.5000025749208
438,243,71672,1,8,0:0:0:0:
160,312,72025,5,0,0:0:0:0:
176,272,72113,1,0,0:0:0:0:
192,232,72201,1,0,0:0:0:0:
256,72,72378,1,8,0:0:0:0:
256,72,72554,2,0,P|312:136|400:136,1,175.499991966248,8|0,0:0|0:0,0:0:0:0:
368,24,72907,2,0,L|288:192,1,175.499991966248,8|0,0:0|0:0,0:0:0:0:
272,224,73260,1,8,0:0:0:0:
192,360,73436,6,0,L|160:312,1,58.4999973220826,4|0,0:0|0:0,0:0:0:0:
192,232,73613,2,0,L|224:184,1,58.4999973220826,0|0,0:0|0:0,0:0:0:0:
192,104,73789,2,0,L|160:56,1,58.4999973220826,8|0,0:0|0:0,0:0:0:0:
104,144,74054,1,0,0:0:0:0:
104,144,74142,2,0,L|48:256,1,116.999994644165
192,104,74495,1,8,0:0:0:0:
112,160,74672,1,0,0:0:0:0:
112,160,74760,1,0,0:0:0:0:
112,160,74848,2,0,L|64:256,1,101.250003862381
192,104,75201,1,8,0:0:0:0:
120,184,75378,1,0,0:0:0:0:
96,232,75466,1,0,0:0:0:0:
72,280,75554,1,0,0:0:0:0:
48,328,75642,1,0,0:0:0:0:
24,368,75731,2,8,B|80:352|80:352|160:384,1,135.000005149842
296,384,76260,6,0,L|248:352,1,58.4999973220826,4|0,0:0|0:0,0:0:0:0:
176,296,76436,2,0,L|128:256,1,58.4999973220826
64,208,76613,2,0,L|88:152,1,58.4999973220826,8|0,0:0|0:0,0:0:0:0:
135,62,76878,1,0,0:0:0:0:
135,62,76966,2,0,P|177:100|236:100,1,116.999994644165
208,24,77319,1,8,0:0:0:0:
120,80,77495,1,0,0:0:0:0:
120,80,77584,1,0,0:0:0:0:
120,80,77672,2,0,P|168:121|233:114,1,101.250003862381
208,24,78025,1,8,0:0:0:0:
104,96,78201,1,0,0:0:0:0:
129,125,78289,1,0,0:0:0:0:
165,138,78378,1,0,0:0:0:0:
203,134,78466,1,0,0:0:0:0:
236,112,78554,2,8,P|277:94|355:134,1,135.000005149842
448,264,79084,6,0,L|400:232,1,58.4999973220826,4|0,0:0|0:0,0:0:0:0:
328,176,79260,2,0,L|324:233,1,58.4999973220826
312,320,79436,2,0,L|363:294,1,58.4999973220826,8|0,0:0|0:0,0:0:0:0:
480,96,79701,1,0,0:0:0:0:
480,96,79789,1,0,0:0:0:0:
328,160,79966,1,2,0:0:0:0:
464,256,80142,1,8,0:0:0:0:
448,72,80319,1,0,0:0:0:0:
448,72,80407,1,0,0:0:0:0:
448,72,80495,1,0,0:0:0:0:
296,184,80672,1,2,0:0:0:0:
480,232,80848,1,8,0:0:0:0:
400,40,81025,1,0,0:0:0:0:
400,40,81113,1,0,0:0:0:0:
400,40,81201,1,0,0:0:0:0:
272,208,81378,1,8,0:0:0:0:
272,208,81466,1,0,0:0:0:0:
272,208,81554,1,0,0:0:0:0:
480,200,81731,1,8,0:0:0:0:
40,104,81907,5,4,0:0:0:0:
40,104,81995,1,0,0:0:0:0:
40,104,82084,1,0,0:0:0:0:
40,104,82172,1,0,0:0:0:0:
56,144,82260,1,0,0:0:0:0:
88,168,82348,1,0,0:0:0:0:
128,168,82436,1,0,0:0:0:0:
168,152,82525,1,0,0:0:0:0:
208,112,82613,1,2,0:0:0:0:
248,72,82701,1,2,0:0:0:0:
296,56,82789,1,2,0:0:0:0:
352,56,82878,1,2,0:0:0:0:
408,88,82966,1,0,0:0:0:0:
440,144,83054,1,0,0:0:0:0:
424,200,83142,1,0,0:0:0:0:
376,240,83231,1,0,0:0:0:0:
312,240,83319,5,0,0:0:0:0:
0,48,83672,1,0,0:0:0:0:
64,264,83848,1,0,0:0:0:0:
112,256,84025,2,0,L|64:264,1,45,4|0,0:0|0:0,0:0:0:0:
200,152,84201,2,0,L|136:128,1,53.9999983520508,4|0,0:0|0:0,0:0:0:0:
352,160,84378,2,0,L|328:96,1,62.9999980773926,4|0,0:0|0:0,0:0:0:0:
456,288,84554,2,0,L|488:224,1,72,4|0,0:0|0:0,0:0:0:0:
488,104,84731,6,0,P|416:112|400:208,1,175.499991966248,4|0,0:0|0:0,0:0:0:0:
432,264,85084,1,8,0:0:0:0:
432,264,85260,2,0,L|368:280,1,58.4999973220826
288,288,85436,1,0,0:0:0:0:
385,119,85613,1,2,0:0:0:0:
336,203,85789,1,8,0:0:0:0:
433,34,85966,1,8,0:0:0:0:
434,35,86142,6,0,B|360:24|352:104|272:88,1,175.499991966248,4|0,0:0|0:0,0:0:0:0:
192,56,86495,1,8,0:0:0:0:
80,192,86672,2,0,L|128:136,1,58.4999973220826
192,56,86848,1,0,0:0:0:0:
388,140,87025,1,2,0:0:0:0:
340,20,87201,1,8,0:0:0:0:
232,176,87378,1,8,0:0:0:0:
192,56,87554,6,0,B|240:64|240:64|248:80|248:80|304:88,2,116.999994644165,0|0|8,0:0|0:0|0:0,0:0:0:0:
192,56,88084,2,0,P|136:144|72:136,1,175.499991966248,4|0,0:0|0:0,0:0:0:0:
114,69,88436,2,0,P|157:140|103:216,1,175.499991966248,4|0,0:0|0:0,0:0:0:0:
74,139,88789,2,0,P|158:145|191:222,1,175.499991966248,4|0,0:0|0:0,0:0:0:0:
104,224,89142,1,2,0:0:0:0:
107,219,89231,1,0,0:0:0:0:
110,214,89319,1,0,0:0:0:0:
114,209,89407,1,0,0:0:0:0:
117,204,89495,1,0,0:0:0:0:
121,200,89584,1,0,0:0:0:0:
124,195,89672,1,0,0:0:0:0:
127,190,89760,1,0,0:0:0:0:
131,185,89848,1,0,0:0:0:0:
134,181,89936,1,0,0:0:0:0:
138,176,90025,6,0,L|176:172,1,29.2499986610413
152,160,90113,2,0,L|124:132,1,29.2499986610413
164,144,90201,2,0,L|192:136,1,29.2499986610413
176,128,90289,2,0,L|156:96,1,29.2499986610413
192,108,90378,2,0,B|224:68|224:68|256:144|332:104,1,175.499991966248,4|0,0:0|0:0,0:0:0:0:
392,52,90731,1,8,0:0:0:0:
392,52,90907,2,0,L|448:96,1,58.4999973220826
512,136,91084,1,0,0:0:0:0:
372,320,91260,1,2,0:0:0:0:
500,224,91436,1,8,0:0:0:0:
264,288,91613,1,8,0:0:0:0:
56,200,91789,6,0,P|132:208|144:296,1,175.499991966248,4|0,0:0|0:0,0:0:0:0:
56,288,92142,1,8,0:0:0:0:
32,132,92319,2,0,L|104:112,1,58.4999973220826
192,96,92495,1,0,0:0:0:0:
280,304,92672,1,2,0:0:0:0:
128,232,92848,1,8,0:0:0:0:
352,160,93025,2,0,L|304:112,1,58.4999973220826,8|0,0:0|0:0,0:0:0:0:
298,33,93201,6,0,L|344:76,1,58.4999973220826,4|0,0:0|0:0,0:0:0:0:
424,156,93378,2,0,L|364:174,1,58.4999973220826
256,204,93554,2,0,L|269:143,1,58.4999973220826,4|0,0:0|0:0,0:0:0:0:
298,33,93731,2,0,P|217:71|217:172,1,175.499991966248,4|0,0:0|0:0,0:0:0:0:
206,151,94084,2,0,P|279:200|366:150,1,175.499991966248,4|0,0:0|0:0,0:0:0:0:
354,172,94436,2,0,P|359:83|272:32,1,175.499991966248,4|0,0:0|0:0,0:0:0:0:
280,33,94789,1,0,0:0:0:0:
263,37,94878,1,0,0:0:0:0:
247,44,94966,1,0,0:0:0:0:
233,54,95054,1,0,0:0:0:0:
220,67,95142,1,0,0:0:0:0:
211,81,95231,1,0,0:0:0:0:
205,98,95319,1,0,0:0:0:0:
202,115,95407,1,0,0:0:0:0:
202,132,95495,1,0,0:0:0:0:
206,150,95584,1,0,0:0:0:0:
223,174,95672,6,0,L|192:220,1,29.2499986610413
246,191,95760,2,0,L|243:242,1,29.2499986610413
274,199,95848,2,0,L|295:248,1,29.2499986610413
303,198,95936,2,0,L|341:233,1,29.2499986610413
330,188,96025,2,0,B|364:128|432:168|432:168|460:120,1,175.499991966248,4|0,0:0|0:0,0:0:0:0:
392,44,96378,1,8,0:0:0:0:
392,44,96554,2,0,L|448:104,1,58.4999973220826
496,144,96731,1,0,0:0:0:0:
336,220,96907,1,2,0:0:0:0:
496,292,97084,1,8,0:0:0:0:
336,368,97260,1,8,0:0:0:0:
136,320,97436,6,0,B|184:244|308:256|252:304,1,175.499991966248,4|0,0:0|0:0,0:0:0:0:
208,352,97789,1,8,0:0:0:0:
88,256,97966,2,0,L|40:216,1,58.4999973220826
0,176,98142,1,0,0:0:0:0:
104,48,98319,1,2,0:0:0:0:
152,200,98495,1,8,0:0:0:0:
272,88,98672,1,8,0:0:0:0:
408,144,98848,6,0,P|448:164|492:164,2,90,4|0|8,0:0|0:0|0:0,0:0:0:0:
252,40,99378,2,0,L|272:180,1,135,4|0,0:0|0:0,0:0:0:0:
196,112,99731,2,0,L|260:204,1,101.250003862381,4|0,0:0|0:0,0:0:0:0:
176,188,100084,2,0,L|248:220,1,67.5,4|0,0:0|0:0,0:0:0:0:
308,240,100436,1,2,0:0:0:0:
308,240,100613,1,2,0:0:0:0:
308,240,100789,1,2,0:0:0:0:
308,240,100966,1,2,0:0:0:0:
328,208,101054,1,0,0:0:0:0:
328,168,101142,1,0,0:0:0:0:
312,136,101231,1,0,0:0:0:0:
280,112,101319,2,0,L|368:72,1,90,8|8,0:0|0:0,0:0:0:0:
176,56,101672,5,2,0:0:0:0:
152,84,101760,1,0,0:0:0:0:
128,112,101848,1,0,0:0:0:0:
28,268,102025,2,0,L|116:240,1,90,8|0,0:0|0:0,0:0:0:0:
151,32,102378,5,2,0:0:0:0:
131,67,102466,1,0,0:0:0:0:
111,102,102554,1,0,0:0:0:0:
36,292,102731,2,0,L|125:243,1,90,8|0,0:0|0:0,0:0:0:0:
121,10,103084,5,2,0:0:0:0:
107,52,103172,1,0,0:0:0:0:
93,94,103260,1,0,0:0:0:0:
52,312,103436,2,0,L|137:242,1,90,8|0,0:0|0:0,0:0:0:0:
96,0,103789,5,2,0:0:0:0:
88,45,103878,1,0,0:0:0:0:
82,91,103966,1,0,0:0:0:0:
84,322,104142,2,0,L|157:233,1,90,8|0,0:0|0:0,0:0:0:0:
208,56,104495,6,0,L|244:260,1,202.500007724762,4|0,0:0|0:0,0:0:0:0:
232,328,105025,2,0,L|160:344,1,67.5,8|0,0:0|0:0,0:0:0:0:
296,384,105554,2,0,L|404:364,1,90,8|0,0:0|0:0,0:0:0:0:
448,52,105907,6,0,L|408:256,1,202.500007724762,4|0,0:0|0:0,0:0:0:0:
136,56,106436,2,0,L|56:28,1,67.5000025749208,4|0,0:0|0:0,0:0:0:0:
168,160,106613,2,0,L|92:168,1,67.5000025749208,4|0,0:0|0:0,0:0:0:0:
248,240,106789,2,0,L|176:280,1,67.5000025749208,4|0,0:0|0:0,0:0:0:0:
368,272,106966,2,0,B|396:296|424:256|468:284,1,90,4|0,0:0|0:0,0:0:0:0:
448,52,107319,5,4,0:0:0:0:
408,96,107495,2,0,L|396:144|396:144,1,45
348,112,107848,1,0,0:0:0:0:
348,112,108025,2,0,L|312:144,1,45,8|0,0:0|0:0,0:0:0:0:
216,128,108378,2,0,L|264:88,1,45
96,72,108731,2,0,B|128:80|152:48|184:56,2,90,8|0|8,0:0|0:0|0:0,0:0:0:0:
80,320,110142,6,0,L|64:260|64:260,1,53.9999983520508,8|0,0:0|0:0,0:0:0:0:
136,264,110495,2,0,L|168:200,1,53.9999983520508
216,260,110848,1,8,0:0:0:0:
216,260,111025,2,0,L|260:220,1,53.9999983520508
288,316,111378,2,0,L|236:368,1,53.9999983520508,0|8,0:0|0:0,0:0:0:0:
436,284,111907,2,0,L|448:300,2,13.4999995880127,2|0|0,0:0|0:0|0:0,0:0:0:0:
368,328,112260,2,0,L|364:348,2,13.4999995880127,10|0|0,0:0|0:0|0:0,0:0:0:0:
288,316,112613,2,0,L|272:328,2,13.4999995880127,2|0|0,0:0|0:0|0:0,0:0:0:0:
304,76,112966,6,0,L|244:56,1,62.9999980773926,8|0,0:0|0:0,0:0:0:0:
152,44,113319,1,0,0:0:0:0:
88,112,113495,1,0,0:0:0:0:
256,116,113672,2,0,L|304:76,1,62.9999980773926,8|0,0:0|0:0,0:0:0:0:
404,16,114025,2,0,L|464:56,1,62.9999980773926
496,136,114378,2,0,P|464:184|448:264,1,125.999996154785,8|0,0:0|0:0,0:0:0:0:
424,4,115084,1,8,0:0:0:0:
424,4,115789,6,0,L|340:32,1,72,8|0,0:0|0:0,0:0:0:0:
408,185,116142,2,0,L|484:204,1,72
488,104,116495,2,0,L|400:108,1,72,8|0,0:0|0:0,0:0:0:0:
340,252,116848,2,0,L|408:308,1,72
232,188,117201,2,0,L|76:224,1,157.5,8|0,0:0|0:0,0:0:0:0:
20,236,117907,1,4,0:0:0:0:
96,144,118613,5,0,0:0:0:0:
116,216,118789,1,0,0:0:0:0:
96,144,119142,1,0,0:0:0:0:
116,216,119319,1,0,0:0:0:0:
96,144,119672,1,0,0:0:0:0:
116,216,119848,1,0,0:0:0:0:
96,144,120201,1,0,0:0:0:0:
116,212,120378,1,0,0:0:0:0:
136,284,120554,1,0,0:0:0:0:
204,256,120731,1,0,0:0:0:0:
340,204,121084,1,4,0:0:0:0:
464,240,121436,5,0,0:0:0:0:
340,204,121613,1,0,0:0:0:0:
464,240,121966,1,0,0:0:0:0:
340,204,122142,1,0,0:0:0:0:
464,240,122495,1,0,0:0:0:0:
340,204,122672,1,0,0:0:0:0:
464,240,123025,1,0,0:0:0:0:
340,204,123201,1,0,0:0:0:0:
216,164,123378,1,0,0:0:0:0:
92,120,123554,1,0,0:0:0:0:
8,312,123907,1,4,0:0:0:0:
8,312,123995,1,0,0:0:0:0:
8,312,124084,1,0,0:0:0:0:
8,312,124172,1,0,0:0:0:0:
8,312,124260,5,2,0:0:0:0:
52,256,124436,2,0,L|56:184,1,67.5
52,288,124789,1,2,0:0:0:0:
124,292,124966,2,0,L|184:332,1,67.5
96,268,125319,1,2,0:0:0:0:
140,212,125495,2,0,L|144:140,1,67.5
140,244,125848,1,2,0:0:0:0:
212,248,126025,2,0,L|272:288,1,67.5
188,220,126378,1,0,0:0:0:0:
296,152,126554,1,0,0:0:0:0:
416,192,126731,1,4,0:0:0:0:
512,128,126907,1,0,0:0:0:0:
400,64,127084,5,2,0:0:0:0:
288,248,127260,2,0,L|388:220,1,94.499997116089
408,48,127613,1,2,0:0:0:0:
296,232,127789,2,0,L|396:204,1,94.499997116089
416,32,128142,1,2,0:0:0:0:
304,216,128319,2,0,L|404:188,1,94.499997116089
424,16,128672,1,2,0:0:0:0:
312,200,128848,2,0,L|412:172,1,94.499997116089
432,8,129201,6,0,L|368:24,1,45,4|0,0:0|0:0,0:0:0:0:
288,120,129378,2,0,L|352:104,1,45,4|0,0:0|0:0,0:0:0:0:
280,32,129554,2,0,L|216:48,1,45,4|0,0:0|0:0,0:0:0:0:
136,144,129731,2,0,L|200:128,1,45,4|0,0:0|0:0,0:0:0:0:
112,88,129907,5,4,0:0:0:0:
112,88,130084,1,4,0:0:0:0:
112,88,130436,1,2,0:0:0:0:
168,296,130613,1,8,0:0:0:0:
320,144,130789,1,8,0:0:0:0:
184,160,130878,1,0,0:0:0:0:
200,184,130966,1,0,0:0:0:0:
216,208,131054,1,0,0:0:0:0:
232,232,131142,1,8,0:0:0:0:
368,352,131319,5,4,0:0:0:0:
368,352,131495,1,4,0:0:0:0:
368,352,131848,1,2,0:0:0:0:
264,160,132025,1,8,0:0:0:0:
480,176,132201,1,8,0:0:0:0:
392,232,132289,1,0,0:0:0:0:
400,200,132378,1,0,0:0:0:0:
408,168,132466,1,0,0:0:0:0:
416,136,132554,1,8,0:0:0:0:
448,24,132731,5,4,0:0:0:0:
448,24,132907,1,4,0:0:0:0:
56,120,133260,2,0,B|160:72|160:72|288:88,1,225,4|0,0:0|0:0,0:0:0:0:
88,184,133789,2,0,B|168:144|168:144|240:152,1,157.499995193482,4|0,0:0|0:0,0:0:0:0:
120,248,134319,2,0,B|178:217|178:217|242:222,1,101.250003862381,4|0,0:0|0:0,0:0:0:0:
264,224,134672,1,0,0:0:0:0:
264,224,134760,1,0,0:0:0:0:
264,224,134848,1,8,0:0:0:0:
392,304,135025,1,8,0:0:0:0:
488,184,135201,1,8,0:0:0:0:
344,128,135378,1,0,0:0:0:0:
320,144,135466,1,0,0:0:0:0:
296,160,135554,5,8,0:0:0:0:
384,248,135731,1,0,0:0:0:0:
296,160,135907,1,8,0:0:0:0:
296,304,136084,1,0,0:0:0:0:
296,160,136260,1,8,0:0:0:0:
176,280,136436,1,0,0:0:0:0:
296,160,136613,1,8,0:0:0:0:
248,168,136701,1,0,0:0:0:0:
208,192,136789,1,0,0:0:0:0:
184,232,136878,1,0,0:0:0:0:
176,280,136966,5,4,0:0:0:0:
328,336,137142,1,8,0:0:0:0:
296,160,137319,1,8,0:0:0:0:
176,280,137495,1,0,0:0:0:0:
218,301,137584,1,0,0:0:0:0:
258,317,137672,1,4,0:0:0:0:
296,160,137848,1,8,0:0:0:0:
130,205,138025,1,8,0:0:0:0:
154,245,138113,1,0,0:0:0:0:
176,280,138201,1,8,0:0:0:0:
296,160,138378,6,0,L|237:167,1,45,4|0,0:0|0:0,0:0:0:0:
69,101,138554,2,0,L|120:93,1,45,4|0,0:0|0:0,0:0:0:0:
222,28,138731,2,0,L|229:71,1,45,4|0,0:0|0:0,0:0:0:0:
135,240,138907,2,0,L|127:196,1,45,6|0,0:0|0:0,0:0:0:0:
328,40,139260,1,6,0:0:0:0:
480,368,139613,1,6,0:0:0:0:
512,160,139789,6,2,L|240:216,1,270,8|0,0:0|0:0,0:0:0:0:
160,224,140142,6,0,L|192:200,6,22.5
160,224,140495,1,6,0:0:0:0:
408,112,140760,1,6,0:0:0:0:
144,48,141025,1,6,0:0:0:0:
160,224,141201,2,0,L|168:184,6,22.5
144,272,141554,6,2,L|200:88,1,180
224,8,141907,6,0,L|256:16,2,22.5
224,8,142084,1,8,0:0:0:0:
328,232,142260,2,0,P|288:208|232:192,1,90
80,168,142613,5,4,0:0:0:0:
376,64,142789,1,2,0:0:0:0:
376,64,143142,5,0,0:0:0:0:
288,312,143319,1,2,0:0:0:0:
288,312,143672,5,0,0:0:0:0:
80,168,143848,1,2,0:0:0:0:
80,168,144201,5,0,0:0:0:0:
376,64,144378,1,2,0:0:0:0:
192,32,144554,1,2,0:0:0:0:
272,216,144731,1,0,0:0:0:0:
192,32,144907,1,0,0:0:0:0:
208,72,144995,1,0,0:0:0:0:
224,112,145084,1,2,0:0:0:0:
480,256,145436,1,4,0:0:0:0:
288,88,145613,1,2,0:0:0:0:
288,88,145966,5,0,0:0:0:0:
168,208,146142,1,2,0:0:0:0:
168,208,146495,5,0,0:0:0:0:
456,88,146672,1,2,0:0:0:0:
456,88,147025,5,0,0:0:0:0:
288,88,147201,1,2,0:0:0:0:
168,208,147378,1,2,0:0:0:0:
456,88,147554,1,0,0:0:0:0:
168,208,147731,1,0,0:0:0:0:
208,192,147819,1,0,0:0:0:0:
248,176,147907,1,2,0:0:0:0:
376,136,148084,1,2,0:0:0:0:
504,32,148260,5,4,0:0:0:0:
376,136,148436,1,2,0:0:0:0:
208,280,148789,5,0,0:0:0:0:
376,136,148966,1,2,0:0:0:0:
504,176,149319,5,0,0:0:0:0:
376,136,149495,1,2,0:0:0:0:
152,56,149848,5,0,0:0:0:0:
376,136,150025,1,2,0:0:0:0:
240,176,150201,1,2,0:0:0:0:
288,16,150378,1,0,0:0:0:0:
288,16,150554,1,0,0:0:0:0:
312,48,150642,1,0,0:0:0:0:
336,80,150731,1,2,0:0:0:0:
496,96,151084,5,4,0:0:0:0:
376,136,151260,1,2,0:0:0:0:
16,288,151613,5,0,0:0:0:0:
136,248,151789,1,2,0:0:0:0:
456,368,152142,5,0,0:0:0:0:
368,304,152319,1,2,0:0:0:0:
56,16,152672,5,0,0:0:0:0:
144,80,152848,1,2,0:0:0:0:
64,200,153025,1,2,0:0:0:0:
136,248,153201,1,2,0:0:0:0:
208,296,153378,1,2,0:0:0:0:
328,368,153554,1,2,0:0:0:0:
330,323,153642,1,0,0:0:0:0:
352,284,153731,1,0,0:0:0:0:
390,261,153819,1,0,0:0:0:0:
435,258,153907,6,2,P|411:178|456:88,1,153.000002918243
496,128,154260,6,0,L|368:192,1,135,8|0,0:0|0:0,0:0:0:0:
328,208,154613,1,0,0:0:0:0:
80,176,154789,1,0,0:0:0:0:
112,184,154878,1,0,0:0:0:0:
144,192,154966,1,8,0:0:0:0:
272,224,155142,1,0,0:0:0:0:
336,104,155319,1,0,0:0:0:0:
272,224,155495,1,0,0:0:0:0:
288,248,155584,1,0,0:0:0:0:
304,272,155672,1,8,0:0:0:0:
320,296,155760,1,0,0:0:0:0:
336,320,155848,1,0,0:0:0:0:
464,296,156025,1,2,0:0:0:0:
376,192,156201,1,8,0:0:0:0:
336,320,156378,1,8,0:0:0:0:
432,88,156731,6,0,B|384:88|384:88|344:104,1,90,4|0,0:0|0:0,0:0:0:0:
168,256,157084,2,0,L|248:216,1,90,8|0,0:0|0:0,0:0:0:0:
328,136,157348,1,0,0:0:0:0:
328,136,157436,2,0,L|352:232,1,90,0|0,0:0|0:0,0:0:0:0:
160,304,157789,1,8,0:0:0:0:
160,304,157878,1,0,0:0:0:0:
160,304,157966,1,0,0:0:0:0:
160,304,158054,1,0,0:0:0:0:
160,304,158142,2,0,B|208:280|208:280|232:248,1,90,0|0,0:0|0:0,0:0:0:0:
328,136,158407,1,0,0:0:0:0:
328,136,158495,2,0,L|352:232,1,90,8|0,0:0|0:0,0:0:0:0:
464,336,158848,2,0,L|440:240,1,90,2|8,0:0|0:0,0:0:0:0:
416,144,159201,2,0,L|480:152,3,45,8|0|0|0,0:0|0:0|0:0|0:0,0:0:0:0:
320,128,159554,5,4,0:0:0:0:
224,272,159731,1,0,0:0:0:0:
208,160,159907,1,8,0:0:0:0:
336,112,160084,5,4,0:0:0:0:
208,288,160260,1,0,0:0:0:0:
352,256,160436,1,8,0:0:0:0:
352,96,160613,5,4,0:0:0:0:
192,304,160789,1,0,0:0:0:0:
192,304,160878,1,0,0:0:0:0:
192,304,160966,1,8,0:0:0:0:
192,144,161142,1,4,0:0:0:0:
368,80,161319,5,0,0:0:0:0:
176,320,161495,1,8,0:0:0:0:
368,272,161672,1,4,0:0:0:0:
176,128,161848,1,4,0:0:0:0:
96,232,162025,1,8,0:0:0:0:
112,240,162113,1,0,0:0:0:0:
128,248,162201,1,0,0:0:0:0:
144,256,162289,1,0,0:0:0:0:
160,264,162378,6,0,P|104:328|176:280,1,225,4|0,0:0|0:0,0:0:0:0:
320,136,162907,6,0,P|368:72|336:160,1,269.999991760254,4|0,0:0|0:0,0:0:0:0:
136,80,163436,6,0,P|96:16|128:104,1,314.999990386963,4|0,0:0|0:0,0:0:0:0:
352,240,163966,6,0,P|432:304|328:248,1,360,4|0,0:0|0:0,0:0:0:0:
256,192,164495,5,8,0:0:0:0:
256,288,164672,1,4,0:0:0:0:
256,192,164848,6,0,L|256:168,3,22.5
256,192,165201,6,0,B|264:216|288:224|352:200|360:152|344:80|248:48|192:72|120:160|208:240,1,405.000015449525,4|0,0:0|0:0,0:0:0:0:
320,304,165907,6,0,L|336:352,1,45,4|0,0:0|0:0,0:0:0:0:
360,192,166084,2,0,L|384:128,1,58.4999973220826,4|0,0:0|0:0,0:0:0:0:
200,56,166260,2,0,L|120:80,1,72,4|0,0:0|0:0,0:0:0:0:
296,120,166436,2,0,L|384:136,1,85.4999977169037,4|0,0:0|0:0,0:0:0:0:
496,40,166613,6,0,P|440:48|392:88,1,116.999994644165,4|0,0:0|0:0,0:0:0:0:
352,144,166878,1,0,0:0:0:0:
304,200,166966,2,0,P|259:236|202:245,1,116.999994644165,8|8,0:0|0:0,0:0:0:0:
64,224,167319,2,0,L|96:280,1,58.4999973220826,0|0,0:0|0:0,0:0:0:0:
128,160,167495,2,0,L|160:104,1,58.4999973220826,0|0,0:0|0:0,0:0:0:0:
200,240,167672,2,0,L|232:296,1,58.4999973220826,8|0,0:0|0:0,0:0:0:0:
272,152,167848,2,0,L|304:96,1,58.4999973220826
416,48,168025,2,0,L|232:80,1,175.499991966248
176,104,168378,1,8,0:0:0:0:
176,104,168466,1,0,0:0:0:0:
176,104,168554,6,0,L|112:72,1,58.4999973220826,8|0,0:0|0:0,0:0:0:0:
219,305,168907,2,0,L|224:376,1,58.4999973220826,8|0,0:0|0:0,0:0:0:0:
372,166,169260,6,0,L|432:120,1,67.5,8|0,0:0|0:0,0:0:0:0:
496,64,169613,1,0,0:0:0:0:
487,81,169701,1,0,0:0:0:0:
478,103,169789,1,0,0:0:0:0:
468,123,169878,1,0,0:0:0:0:
456,149,169966,1,0,0:0:0:0:
444,181,170054,1,0,0:0:0:0:
427,222,170142,2,0,L|307:246,1,116.999994644165,2|0,0:0|0:0,0:0:0:0:
240,88,170495,2,0,L|368:112,1,116.999994644165,8|0,0:0|0:0,0:0:0:0:
496,64,170848,6,0,P|416:48|352:120,1,175.499991966248,4|0,0:0|0:0,0:0:0:0:
344,208,171201,1,8,0:0:0:0:
344,208,171289,1,0,0:0:0:0:
344,208,171378,2,0,L|232:264|232:264,1,116.999994644165
88,80,171731,1,8,0:0:0:0:
88,80,172084,1,8,0:0:0:0:
88,80,172260,2,0,L|184:152,1,116.999994644165,4|0,0:0|0:0,0:0:0:0:
181,150,172613,1,8,0:0:0:0:
181,150,172789,2,0,B|304:112|336:200|464:152,1,270,0|8,0:0|0:0,0:0:0:0:
424,56,173495,1,0,0:0:0:0:
408,88,173584,1,0,0:0:0:0:
392,120,173672,6,0,B|368:160|368:160|328:176,1,90
128,240,174025,2,0,B|152:200|152:200|192:184,1,90,8|0,0:0|0:0,0:0:0:0:
336,16,174378,2,0,B|280:40|280:40|264:96,1,116.999994644165
384,384,174731,2,0,B|440:360|440:360|456:304,1,116.999994644165,8|0,0:0|0:0,0:0:0:0:
368,136,175084,2,0,L|312:160,3,58.4999973220826
216,88,175436,2,0,L|200:144,3,58.4999973220826,8|0|0|0,0:0|0:0|0:0|0:0,0:0:0:0:
64,152,175789,2,0,L|96:208,3,58.4999973220826
8,320,176142,2,0,L|96:328,3,58.4999973220826,8|0|0|0,0:0|0:0|0:0|0:0,0:0:0:0:
96,328,176495,5,0,0:0:0:0:
96,328,176584,1,0,0:0:0:0:
96,328,176672,1,0,0:0:0:0:
96,328,176760,1,0,0:0:0:0:
96,328,176848,5,8,0:0:0:0:
134,325,176936,1,0,0:0:0:0:
164,301,177025,1,0,0:0:0:0:
176,264,177113,1,0,0:0:0:0:
184,224,177201,5,0,0:0:0:0:
189,172,177289,1,0,0:0:0:0:
221,132,177378,1,0,0:0:0:0:
268,112,177466,1,0,0:0:0:0:
312,104,177554,5,8,0:0:0:0:
304,162,177642,1,0,0:0:0:0:
296,220,177731,1,0,0:0:0:0:
289,278,177819,1,0,0:0:0:0:
280,336,177907,6,0,L|360:224,1,116.999994644165,4|0,0:0|0:0,0:0:0:0:
448,72,178260,1,8,0:0:0:0:
448,72,178436,2,0,P|400:104|336:104,1,116.999994644165,8|0,0:0|0:0,0:0:0:0:
64,72,178789,1,0,0:0:0:0:
64,72,178966,2,0,P|112:104|176:104,1,116.999994644165,8|0,0:0|0:0,0:0:0:0:
384,96,179319,2,0,P|336:136|304:192,1,116.999994644165,4|0,0:0|0:0,0:0:0:0:
264,344,179584,2,0,L|320:312,1,58.4999973220826,0|8,0:0|0:0,0:0:0:0:
432,256,179848,2,0,P|376:224|320:224,1,116.999994644165,8|0,0:0|0:0,0:0:0:0:
56,288,180201,2,0,P|104:248|128:200,1,116.999994644165,8|0,0:0|0:0,0:0:0:0:
104,48,180554,1,8,0:0:0:0:
104,48,180731,6,0,P|168:104|272:96,1,175.499991966248,4|0,0:0|0:0,0:0:0:0:
288,32,181084,2,0,L|344:152,1,116.999994644165,8|0,0:0|0:0,0:0:0:0:
272,232,181348,1,0,0:0:0:0:
272,232,181436,2,0,L|222:125,1,116.999994644165
112,104,181701,1,0,0:0:0:0:
112,104,181789,2,0,L|161:210,1,116.999994644165,8|0,0:0|0:0,0:0:0:0:
232,328,182054,1,0,0:0:0:0:
304,272,182142,2,0,L|360:232,1,58.4999973220826,4|0,0:0|0:0,0:0:0:0:
328,152,182319,2,0,L|384:112,1,58.4999973220826,4|0,0:0|0:0,0:0:0:0:
336,40,182495,2,0,L|392:0,1,58.4999973220826,4|0,0:0|0:0,0:0:0:0:
328,152,182672,2,0,L|280:186,1,58.4999973220826,4|0,0:0|0:0,0:0:0:0:
182,219,182848,1,4,0:0:0:0:
182,219,182936,1,0,0:0:0:0:
182,219,183025,2,0,P|120:240|64:248,2,116.999994644165,0|8|0,0:0|0:0|0:0,0:0:0:0:
400,48,183554,6,0,L|440:224,1,180,4|4,0:0|0:0,0:0:0:0:
448,256,183907,5,4,0:0:0:0:
416,248,184084,5,4,0:0:0:0:
392,280,184260,5,4,0:0:0:0:
360,272,184436,5,4,0:0:0:0:
336,304,184613,5,4,0:0:0:0:
304,296,184789,5,0,0:0:0:0:
304,296,184878,1,0,0:0:0:0:
304,296,184966,1,4,0:0:0:0:
176,264,185142,1,8,0:0:0:0:
48,296,185319,1,8,0:0:0:0:
176,264,185495,1,4,0:0:0:0:
304,296,185672,1,8,0:0:0:0:
176,192,185848,1,8,0:0:0:0:
48,296,186025,1,4,0:0:0:0:
176,192,186201,1,4,0:0:0:0:
360,48,186378,5,4,0:0:0:0:
192,96,186731,2,0,L|240:80,1,45,8|0,0:0|0:0,0:0:0:0:
360,48,186907,1,4,0:0:0:0:
400,248,187260,2,0,L|384:168,1,58.4999973220826,8|0,0:0|0:0,0:0:0:0:
360,48,187436,1,4,0:0:0:0:
512,232,187789,2,0,L|464:176,1,72,8|0,0:0|0:0,0:0:0:0:
360,48,187966,1,4,0:0:0:0:
224,248,188319,2,0,L|272:176,1,85.4999977169037,8|0,0:0|0:0,0:0:0:0:
360,48,188495,6,0,L|424:64,1,45,4|0,0:0|0:0,0:0:0:0:
240,128,188672,2,0,L|184:152,1,58.4999973220826,4|0,0:0|0:0,0:0:0:0:
88,72,188848,2,0,L|120:0,1,72,4|0,0:0|0:0,0:0:0:0:
186,151,189025,2,0,L|216:232,1,85.4999977169037,4|0,0:0|0:0,0:0:0:0:
344,336,189201,6,0,P|272:280|168:304,1,202.500007724762,6|0,0:0|0:0,0:0:0:0:
248,360,189554,2,0,L|304:320,1,67.5000025749208,8|0,0:0|0:0,0:0:0:0:
368,256,189731,2,0,B|320:224|320:224|248:272,1,135.000005149842,8|0,0:0|0:0,0:0:0:0:
72,296,190084,1,2,0:0:0:0:
72,296,190172,1,0,0:0:0:0:
72,296,190260,2,0,B|120:328|120:328|192:280,1,135.000005149842,8|0,0:0|0:0,0:0:0:0:
216,72,190613,2,0,B|256:152|256:152|264:128|264:128|312:216,1,202.500007724762,4|0,0:0|0:0,0:0:0:0:
352,272,190966,2,0,L|376:200,1,67.5000025749208,8|0,0:0|0:0,0:0:0:0:
392,128,191142,5,4,0:0:0:0:
392,128,191495,1,4,0:0:0:0:
392,128,191848,1,4,0:0:0:0:
232,104,192025,1,8,0:0:0:0:
320,72,192201,1,0,0:0:0:0:
216,192,192378,1,8,0:0:0:0:
232,104,192554,1,0,0:0:0:0:
288,256,192731,1,8,0:0:0:0:
216,192,192907,1,0,0:0:0:0:
376,224,193084,1,8,0:0:0:0:
328,80,193260,5,0,0:0:0:0:
352,80,193348,1,0,0:0:0:0:
376,80,193436,2,0,L|248:144,1,135.000005149842,8|0,0:0|0:0,0:0:0:0:
80,120,193701,1,0,0:0:0:0:
56,128,193789,2,0,L|184:192,1,135.000005149842,8|0,0:0|0:0,0:0:0:0:
352,192,194054,1,0,0:0:0:0:
376,192,194142,2,0,L|248:256,1,135.000005149842,8|0,0:0|0:0,0:0:0:0:
72,240,194407,1,0,0:0:0:0:
96,256,194495,1,8,0:0:0:0:
120,272,194584,1,0,0:0:0:0:
144,288,194672,1,0,0:0:0:0:
168,304,194760,1,0,0:0:0:0:
192,320,194848,6,0,L|168:184,1,135.000005149842,4|0,0:0|0:0,0:0:0:0:
144,96,195201,1,8,0:0:0:0:
144,96,195378,2,0,P|216:120|280:104,1,135.000005149842
352,48,195731,2,0,L|328:112,2,67.5000025749208,2|0|8,0:0|0:0|0:0,0:0:0:0:
472,136,196084,5,0,0:0:0:0:
472,136,196172,1,0,0:0:0:0:
472,136,196260,2,0,L|368:224|368:224,1,135.000005149842,2|0,0:0|0:0,0:0:0:0:
192,240,196613,2,0,L|176:104,1,135.000005149842,8|0,0:0|0:0,0:0:0:0:
312,72,196966,2,0,L|280:208,1,135.000005149842,0|2,0:0|0:0,0:0:0:0:
120,304,197319,2,0,L|64:176,1,135.000005149842,8|0,0:0|0:0,0:0:0:0:
64,64,197672,5,4,0:0:0:0:
65,180,197848,2,0,L|112:168,1,45,2|0,0:0|0:0,0:0:0:0:
144,160,198025,1,8,0:0:0:0:
264,96,198201,2,0,L|248:152,1,45,2|0,0:0|0:0,0:0:0:0:
240,176,198378,1,8,0:0:0:0:
56,216,198554,6,0,L|120:176,1,53.9999983520508,2|0,0:0|0:0,0:0:0:0:
144,160,198731,1,8,0:0:0:0:
296,88,198907,2,0,L|264:136,1,53.9999983520508,2|0,0:0|0:0,0:0:0:0:
240,176,199084,1,8,0:0:0:0:
72,264,199260,6,0,L|112:208,1,62.9999980773926,2|0,0:0|0:0,0:0:0:0:
144,160,199436,1,8,0:0:0:0:
344,96,199613,2,0,L|280:152,1,62.9999980773926,2|0,0:0|0:0,0:0:0:0:
240,176,199789,5,8,0:0:0:0:
208,216,199878,1,0,0:0:0:0:
200,264,199966,1,0,0:0:0:0:
224,312,200054,1,0,0:0:0:0:
272,336,200142,1,8,0:0:0:0:
320,328,200231,1,0,0:0:0:0:
360,296,200319,1,0,0:0:0:0:
368,248,200407,1,0,0:0:0:0:
360,200,200495,6,0,B|240:120|240:120|176:136,1,202.500007724762,4|0,0:0|0:0,0:0:0:0:
160,216,200848,2,0,L|256:192,1,67.5000025749208,8|0,0:0|0:0,0:0:0:0:
225,199,201025,2,0,L|344:280,1,135.000005149842,8|0,0:0|0:0,0:0:0:0:
464,240,201378,1,2,0:0:0:0:
472,200,201466,1,0,0:0:0:0:
480,160,201554,2,0,B|488:120|488:120|384:144,1,135.000005149842,8|0,0:0|0:0,0:0:0:0:
224,200,201907,2,0,B|132:221|132:221|140:181,1,135.000005149842,4|0,0:0|0:0,0:0:0:0:
148,141,202172,1,0,0:0:0:0:
156,101,202260,1,8,0:0:0:0:
280,56,202436,5,12,0:0:0:0:
280,56,202789,1,12,0:0:0:0:
280,56,203142,1,12,0:0:0:0:
156,101,203319,1,0,0:0:0:0:
176,136,203407,1,0,0:0:0:0:
192,168,203495,2,0,B|224:224|224:224|296:240,1,135.000005149842,2|0,0:0|0:0,0:0:0:0:
320,104,203848,5,12,0:0:0:0:
240,288,204025,1,0,0:0:0:0:
240,288,204113,1,0,0:0:0:0:
240,288,204201,1,0,0:0:0:0:
320,104,204378,5,12,0:0:0:0:
80,216,204554,1,0,0:0:0:0:
80,216,204642,1,0,0:0:0:0:
80,216,204731,1,0,0:0:0:0:
320,104,204907,5,12,0:0:0:0:
440,208,205084,1,0,0:0:0:0:
440,208,205172,1,0,0:0:0:0:
440,208,205260,1,0,0:0:0:0:
320,104,205436,5,12,0:0:0:0:
80,216,205613,1,4,0:0:0:0:
248,240,205789,1,8,0:0:0:0:
248,240,205878,1,8,0:0:0:0:
248,240,205966,1,8,0:0:0:0:
248,240,206054,1,8,0:0:0:0:
248,240,206142,5,12,0:0:0:0:
336,200,206319,1,4,0:0:0:0:
376,72,206495,5,4,0:0:0:0:
336,200,206672,1,4,0:0:0:0:
160,160,206848,5,4,0:0:0:0:
376,72,207025,1,4,0:0:0:0:
312,328,207201,5,4,0:0:0:0:
160,160,207378,2,0,L|248:184,1,67.5000025749208,8|0,0:0|0:0,0:0:0:0:
336,200,207554,1,4,0:0:0:0:
504,48,207731,1,4,0:0:0:0:
376,72,207907,1,4,0:0:0:0:
155,194,208084,6,0,L|245:200,1,67.5000025749208,8|0,0:0|0:0,0:0:0:0:
336,200,208260,1,4,0:0:0:0:
471,18,208436,1,4,0:0:0:0:
320,88,208613,1,4,0:0:0:0:
304,104,208701,1,0,0:0:0:0:
288,120,208789,1,0,0:0:0:0:
272,136,208878,1,0,0:0:0:0:
256,152,208966,6,0,B|368:192|296:320|336:200,1,180,12|0,0:0|0:0,0:0:0:0:
352,184,209231,1,0,0:0:0:0:
376,176,209319,1,10,0:0:0:0:
440,232,209495,2,0,B|349:308|274:182|358:277,1,180,12|0,0:0|0:0,0:0:0:0:
365,300,209760,1,0,0:0:0:0:
359,324,209848,1,8,0:0:0:0:
276,348,210025,2,0,B|254:231|401:229|277:254,1,180,12|0,0:0|0:0,0:0:0:0:
254,249,210289,1,0,0:0:0:0:
236,231,210378,1,8,0:0:0:0:
123,171,210554,2,0,B|193:136|165:287|186:87|254:96|277:137,1,180,12|0,0:0|0:0,0:0:0:0:
288,152,210819,1,0,0:0:0:0:
296,184,210907,1,8,0:0:0:0:
360,200,211084,6,0,L|384:176,1,29.2499986610413,8|0,0:0|0:0,0:0:0:0:
352,168,211172,2,0,L|368:144,1,29.2499986610413
328,136,211260,2,0,L|344:104,1,29.2499986610413
296,120,211348,2,0,L|296:88,1,29.2499986610413
264,112,211436,2,0,L|248:80,1,29.2499986610413
232,120,211525,2,0,L|192:96,1,29.2499986610413
208,144,211613,2,0,L|168:144,1,29.2499986610413
192,176,211701,2,0,L|144:192,1,29.2499986610413
72,192,211789,5,4,0:0:0:0:
144,368,211966,1,0,0:0:0:0:
144,368,212319,5,0,0:0:0:0:
208,248,212495,1,0,0:0:0:0:
72,192,212672,1,0,0:0:0:0:
8,312,212848,1,0,0:0:0:0:
32,320,212936,1,0,0:0:0:0:
32,296,213025,1,0,0:0:0:0:
256,64,213201,6,0,P|128:144|144:272,1,292.499986610413
144,272,213731,2,0,P|277:342|380:264,1,292.499986610413
376,264,214260,2,0,P|370:113|251:63,1,292.499986610413
256,192,214789,12,0,215936,0:0:0:0:
256,192,216025,12,0,217349,0:0:0:0:
352,280,217436,5,4,0:0:0:0:
