osu file format v12

[General]
AudioFilename: 01 - You Make Me Crazy.mp3
AudioLeadIn: 0
PreviewTime: 65157
Countdown: 0
SampleSet: None
StackLeniency: 0.7
Mode: 3
LetterboxInBreaks: 0
SpecialStyle: 0
WidescreenStoryboard: 0

[Editor]
Bookmarks: 111351,135555,136407,136919
DistanceSpacing: 1
BeatDivisor: 4
GridSize: 8
TimelineZoom: 1.7

[Metadata]
Title:You Make Me Crazy
TitleUnicode:You Make Me Crazy
Artist:ETIA.
ArtistUnicode:ETIA.
Creator:Sp3ct3r_2k11
Version:Hard
Source:Lilium Records
Tags:Retroactive EP
BeatmapID:405161
BeatmapSetID:166709

[Difficulty]
HPDrainRate:7
CircleSize:7
OverallDifficulty:7
ApproachRate:5
SliderMultiplier:1.4
SliderTickRate:1

[Events]
//Background and Video events
0,0,"you_make_me_crazy_by_djnightmare9-d7f3egn.jpg",0,0
//Break Periods
//Storyboard Layer 0 (Background)
//Storyboard Layer 1 (Fail)
//Storyboard Layer 2 (Pass)
//Storyboard Layer 3 (Foreground)
//Storyboard Sound Samples
//Background Colour Transformations
3,100,163,162,255

[TimingPoints]
1067,340.909090909091,4,3,0,75,1,0
3282,-80,4,3,0,75,0,0
3453,-133.333333333333,4,3,0,75,0,0
3794,-100,4,3,0,75,0,0
5157,-133.333333333333,4,3,0,75,0,0
6010,-66.6666666666667,4,3,0,75,0,0
6180,-200,4,3,0,75,0,0
6351,-66.6666666666667,4,3,0,75,0,0
6521,-100,4,3,0,75,0,0
8055,-62.5,4,3,0,75,0,0
8226,-100,4,3,0,75,0,0
8396,-71.4285714285714,4,3,0,75,0,0
8567,-100,4,3,0,75,0,0
8737,-83.3333333333333,4,3,0,75,0,0
8907,-100,4,3,0,75,0,0
10782,-105.263157894737,4,3,0,75,0,0
10953,-111.111111111111,4,3,0,75,0,0
11123,-117.647058823529,4,3,0,75,0,0
11294,-125,4,3,0,75,0,0
11464,-133.333333333333,4,3,0,75,0,0
11635,-142.857142857143,4,3,0,75,0,0
11805,-153.846153846154,4,3,0,75,0,0
11976,-100,4,3,0,75,0,0
14192,-80,4,3,0,75,0,0
14362,-133.333333333333,4,3,0,75,0,0
14703,-100,4,3,0,75,0,0
16919,-66.6666666666667,4,3,0,75,0,0
17089,-200,4,3,0,75,0,0
17260,-66.6666666666667,4,3,0,75,0,0
17430,-100,4,3,0,75,0,0
44192,-111.111111111111,4,3,0,75,0,0
44277,-125,4,3,0,75,0,0
44362,-142.857142857143,4,3,0,75,0,0
44447,-166.666666666667,4,3,0,75,0,0
44532,-200,4,3,0,75,0,0
44618,-250,4,3,0,75,0,0
44703,-133.333333333333,4,3,0,75,0,0
55612,-100,4,3,0,75,0,0
65157,-400,4,3,0,75,0,0
66180,-66.6666666666667,4,3,0,75,0,0
66521,-200,4,3,0,75,0,0
66692,-100,4,3,0,75,0,0
67032,-200,4,3,0,75,0,0
67203,-100,4,3,0,75,0,0
67544,-200,4,3,0,75,0,0
67714,-100,4,3,0,75,0,0
68055,-200,4,3,0,75,0,0
68226,-100,4,3,0,75,0,0

[HitObjects]
256,192,1067,5,0,0:0:0:0:
109,192,1067,1,0,0:0:0:0:
182,192,1237,1,0,0:0:0:0:
329,192,1237,128,0,1407:0:0:0:0:
256,192,1407,1,0,0:0:0:0:
36,192,1407,1,0,0:0:0:0:
402,192,1407,1,0,0:0:0:0:
182,192,1578,128,0,1748:0:0:0:0:
256,192,1748,1,0,0:0:0:0:
329,192,1919,128,0,2089:0:0:0:0:
256,192,2089,1,0,0:0:0:0:
475,192,2089,1,0,0:0:0:0:
182,192,2260,128,0,2430:0:0:0:0:
256,192,2430,1,0,0:0:0:0:
329,192,2601,128,0,2771:0:0:0:0:
256,192,2771,1,0,0:0:0:0:
36,192,2771,1,0,0:0:0:0:
182,192,2942,128,0,3112:0:0:0:0:
256,192,3112,1,0,0:0:0:0:
475,192,3282,128,0,3453:0:0:0:0:
256,192,3453,1,0,0:0:0:0:
329,192,3623,1,0,0:0:0:0:
329,192,3709,1,0,0:0:0:0:
256,192,3794,1,0,0:0:0:0:
182,192,3964,128,0,4135:0:0:0:0:
256,192,4135,1,0,0:0:0:0:
475,192,4135,1,0,0:0:0:0:
329,192,4305,128,0,4476:0:0:0:0:
256,192,4476,1,0,0:0:0:0:
182,192,4646,128,0,4817:0:0:0:0:
256,192,4817,1,0,0:0:0:0:
36,192,4817,1,0,0:0:0:0:
329,192,4987,128,0,5157:0:0:0:0:
256,192,5157,1,0,0:0:0:0:
182,192,5328,1,0,0:0:0:0:
402,192,5498,1,0,0:0:0:0:
109,192,5669,1,0,0:0:0:0:
329,192,5754,1,0,0:0:0:0:
182,192,5839,1,0,0:0:0:0:
475,192,6010,128,0,6180:0:0:0:0:
36,192,6010,128,0,6180:0:0:0:0:
256,192,6180,1,0,0:0:0:0:
36,192,6351,128,0,6521:0:0:0:0:
475,192,6351,128,0,6521:0:0:0:0:
256,192,6521,1,0,0:0:0:0:
109,192,6521,1,0,0:0:0:0:
182,192,6692,1,0,0:0:0:0:
329,192,6692,128,0,6862:0:0:0:0:
256,192,6862,1,0,0:0:0:0:
402,192,6862,1,0,0:0:0:0:
36,192,6862,1,0,0:0:0:0:
182,192,7032,128,0,7203:0:0:0:0:
256,192,7203,1,0,0:0:0:0:
329,192,7373,128,0,7544:0:0:0:0:
256,192,7544,1,0,0:0:0:0:
475,192,7544,1,0,0:0:0:0:
182,192,7714,128,0,7885:0:0:0:0:
256,192,7885,1,0,0:0:0:0:
36,192,8055,128,0,8226:0:0:0:0:
475,192,8055,128,0,8226:0:0:0:0:
256,192,8226,1,0,0:0:0:0:
109,192,8396,128,0,8567:0:0:0:0:
402,192,8396,128,0,8567:0:0:0:0:
256,192,8567,1,0,0:0:0:0:
182,192,8737,128,0,8907:0:0:0:0:
329,192,8737,128,0,8907:0:0:0:0:
256,192,8907,1,0,0:0:0:0:
36,192,9078,1,0,0:0:0:0:
475,192,9078,1,0,0:0:0:0:
36,192,9163,1,0,0:0:0:0:
475,192,9163,1,0,0:0:0:0:
256,192,9248,1,0,0:0:0:0:
329,192,9419,128,0,9589:0:0:0:0:
256,192,9589,1,0,0:0:0:0:
36,192,9589,1,0,0:0:0:0:
182,192,9760,128,0,9930:0:0:0:0:
256,192,9930,1,0,0:0:0:0:
329,192,10101,128,0,10271:0:0:0:0:
256,192,10271,1,0,0:0:0:0:
475,192,10271,1,0,0:0:0:0:
182,192,10442,128,0,10612:0:0:0:0:
256,192,10612,1,0,0:0:0:0:
109,192,10612,1,0,0:0:0:0:
402,192,10612,1,0,0:0:0:0:
36,192,10782,128,0,10953:0:0:0:0:
475,192,10782,128,0,10953:0:0:0:0:
182,192,10953,1,0,0:0:0:0:
329,192,10953,1,0,0:0:0:0:
109,192,11123,128,0,11294:0:0:0:0:
402,192,11123,128,0,11294:0:0:0:0:
182,192,11464,128,0,11635:0:0:0:0:
329,192,11464,128,0,11635:0:0:0:0:
36,192,11635,1,0,0:0:0:0:
475,192,11635,1,0,0:0:0:0:
256,192,11805,128,0,11976:0:0:0:0:
36,192,11976,1,0,0:0:0:0:
109,192,11976,1,0,0:0:0:0:
182,192,12146,1,0,0:0:0:0:
402,192,12146,128,0,12317:0:0:0:0:
36,192,12317,1,0,0:0:0:0:
256,192,12317,1,0,0:0:0:0:
329,192,12317,1,0,0:0:0:0:
402,192,12487,128,0,12658:0:0:0:0:
36,192,12657,1,0,0:0:0:0:
402,192,12828,128,0,12999:0:0:0:0:
36,192,12998,1,0,0:0:0:0:
256,192,12998,1,0,0:0:0:0:
402,192,13169,128,0,13340:0:0:0:0:
475,192,13339,1,0,0:0:0:0:
109,192,13510,128,0,13680:0:0:0:0:
475,192,13680,1,0,0:0:0:0:
256,192,13680,1,0,0:0:0:0:
109,192,13851,128,0,14021:0:0:0:0:
475,192,14021,1,0,0:0:0:0:
256,192,14192,128,0,14362:0:0:0:0:
475,192,14362,1,0,0:0:0:0:
182,192,14532,1,0,0:0:0:0:
182,192,14618,1,0,0:0:0:0:
36,192,14703,1,0,0:0:0:0:
402,192,14873,128,0,15044:0:0:0:0:
36,192,15044,1,0,0:0:0:0:
256,192,15044,1,0,0:0:0:0:
402,192,15214,128,0,15385:0:0:0:0:
36,192,15385,1,0,0:0:0:0:
402,192,15555,128,0,15726:0:0:0:0:
36,192,15726,1,0,0:0:0:0:
256,192,15726,1,0,0:0:0:0:
402,192,15896,128,0,16067:0:0:0:0:
329,192,16067,1,0,0:0:0:0:
36,192,16067,1,0,0:0:0:0:
182,192,16237,1,0,0:0:0:0:
475,192,16407,1,0,0:0:0:0:
109,192,16578,1,0,0:0:0:0:
182,192,16663,1,0,0:0:0:0:
109,192,16748,1,0,0:0:0:0:
402,192,16919,128,0,17089:0:0:0:0:
402,192,17260,128,0,17430:0:0:0:0:
475,192,17430,1,0,0:0:0:0:
109,192,17601,128,0,17771:0:0:0:0:
475,192,17771,1,0,0:0:0:0:
256,192,17771,1,0,0:0:0:0:
109,192,17942,128,0,18112:0:0:0:0:
475,192,18112,1,0,0:0:0:0:
109,192,18282,128,0,18453:0:0:0:0:
475,192,18453,1,0,0:0:0:0:
256,192,18453,1,0,0:0:0:0:
109,192,18623,128,0,18794:0:0:0:0:
36,192,18794,1,0,0:0:0:0:
475,192,18964,128,0,19135:0:0:0:0:
36,192,19135,1,0,0:0:0:0:
402,192,19305,128,0,19476:0:0:0:0:
36,192,19476,1,0,0:0:0:0:
329,192,19646,128,0,19817:0:0:0:0:
256,192,19817,1,0,0:0:0:0:
402,192,19987,128,0,20157:0:0:0:0:
329,192,19987,1,0,0:0:0:0:
329,192,20072,1,0,0:0:0:0:
36,192,20157,1,0,0:0:0:0:
475,192,20243,1,0,0:0:0:0:
36,192,20328,1,0,0:0:0:0:
475,192,20413,1,0,0:0:0:0:
36,192,20498,1,0,0:0:0:0:
475,192,20584,1,0,0:0:0:0:
36,192,20669,1,0,0:0:0:0:
475,192,20754,1,0,0:0:0:0:
36,192,20839,1,0,0:0:0:0:
475,192,20925,1,0,0:0:0:0:
36,192,21010,1,0,0:0:0:0:
475,192,21095,1,0,0:0:0:0:
36,192,21180,1,0,0:0:0:0:
475,192,21266,1,0,0:0:0:0:
36,192,21351,1,0,0:0:0:0:
475,192,21436,1,0,0:0:0:0:
256,192,21521,1,0,0:0:0:0:
256,192,22373,1,0,0:0:0:0:
256,192,22544,1,0,0:0:0:0:
475,192,22885,128,0,23226:0:0:0:0:
256,192,22885,1,0,0:0:0:0:
256,192,23226,1,0,0:0:0:0:
109,192,23396,128,0,23567:0:0:0:0:
256,192,23567,1,0,0:0:0:0:
109,192,23737,128,0,23907:0:0:0:0:
256,192,23907,1,0,0:0:0:0:
329,192,24078,128,0,24248:0:0:0:0:
256,192,24248,1,0,0:0:0:0:
109,192,24419,128,0,24589:0:0:0:0:
182,192,24419,128,0,24589:0:0:0:0:
256,192,24589,1,0,0:0:0:0:
109,192,24760,128,0,24930:0:0:0:0:
182,192,24760,128,0,24930:0:0:0:0:
256,192,24930,1,0,0:0:0:0:
475,192,25101,128,0,25271:0:0:0:0:
256,192,25271,1,0,0:0:0:0:
36,192,25271,1,0,0:0:0:0:
256,192,25612,1,0,0:0:0:0:
402,192,25782,128,0,25953:0:0:0:0:
256,192,25953,1,0,0:0:0:0:
182,192,26123,128,0,26294:0:0:0:0:
256,192,26294,1,0,0:0:0:0:
402,192,26464,128,0,26635:0:0:0:0:
256,192,26635,1,0,0:0:0:0:
402,192,26805,128,0,26976:0:0:0:0:
256,192,26976,1,0,0:0:0:0:
402,192,27146,128,0,27317:0:0:0:0:
256,192,27317,1,0,0:0:0:0:
402,192,27487,128,0,27657:0:0:0:0:
36,192,27657,1,0,0:0:0:0:
329,192,27743,1,0,0:0:0:0:
109,192,27828,1,0,0:0:0:0:
182,192,27913,1,0,0:0:0:0:
36,192,27998,1,0,0:0:0:0:
182,192,28169,128,0,28339:0:0:0:0:
256,192,28339,1,0,0:0:0:0:
329,192,28510,128,0,28680:0:0:0:0:
256,192,28680,1,0,0:0:0:0:
182,192,28851,128,0,29021:0:0:0:0:
256,192,29021,1,0,0:0:0:0:
329,192,29192,128,0,29362:0:0:0:0:
256,192,29362,1,0,0:0:0:0:
182,192,29532,128,0,29703:0:0:0:0:
256,192,29703,1,0,0:0:0:0:
329,192,29873,128,0,30044:0:0:0:0:
256,192,30044,1,0,0:0:0:0:
182,192,30214,128,0,30385:0:0:0:0:
256,192,30385,1,0,0:0:0:0:
36,192,30555,128,0,31067:0:0:0:0:
109,192,30726,1,0,0:0:0:0:
475,192,30726,128,0,31067:0:0:0:0:
402,192,30726,1,0,0:0:0:0:
256,192,31067,1,0,0:0:0:0:
109,192,31237,128,0,31407:0:0:0:0:
256,192,31407,1,0,0:0:0:0:
402,192,31578,128,0,31748:0:0:0:0:
256,192,31748,1,0,0:0:0:0:
109,192,31919,128,0,32089:0:0:0:0:
256,192,32089,1,0,0:0:0:0:
402,192,32260,128,0,32430:0:0:0:0:
256,192,32430,1,0,0:0:0:0:
109,192,32601,128,0,33112:0:0:0:0:
256,192,33112,1,0,0:0:0:0:
329,192,33282,128,0,33794:0:0:0:0:
256,192,33794,1,0,0:0:0:0:
36,192,33794,1,0,0:0:0:0:
182,192,33964,128,0,34135:0:0:0:0:
329,192,33964,128,0,34135:0:0:0:0:
475,192,33964,1,0,0:0:0:0:
256,192,34135,1,0,0:0:0:0:
36,192,34135,1,0,0:0:0:0:
182,192,34305,128,0,34476:0:0:0:0:
329,192,34305,128,0,34476:0:0:0:0:
475,192,34305,1,0,0:0:0:0:
256,192,34476,1,0,0:0:0:0:
36,192,34476,1,0,0:0:0:0:
182,192,34646,128,0,34817:0:0:0:0:
329,192,34646,128,0,34817:0:0:0:0:
475,192,34646,1,0,0:0:0:0:
256,192,34817,1,0,0:0:0:0:
36,192,34817,1,0,0:0:0:0:
182,192,34987,128,0,35157:0:0:0:0:
329,192,34987,128,0,35157:0:0:0:0:
475,192,34987,1,0,0:0:0:0:
256,192,35157,1,0,0:0:0:0:
36,192,35157,1,0,0:0:0:0:
475,192,35327,1,0,0:0:0:0:
182,192,35328,128,0,35498:0:0:0:0:
329,192,35328,128,0,35498:0:0:0:0:
256,192,35498,1,0,0:0:0:0:
36,192,35498,1,0,0:0:0:0:
475,192,35668,1,0,0:0:0:0:
329,192,35669,128,0,35839:0:0:0:0:
182,192,35669,128,0,35839:0:0:0:0:
256,192,35839,1,0,0:0:0:0:
36,192,35839,1,0,0:0:0:0:
475,192,36009,1,0,0:0:0:0:
182,192,36010,128,0,36180:0:0:0:0:
329,192,36010,128,0,36180:0:0:0:0:
256,192,36180,1,0,0:0:0:0:
36,192,36180,1,0,0:0:0:0:
475,192,36350,1,0,0:0:0:0:
182,192,36351,128,0,36521:0:0:0:0:
329,192,36351,128,0,36521:0:0:0:0:
256,192,36521,1,0,0:0:0:0:
109,192,36521,1,0,0:0:0:0:
475,192,36692,128,0,36862:0:0:0:0:
36,192,36692,128,0,36862:0:0:0:0:
402,192,36692,1,0,0:0:0:0:
256,192,36862,1,0,0:0:0:0:
109,192,36862,1,0,0:0:0:0:
36,192,37032,128,0,37202:0:0:0:0:
475,192,37032,128,0,37202:0:0:0:0:
402,192,37033,1,0,0:0:0:0:
256,192,37203,1,0,0:0:0:0:
109,192,37203,1,0,0:0:0:0:
475,192,37373,128,0,37543:0:0:0:0:
36,192,37373,128,0,37543:0:0:0:0:
402,192,37374,1,0,0:0:0:0:
256,192,37544,1,0,0:0:0:0:
109,192,37544,1,0,0:0:0:0:
36,192,37714,128,0,37884:0:0:0:0:
475,192,37714,128,0,37884:0:0:0:0:
402,192,37715,1,0,0:0:0:0:
256,192,37885,1,0,0:0:0:0:
109,192,37885,1,0,0:0:0:0:
475,192,38055,128,0,38225:0:0:0:0:
36,192,38055,128,0,38225:0:0:0:0:
402,192,38056,1,0,0:0:0:0:
256,192,38226,1,0,0:0:0:0:
109,192,38226,1,0,0:0:0:0:
36,192,38396,128,0,38566:0:0:0:0:
475,192,38396,128,0,38566:0:0:0:0:
402,192,38397,1,0,0:0:0:0:
256,192,38567,1,0,0:0:0:0:
109,192,38567,1,0,0:0:0:0:
475,192,38737,128,0,38907:0:0:0:0:
36,192,38737,128,0,38907:0:0:0:0:
402,192,38738,1,0,0:0:0:0:
256,192,38907,1,0,0:0:0:0:
109,192,38907,1,0,0:0:0:0:
36,192,39078,128,0,39248:0:0:0:0:
475,192,39078,128,0,39248:0:0:0:0:
402,192,39078,1,0,0:0:0:0:
256,192,39248,1,0,0:0:0:0:
182,192,39248,1,0,0:0:0:0:
109,192,39419,128,0,39589:0:0:0:0:
402,192,39419,128,0,39589:0:0:0:0:
329,192,39419,1,0,0:0:0:0:
256,192,39589,1,0,0:0:0:0:
182,192,39589,1,0,0:0:0:0:
109,192,39760,128,0,39930:0:0:0:0:
402,192,39760,128,0,39930:0:0:0:0:
329,192,39760,1,0,0:0:0:0:
256,192,39930,1,0,0:0:0:0:
182,192,39930,1,0,0:0:0:0:
402,192,40101,128,0,40271:0:0:0:0:
109,192,40101,128,0,40271:0:0:0:0:
329,192,40101,1,0,0:0:0:0:
182,192,40186,1,0,0:0:0:0:
256,192,40271,1,0,0:0:0:0:
329,192,40271,1,0,0:0:0:0:
109,192,40442,128,0,40612:0:0:0:0:
402,192,40442,128,0,40612:0:0:0:0:
182,192,40442,1,0,0:0:0:0:
256,192,40612,1,0,0:0:0:0:
329,192,40612,1,0,0:0:0:0:
182,192,40782,1,0,0:0:0:0:
402,192,40782,128,0,40952:0:0:0:0:
109,192,40782,128,0,40952:0:0:0:0:
256,192,40953,1,0,0:0:0:0:
329,192,40953,1,0,0:0:0:0:
109,192,41123,128,0,41293:0:0:0:0:
402,192,41123,128,0,41293:0:0:0:0:
182,192,41123,1,0,0:0:0:0:
256,192,41294,1,0,0:0:0:0:
329,192,41294,1,0,0:0:0:0:
402,192,41464,128,0,41634:0:0:0:0:
109,192,41464,128,0,41634:0:0:0:0:
329,192,41464,1,0,0:0:0:0:
182,192,41549,1,0,0:0:0:0:
256,192,41635,1,0,0:0:0:0:
329,192,41635,1,0,0:0:0:0:
182,192,41720,1,0,0:0:0:0:
109,192,41805,128,0,41975:0:0:0:0:
402,192,41805,128,0,41975:0:0:0:0:
329,192,41805,1,0,0:0:0:0:
256,192,41976,1,0,0:0:0:0:
36,192,41976,1,0,0:0:0:0:
475,192,42061,1,0,0:0:0:0:
182,192,42146,128,0,42317:0:0:0:0:
329,192,42146,128,0,42317:0:0:0:0:
36,192,42146,1,0,0:0:0:0:
475,192,42231,1,0,0:0:0:0:
256,192,42317,1,0,0:0:0:0:
36,192,42317,1,0,0:0:0:0:
475,192,42402,1,0,0:0:0:0:
182,192,42487,128,0,42658:0:0:0:0:
329,192,42487,128,0,42658:0:0:0:0:
36,192,42487,1,0,0:0:0:0:
475,192,42572,1,0,0:0:0:0:
256,192,42657,1,0,0:0:0:0:
36,192,42657,1,0,0:0:0:0:
475,192,42700,1,0,0:0:0:0:
109,192,42743,1,0,0:0:0:0:
402,192,42785,1,0,0:0:0:0:
329,192,42828,128,0,42999:0:0:0:0:
182,192,42828,128,0,42999:0:0:0:0:
36,192,42828,1,0,0:0:0:0:
475,192,42871,1,0,0:0:0:0:
109,192,42913,1,0,0:0:0:0:
402,192,42956,1,0,0:0:0:0:
256,192,42998,1,0,0:0:0:0:
36,192,42998,1,0,0:0:0:0:
475,192,43041,1,0,0:0:0:0:
109,192,43084,1,0,0:0:0:0:
402,192,43126,1,0,0:0:0:0:
182,192,43169,128,0,43340:0:0:0:0:
329,192,43169,128,0,43340:0:0:0:0:
36,192,43169,1,0,0:0:0:0:
475,192,43212,1,0,0:0:0:0:
109,192,43254,1,0,0:0:0:0:
402,192,43297,1,0,0:0:0:0:
256,192,43339,1,0,0:0:0:0:
109,192,43510,128,0,44021:0:0:0:0:
402,192,43510,128,0,44021:0:0:0:0:
182,192,44192,128,0,44703:0:0:0:0:
329,192,44192,128,0,44703:0:0:0:0:
256,192,44703,1,0,0:0:0:0:
36,192,44703,1,0,0:0:0:0:
109,192,44703,128,0,46067:0:0:0:0:
182,192,44873,1,0,0:0:0:0:
475,192,45044,1,0,0:0:0:0:
36,192,45214,1,0,0:0:0:0:
182,192,45384,1,0,0:0:0:0:
475,192,45555,1,0,0:0:0:0:
36,192,45726,1,0,0:0:0:0:
182,192,45896,1,0,0:0:0:0:
475,192,46067,1,0,0:0:0:0:
256,192,46067,128,0,46748:0:0:0:0:
36,192,46237,1,0,0:0:0:0:
182,192,46407,1,0,0:0:0:0:
475,192,46578,1,0,0:0:0:0:
36,192,46748,1,0,0:0:0:0:
329,192,46748,128,0,47430:0:0:0:0:
182,192,46918,1,0,0:0:0:0:
475,192,47089,1,0,0:0:0:0:
36,192,47260,1,0,0:0:0:0:
36,192,47430,1,0,0:0:0:0:
402,192,47430,128,0,50157:0:0:0:0:
182,192,47600,1,0,0:0:0:0:
475,192,47771,1,0,0:0:0:0:
36,192,47942,1,0,0:0:0:0:
182,192,48112,1,0,0:0:0:0:
475,192,48283,1,0,0:0:0:0:
36,192,48453,1,0,0:0:0:0:
182,192,48623,1,0,0:0:0:0:
475,192,48794,1,0,0:0:0:0:
36,192,48964,1,0,0:0:0:0:
182,192,49134,1,0,0:0:0:0:
475,192,49305,1,0,0:0:0:0:
36,192,49476,1,0,0:0:0:0:
182,192,49646,1,0,0:0:0:0:
475,192,49817,1,0,0:0:0:0:
182,192,49987,1,0,0:0:0:0:
36,192,50157,1,0,0:0:0:0:
475,192,50157,128,0,51521:0:0:0:0:
182,192,50328,1,0,0:0:0:0:
329,192,50498,1,0,0:0:0:0:
36,192,50669,1,0,0:0:0:0:
182,192,50840,1,0,0:0:0:0:
329,192,51010,1,0,0:0:0:0:
36,192,51180,1,0,0:0:0:0:
182,192,51351,1,0,0:0:0:0:
329,192,51521,1,0,0:0:0:0:
402,192,51521,128,0,52203:0:0:0:0:
36,192,51692,1,0,0:0:0:0:
182,192,51863,1,0,0:0:0:0:
329,192,52033,1,0,0:0:0:0:
36,192,52203,1,0,0:0:0:0:
109,192,52203,128,0,52885:0:0:0:0:
182,192,52374,1,0,0:0:0:0:
329,192,52544,1,0,0:0:0:0:
36,192,52714,1,0,0:0:0:0:
36,192,52885,1,0,0:0:0:0:
256,192,52885,128,0,54248:0:0:0:0:
182,192,53055,1,0,0:0:0:0:
475,192,53226,1,0,0:0:0:0:
36,192,53396,1,0,0:0:0:0:
182,192,53566,1,0,0:0:0:0:
475,192,53737,1,0,0:0:0:0:
36,192,53907,1,0,0:0:0:0:
182,192,54077,1,0,0:0:0:0:
329,192,54248,128,0,55612:0:0:0:0:
475,192,54248,1,0,0:0:0:0:
36,192,54419,128,0,54589:0:0:0:0:
182,192,54589,128,0,54760:0:0:0:0:
475,192,54760,128,0,54930:0:0:0:0:
36,192,54930,128,0,55101:0:0:0:0:
182,192,55101,128,0,55271:0:0:0:0:
475,192,55271,128,0,55442:0:0:0:0:
182,192,55442,128,0,55612:0:0:0:0:
256,192,55612,1,0,0:0:0:0:
36,192,55612,1,0,0:0:0:0:
475,192,55612,1,0,0:0:0:0:
109,192,55697,1,0,0:0:0:0:
182,192,55782,1,0,0:0:0:0:
329,192,55868,1,0,0:0:0:0:
256,192,55953,1,0,0:0:0:0:
182,192,55953,1,0,0:0:0:0:
402,192,55953,1,0,0:0:0:0:
109,192,56038,1,0,0:0:0:0:
36,192,56209,1,0,0:0:0:0:
402,192,56209,1,0,0:0:0:0:
256,192,56294,1,0,0:0:0:0:
109,192,56294,1,0,0:0:0:0:
329,192,56294,1,0,0:0:0:0:
182,192,56464,1,0,0:0:0:0:
329,192,56464,1,0,0:0:0:0:
109,192,56549,1,0,0:0:0:0:
402,192,56549,1,0,0:0:0:0:
256,192,56635,1,0,0:0:0:0:
36,192,56720,1,0,0:0:0:0:
402,192,56720,1,0,0:0:0:0:
109,192,56805,1,0,0:0:0:0:
475,192,56805,1,0,0:0:0:0:
256,192,56976,1,0,0:0:0:0:
182,192,56976,1,0,0:0:0:0:
109,192,57061,1,0,0:0:0:0:
402,192,57061,1,0,0:0:0:0:
36,192,57146,1,0,0:0:0:0:
475,192,57146,1,0,0:0:0:0:
256,192,57317,1,0,0:0:0:0:
182,192,57317,1,0,0:0:0:0:
329,192,57317,1,0,0:0:0:0:
109,192,57402,1,0,0:0:0:0:
402,192,57402,1,0,0:0:0:0:
109,192,57572,1,0,0:0:0:0:
402,192,57572,1,0,0:0:0:0:
329,192,57657,1,0,0:0:0:0:
256,192,57657,1,0,0:0:0:0:
36,192,57657,1,0,0:0:0:0:
182,192,57828,1,0,0:0:0:0:
329,192,57828,1,0,0:0:0:0:
109,192,57913,1,0,0:0:0:0:
402,192,57913,1,0,0:0:0:0:
256,192,57998,1,0,0:0:0:0:
182,192,58084,1,0,0:0:0:0:
402,192,58084,1,0,0:0:0:0:
109,192,58169,1,0,0:0:0:0:
475,192,58169,1,0,0:0:0:0:
36,192,58254,1,0,0:0:0:0:
256,192,58339,1,0,0:0:0:0:
475,192,58339,1,0,0:0:0:0:
36,192,58339,1,0,0:0:0:0:
402,192,58424,1,0,0:0:0:0:
329,192,58510,1,0,0:0:0:0:
182,192,58595,1,0,0:0:0:0:
256,192,58680,1,0,0:0:0:0:
475,192,58680,1,0,0:0:0:0:
109,192,58680,1,0,0:0:0:0:
402,192,58765,1,0,0:0:0:0:
329,192,58936,1,0,0:0:0:0:
109,192,58936,1,0,0:0:0:0:
256,192,59021,1,0,0:0:0:0:
402,192,59021,1,0,0:0:0:0:
182,192,59021,1,0,0:0:0:0:
475,192,59192,1,0,0:0:0:0:
182,192,59192,1,0,0:0:0:0:
402,192,59277,1,0,0:0:0:0:
109,192,59277,1,0,0:0:0:0:
256,192,59362,1,0,0:0:0:0:
329,192,59447,5,0,0:0:0:0:
109,192,59447,1,0,0:0:0:0:
402,192,59532,1,0,0:0:0:0:
36,192,59532,1,0,0:0:0:0:
256,192,59703,1,0,0:0:0:0:
475,192,59703,1,0,0:0:0:0:
402,192,59788,1,0,0:0:0:0:
109,192,59788,1,0,0:0:0:0:
329,192,59873,1,0,0:0:0:0:
182,192,59873,1,0,0:0:0:0:
256,192,60044,1,0,0:0:0:0:
475,192,60044,1,0,0:0:0:0:
182,192,60044,1,0,0:0:0:0:
402,192,60129,1,0,0:0:0:0:
109,192,60129,1,0,0:0:0:0:
402,192,60299,1,0,0:0:0:0:
182,192,60299,1,0,0:0:0:0:
256,192,60385,1,0,0:0:0:0:
329,192,60385,1,0,0:0:0:0:
109,192,60385,1,0,0:0:0:0:
475,192,60555,1,0,0:0:0:0:
109,192,60555,1,0,0:0:0:0:
402,192,60640,1,0,0:0:0:0:
36,192,60640,1,0,0:0:0:0:
256,192,60726,1,0,0:0:0:0:
402,192,60811,1,0,0:0:0:0:
36,192,60811,1,0,0:0:0:0:
329,192,60896,1,0,0:0:0:0:
109,192,60896,1,0,0:0:0:0:
256,192,61067,1,0,0:0:0:0:
475,192,61067,1,0,0:0:0:0:
109,192,61067,1,0,0:0:0:0:
256,192,61237,1,0,0:0:0:0:
36,192,61237,1,0,0:0:0:0:
256,192,61407,1,0,0:0:0:0:
402,192,61407,1,0,0:0:0:0:
256,192,61578,1,0,0:0:0:0:
36,192,61578,1,0,0:0:0:0:
256,192,61748,1,0,0:0:0:0:
329,192,61748,1,0,0:0:0:0:
36,192,61919,1,0,0:0:0:0:
256,192,62004,1,0,0:0:0:0:
402,192,62004,1,0,0:0:0:0:
36,192,62174,1,0,0:0:0:0:
256,192,62260,1,0,0:0:0:0:
475,192,62260,1,0,0:0:0:0:
256,192,62430,1,0,0:0:0:0:
109,192,62430,1,0,0:0:0:0:
256,192,62601,1,0,0:0:0:0:
475,192,62601,1,0,0:0:0:0:
256,192,62771,1,0,0:0:0:0:
36,192,62771,1,0,0:0:0:0:
402,192,62856,1,0,0:0:0:0:
256,192,62942,1,0,0:0:0:0:
36,192,63027,1,0,0:0:0:0:
256,192,63112,1,0,0:0:0:0:
329,192,63112,1,0,0:0:0:0:
109,192,63112,1,0,0:0:0:0:
36,192,63282,1,0,0:0:0:0:
256,192,63368,1,0,0:0:0:0:
402,192,63368,1,0,0:0:0:0:
36,192,63538,1,0,0:0:0:0:
256,192,63623,1,0,0:0:0:0:
475,192,63623,1,0,0:0:0:0:
182,192,63794,1,0,0:0:0:0:
329,192,63794,1,0,0:0:0:0:
36,192,63794,1,0,0:0:0:0:
475,192,63879,1,0,0:0:0:0:
36,192,63964,1,0,0:0:0:0:
475,192,64049,1,0,0:0:0:0:
182,192,64135,1,0,0:0:0:0:
329,192,64135,1,0,0:0:0:0:
36,192,64135,1,0,0:0:0:0:
475,192,64220,1,0,0:0:0:0:
36,192,64305,1,0,0:0:0:0:
475,192,64390,1,0,0:0:0:0:
182,192,64476,1,0,0:0:0:0:
329,192,64476,1,0,0:0:0:0:
36,192,64476,1,0,0:0:0:0:
475,192,64518,1,0,0:0:0:0:
109,192,64561,1,0,0:0:0:0:
402,192,64603,1,0,0:0:0:0:
36,192,64646,1,0,0:0:0:0:
475,192,64688,1,0,0:0:0:0:
109,192,64731,1,0,0:0:0:0:
402,192,64774,1,0,0:0:0:0:
182,192,64817,1,0,0:0:0:0:
329,192,64817,1,0,0:0:0:0:
36,192,64817,1,0,0:0:0:0:
475,192,64859,1,0,0:0:0:0:
109,192,64902,1,0,0:0:0:0:
402,192,64944,1,0,0:0:0:0:
36,192,64987,1,0,0:0:0:0:
475,192,65029,1,0,0:0:0:0:
109,192,65072,1,0,0:0:0:0:
402,192,65115,1,0,0:0:0:0:
182,192,65157,1,0,0:0:0:0:
329,192,65157,1,0,0:0:0:0:
182,192,66180,128,0,66521:0:0:0:0:
329,192,66180,128,0,66521:0:0:0:0:
256,192,66521,5,0,0:0:0:0:
36,192,66692,128,0,67032:0:0:0:0:
475,192,66692,128,0,67032:0:0:0:0:
256,192,67032,1,0,0:0:0:0:
36,192,67203,128,0,67544:0:0:0:0:
475,192,67203,128,0,67544:0:0:0:0:
256,192,67544,1,0,0:0:0:0:
36,192,67714,128,0,68055:0:0:0:0:
475,192,67714,128,0,68055:0:0:0:0:
256,192,68055,1,0,0:0:0:0:
36,192,68226,128,0,68567:0:0:0:0:
475,192,68226,128,0,68567:0:0:0:0:
109,192,68567,1,0,0:0:0:0:
402,192,68567,1,0,0:0:0:0:
256,192,68907,1,0,0:0:0:0:
109,192,69078,1,0,0:0:0:0:
402,192,69078,1,0,0:0:0:0:
256,192,69248,1,0,0:0:0:0:
109,192,69419,128,0,69760:0:0:0:0:
402,192,69419,128,0,69760:0:0:0:0:
256,192,69760,1,0,0:0:0:0:
109,192,69930,128,0,70271:0:0:0:0:
402,192,69930,128,0,70271:0:0:0:0:
256,192,70271,1,0,0:0:0:0:
109,192,70442,128,0,70782:0:0:0:0:
402,192,70442,128,0,70782:0:0:0:0:
256,192,70782,1,0,0:0:0:0:
109,192,70953,128,0,71294:0:0:0:0:
402,192,70953,128,0,71294:0:0:0:0:
256,192,71123,1,0,0:0:0:0:
256,192,71209,1,0,0:0:0:0:
182,192,71294,1,0,0:0:0:0:
329,192,71294,1,0,0:0:0:0:
256,192,71464,1,0,0:0:0:0:
256,192,71635,1,0,0:0:0:0:
182,192,71805,1,0,0:0:0:0:
329,192,71805,1,0,0:0:0:0:
256,192,71976,1,0,0:0:0:0:
109,192,72146,128,0,72487:0:0:0:0:
402,192,72146,128,0,72487:0:0:0:0:
256,192,72487,1,0,0:0:0:0:
109,192,72657,128,0,72998:0:0:0:0:
402,192,72657,128,0,72998:0:0:0:0:
256,192,72998,1,0,0:0:0:0:
109,192,73169,128,0,73510:0:0:0:0:
402,192,73169,128,0,73510:0:0:0:0:
256,192,73510,1,0,0:0:0:0:
109,192,73680,128,0,74021:0:0:0:0:
402,192,73680,128,0,74021:0:0:0:0:
36,192,74021,1,0,0:0:0:0:
475,192,74021,1,0,0:0:0:0:
256,192,74703,1,0,0:0:0:0:
182,192,74873,128,0,75214:0:0:0:0:
329,192,74873,128,0,75214:0:0:0:0:
256,192,75214,1,0,0:0:0:0:
182,192,75385,128,0,75726:0:0:0:0:
329,192,75385,128,0,75726:0:0:0:0:
256,192,75726,1,0,0:0:0:0:
182,192,75896,128,0,76237:0:0:0:0:
329,192,75896,128,0,76237:0:0:0:0:
256,192,76237,1,0,0:0:0:0:
109,192,76407,128,0,76748:0:0:0:0:
402,192,76407,128,0,76748:0:0:0:0:
256,192,76748,1,0,0:0:0:0:
182,192,76919,128,0,77430:0:0:0:0:
329,192,76919,128,0,77430:0:0:0:0:
256,192,77430,1,0,0:0:0:0:
36,192,77601,128,0,77942:0:0:0:0:
475,192,77601,128,0,77942:0:0:0:0:
256,192,77942,1,0,0:0:0:0:
36,192,78112,128,0,78453:0:0:0:0:
475,192,78112,128,0,78453:0:0:0:0:
256,192,78453,1,0,0:0:0:0:
36,192,78623,128,0,78964:0:0:0:0:
475,192,78623,128,0,78964:0:0:0:0:
256,192,78964,1,0,0:0:0:0:
36,192,79135,128,0,79476:0:0:0:0:
475,192,79135,128,0,79476:0:0:0:0:
109,192,79476,1,0,0:0:0:0:
402,192,79476,1,0,0:0:0:0:
182,192,79646,128,0,80157:0:0:0:0:
329,192,79646,128,0,80157:0:0:0:0:
256,192,80157,1,0,0:0:0:0:
109,192,80328,128,0,80669:0:0:0:0:
402,192,80328,128,0,80669:0:0:0:0:
256,192,80669,1,0,0:0:0:0:
109,192,80839,128,0,81180:0:0:0:0:
402,192,80839,128,0,81180:0:0:0:0:
256,192,81180,1,0,0:0:0:0:
109,192,81351,128,0,81692:0:0:0:0:
402,192,81351,128,0,81692:0:0:0:0:
256,192,81692,1,0,0:0:0:0:
109,192,81862,128,0,82203:0:0:0:0:
402,192,81862,128,0,82203:0:0:0:0:
256,192,82032,1,0,0:0:0:0:
256,192,82118,1,0,0:0:0:0:
182,192,82203,1,0,0:0:0:0:
329,192,82203,1,0,0:0:0:0:
475,192,82203,128,0,82544:0:0:0:0:
36,192,82203,128,0,82544:0:0:0:0:
256,192,82373,1,0,0:0:0:0:
256,192,82544,1,0,0:0:0:0:
402,192,82544,128,0,82885:0:0:0:0:
109,192,82544,128,0,82885:0:0:0:0:
256,192,82629,1,0,0:0:0:0:
182,192,82714,1,0,0:0:0:0:
329,192,82714,1,0,0:0:0:0:
256,192,82885,1,0,0:0:0:0:
109,192,83055,128,0,83396:0:0:0:0:
402,192,83055,128,0,83396:0:0:0:0:
256,192,83396,1,0,0:0:0:0:
109,192,83567,128,0,83907:0:0:0:0:
402,192,83567,128,0,83907:0:0:0:0:
256,192,83907,1,0,0:0:0:0:
109,192,84078,128,0,84419:0:0:0:0:
402,192,84078,128,0,84419:0:0:0:0:
256,192,84419,1,0,0:0:0:0:
109,192,84589,128,0,84930:0:0:0:0:
402,192,84589,128,0,84930:0:0:0:0:
182,192,84930,1,0,0:0:0:0:
36,192,84930,128,0,85271:0:0:0:0:
475,192,84930,128,0,85271:0:0:0:0:
329,192,84930,1,0,0:0:0:0:
256,192,85101,1,0,0:0:0:0:
109,192,85271,128,0,85612:0:0:0:0:
402,192,85271,128,0,85612:0:0:0:0:
182,192,85271,1,0,0:0:0:0:
329,192,85271,1,0,0:0:0:0:
329,192,85442,1,0,0:0:0:0:
182,192,85442,1,0,0:0:0:0:
256,192,85612,1,0,0:0:0:0:
36,192,85612,128,0,86123:0:0:0:0:
475,192,85612,128,0,86123:0:0:0:0:
182,192,85782,128,0,86123:0:0:0:0:
329,192,85782,128,0,86123:0:0:0:0:
402,192,86123,128,0,86635:0:0:0:0:
109,192,86123,128,0,86635:0:0:0:0:
256,192,86123,1,0,0:0:0:0:
182,192,86294,128,0,86635:0:0:0:0:
329,192,86294,128,0,86635:0:0:0:0:
36,192,86294,1,0,0:0:0:0:
475,192,86294,1,0,0:0:0:0:
36,192,86635,128,0,87146:0:0:0:0:
475,192,86635,128,0,87146:0:0:0:0:
182,192,86805,128,0,87146:0:0:0:0:
329,192,86805,128,0,87146:0:0:0:0:
256,192,86976,1,0,0:0:0:0:
109,192,87146,128,0,87657:0:0:0:0:
402,192,87146,128,0,87657:0:0:0:0:
256,192,87231,1,0,0:0:0:0:
36,192,87317,128,0,87657:0:0:0:0:
475,192,87317,128,0,87657:0:0:0:0:
256,192,87487,1,0,0:0:0:0:
182,192,87657,128,0,88339:0:0:0:0:
329,192,87657,128,0,88339:0:0:0:0:
256,192,87657,1,0,0:0:0:0:
109,192,87828,128,0,88339:0:0:0:0:
402,192,87828,128,0,88339:0:0:0:0:
256,192,88339,1,0,0:0:0:0:
109,192,88510,1,0,0:0:0:0:
256,192,88680,1,0,0:0:0:0:
402,192,88851,1,0,0:0:0:0:
256,192,89021,1,0,0:0:0:0:
36,192,89021,1,0,0:0:0:0:
256,192,89192,1,0,0:0:0:0:
109,192,89277,1,0,0:0:0:0:
256,192,89447,1,0,0:0:0:0:
402,192,89532,1,0,0:0:0:0:
182,192,89703,1,0,0:0:0:0:
256,192,89788,1,0,0:0:0:0:
109,192,89873,1,0,0:0:0:0:
256,192,90044,1,0,0:0:0:0:
402,192,90129,1,0,0:0:0:0:
256,192,90299,1,0,0:0:0:0:
109,192,90385,1,0,0:0:0:0:
329,192,90385,1,0,0:0:0:0:
256,192,90555,1,0,0:0:0:0:
402,192,90640,1,0,0:0:0:0:
256,192,90811,1,0,0:0:0:0:
109,192,90896,1,0,0:0:0:0:
402,192,91067,1,0,0:0:0:0:
475,192,91067,1,0,0:0:0:0:
109,192,91237,1,0,0:0:0:0:
256,192,91407,1,0,0:0:0:0:
109,192,91578,1,0,0:0:0:0:
402,192,91748,1,0,0:0:0:0:
256,192,91919,1,0,0:0:0:0:
109,192,92004,1,0,0:0:0:0:
256,192,92174,1,0,0:0:0:0:
402,192,92260,1,0,0:0:0:0:
256,192,92515,1,0,0:0:0:0:
109,192,92601,1,0,0:0:0:0:
256,192,92771,1,0,0:0:0:0:
402,192,92856,1,0,0:0:0:0:
256,192,93027,1,0,0:0:0:0:
109,192,93112,1,0,0:0:0:0:
256,192,93282,1,0,0:0:0:0:
402,192,93368,1,0,0:0:0:0:
256,192,93538,1,0,0:0:0:0:
109,192,93623,1,0,0:0:0:0:
256,192,93794,1,0,0:0:0:0:
475,192,93794,128,0,93964:0:0:0:0:
329,192,93964,128,0,94135:0:0:0:0:
402,192,94135,128,0,94305:0:0:0:0:
109,192,94305,128,0,94476:0:0:0:0:
182,192,94476,128,0,94646:0:0:0:0:
36,192,94646,1,0,0:0:0:0:
109,192,94731,1,0,0:0:0:0:
36,192,94902,1,0,0:0:0:0:
182,192,94987,1,0,0:0:0:0:
256,192,95157,1,0,0:0:0:0:
182,192,95157,1,0,0:0:0:0:
329,192,95243,1,0,0:0:0:0:
475,192,95328,1,0,0:0:0:0:
329,192,95498,1,0,0:0:0:0:
402,192,95584,1,0,0:0:0:0:
109,192,95754,1,0,0:0:0:0:
256,192,95839,1,0,0:0:0:0:
182,192,95839,1,0,0:0:0:0:
109,192,96010,1,0,0:0:0:0:
329,192,96095,1,0,0:0:0:0:
182,192,96265,1,0,0:0:0:0:
402,192,96351,1,0,0:0:0:0:
256,192,96521,1,0,0:0:0:0:
475,192,96521,128,0,96692:0:0:0:0:
182,192,96692,128,0,96862:0:0:0:0:
329,192,96862,128,0,97032:0:0:0:0:
256,192,96862,1,0,0:0:0:0:
36,192,97032,128,0,97203:0:0:0:0:
109,192,97203,128,0,97373:0:0:0:0:
256,192,97203,1,0,0:0:0:0:
36,192,97373,1,0,0:0:0:0:
256,192,97459,1,0,0:0:0:0:
182,192,97459,1,0,0:0:0:0:
109,192,97629,1,0,0:0:0:0:
256,192,97714,1,0,0:0:0:0:
329,192,97714,1,0,0:0:0:0:
256,192,97885,1,0,0:0:0:0:
36,192,97970,1,0,0:0:0:0:
109,192,98055,1,0,0:0:0:0:
36,192,98226,1,0,0:0:0:0:
182,192,98311,1,0,0:0:0:0:
109,192,98481,1,0,0:0:0:0:
475,192,98567,1,0,0:0:0:0:
109,192,98737,1,0,0:0:0:0:
402,192,98822,1,0,0:0:0:0:
109,192,98993,1,0,0:0:0:0:
329,192,99078,1,0,0:0:0:0:
256,192,99248,1,0,0:0:0:0:
36,192,99248,1,0,0:0:0:0:
475,192,99248,128,0,99419:0:0:0:0:
109,192,99334,1,0,0:0:0:0:
182,192,99419,1,0,0:0:0:0:
329,192,99419,128,0,99589:0:0:0:0:
256,192,99589,1,0,0:0:0:0:
36,192,99589,1,0,0:0:0:0:
402,192,99589,128,0,99760:0:0:0:0:
109,192,99674,1,0,0:0:0:0:
329,192,99760,128,0,99930:0:0:0:0:
109,192,99845,1,0,0:0:0:0:
256,192,99930,1,0,0:0:0:0:
182,192,99930,1,0,0:0:0:0:
402,192,99930,128,0,100101:0:0:0:0:
36,192,100101,1,0,0:0:0:0:
329,192,100101,1,0,0:0:0:0:
109,192,100186,1,0,0:0:0:0:
402,192,100186,1,0,0:0:0:0:
256,192,100271,1,0,0:0:0:0:
109,192,100356,1,0,0:0:0:0:
329,192,100356,1,0,0:0:0:0:
182,192,100442,1,0,0:0:0:0:
475,192,100442,1,0,0:0:0:0:
256,192,100612,1,0,0:0:0:0:
329,192,100612,1,0,0:0:0:0:
36,192,100612,1,0,0:0:0:0:
402,192,100697,1,0,0:0:0:0:
109,192,100698,1,0,0:0:0:0:
475,192,100782,1,0,0:0:0:0:
182,192,100783,1,0,0:0:0:0:
256,192,100953,1,0,0:0:0:0:
329,192,100953,1,0,0:0:0:0:
36,192,100953,1,0,0:0:0:0:
475,192,101038,1,0,0:0:0:0:
109,192,101038,1,0,0:0:0:0:
329,192,101209,1,0,0:0:0:0:
109,192,101209,1,0,0:0:0:0:
256,192,101294,1,0,0:0:0:0:
402,192,101294,1,0,0:0:0:0:
182,192,101294,1,0,0:0:0:0:
329,192,101464,1,0,0:0:0:0:
36,192,101465,1,0,0:0:0:0:
402,192,101549,1,0,0:0:0:0:
109,192,101550,1,0,0:0:0:0:
256,192,101635,1,0,0:0:0:0:
329,192,101720,1,0,0:0:0:0:
109,192,101720,1,0,0:0:0:0:
475,192,101805,1,0,0:0:0:0:
182,192,101806,1,0,0:0:0:0:
256,192,101976,1,0,0:0:0:0:
475,192,101976,1,0,0:0:0:0:
36,192,101976,128,0,102146:0:0:0:0:
402,192,102061,1,0,0:0:0:0:
329,192,102146,1,0,0:0:0:0:
182,192,102146,128,0,102317:0:0:0:0:
256,192,102317,1,0,0:0:0:0:
475,192,102317,1,0,0:0:0:0:
109,192,102317,128,0,102487:0:0:0:0:
402,192,102402,1,0,0:0:0:0:
182,192,102487,128,0,102657:0:0:0:0:
402,192,102572,1,0,0:0:0:0:
256,192,102657,1,0,0:0:0:0:
329,192,102657,1,0,0:0:0:0:
109,192,102657,128,0,102828:0:0:0:0:
475,192,102828,1,0,0:0:0:0:
182,192,102828,1,0,0:0:0:0:
402,192,102913,1,0,0:0:0:0:
109,192,102913,1,0,0:0:0:0:
256,192,102998,1,0,0:0:0:0:
402,192,103084,1,0,0:0:0:0:
182,192,103084,1,0,0:0:0:0:
329,192,103169,1,0,0:0:0:0:
36,192,103169,1,0,0:0:0:0:
256,192,103339,1,0,0:0:0:0:
475,192,103339,1,0,0:0:0:0:
182,192,103339,1,0,0:0:0:0:
402,192,103424,1,0,0:0:0:0:
109,192,103424,1,0,0:0:0:0:
329,192,103509,1,0,0:0:0:0:
36,192,103510,1,0,0:0:0:0:
256,192,103680,1,0,0:0:0:0:
475,192,103680,1,0,0:0:0:0:
182,192,103680,1,0,0:0:0:0:
402,192,103765,1,0,0:0:0:0:
36,192,103765,1,0,0:0:0:0:
402,192,103935,1,0,0:0:0:0:
182,192,103936,1,0,0:0:0:0:
329,192,104020,1,0,0:0:0:0:
256,192,104021,1,0,0:0:0:0:
109,192,104021,1,0,0:0:0:0:
475,192,104191,1,0,0:0:0:0:
182,192,104192,1,0,0:0:0:0:
402,192,104276,1,0,0:0:0:0:
109,192,104277,1,0,0:0:0:0:
256,192,104362,1,0,0:0:0:0:
402,192,104447,1,0,0:0:0:0:
182,192,104447,1,0,0:0:0:0:
256,192,104532,1,0,0:0:0:0:
329,192,104532,1,0,0:0:0:0:
36,192,104532,1,0,0:0:0:0:
256,192,104703,1,0,0:0:0:0:
475,192,104703,128,0,104874:0:0:0:0:
36,192,104703,1,0,0:0:0:0:
109,192,104789,1,0,0:0:0:0:
182,192,104874,1,0,0:0:0:0:
329,192,104874,128,0,105044:0:0:0:0:
256,192,105044,1,0,0:0:0:0:
402,192,105044,128,0,105215:0:0:0:0:
36,192,105044,1,0,0:0:0:0:
109,192,105129,1,0,0:0:0:0:
329,192,105215,128,0,105385:0:0:0:0:
109,192,105300,1,0,0:0:0:0:
182,192,105385,1,0,0:0:0:0:
402,192,105385,128,0,105556:0:0:0:0:
256,192,105385,1,0,0:0:0:0:
329,192,105556,1,0,0:0:0:0:
36,192,105556,1,0,0:0:0:0:
109,192,105641,1,0,0:0:0:0:
402,192,105641,1,0,0:0:0:0:
256,192,105726,1,0,0:0:0:0:
329,192,105811,1,0,0:0:0:0:
109,192,105811,1,0,0:0:0:0:
475,192,105897,1,0,0:0:0:0:
182,192,105897,1,0,0:0:0:0:
256,192,106067,1,0,0:0:0:0:
329,192,106067,1,0,0:0:0:0:
36,192,106067,1,0,0:0:0:0:
402,192,106152,1,0,0:0:0:0:
109,192,106153,1,0,0:0:0:0:
475,192,106237,1,0,0:0:0:0:
182,192,106238,1,0,0:0:0:0:
36,192,106408,1,0,0:0:0:0:
329,192,106408,1,0,0:0:0:0:
256,192,106408,1,0,0:0:0:0:
475,192,106493,1,0,0:0:0:0:
109,192,106493,1,0,0:0:0:0:
329,192,106664,1,0,0:0:0:0:
109,192,106664,1,0,0:0:0:0:
182,192,106749,1,0,0:0:0:0:
256,192,106749,1,0,0:0:0:0:
402,192,106749,1,0,0:0:0:0:
329,192,106919,1,0,0:0:0:0:
36,192,106920,1,0,0:0:0:0:
402,192,107004,1,0,0:0:0:0:
109,192,107005,1,0,0:0:0:0:
256,192,107090,1,0,0:0:0:0:
329,192,107175,1,0,0:0:0:0:
109,192,107175,1,0,0:0:0:0:
475,192,107260,1,0,0:0:0:0:
256,192,107260,1,0,0:0:0:0:
182,192,107261,1,0,0:0:0:0:
256,192,107431,1,0,0:0:0:0:
36,192,107431,128,0,107601:0:0:0:0:
475,192,107431,1,0,0:0:0:0:
402,192,107516,1,0,0:0:0:0:
182,192,107601,128,0,107772:0:0:0:0:
329,192,107601,1,0,0:0:0:0:
256,192,107601,1,0,0:0:0:0:
109,192,107772,128,0,107942:0:0:0:0:
256,192,107772,1,0,0:0:0:0:
475,192,107772,1,0,0:0:0:0:
402,192,107857,1,0,0:0:0:0:
182,192,107942,128,0,108112:0:0:0:0:
256,192,107942,1,0,0:0:0:0:
402,192,108027,1,0,0:0:0:0:
329,192,108112,1,0,0:0:0:0:
109,192,108112,128,0,108283:0:0:0:0:
256,192,108112,128,0,108794:0:0:0:0:
182,192,108283,1,0,0:0:0:0:
475,192,108283,1,0,0:0:0:0:
109,192,108368,1,0,0:0:0:0:
402,192,108368,1,0,0:0:0:0:
182,192,108539,1,0,0:0:0:0:
402,192,108539,1,0,0:0:0:0:
329,192,108624,1,0,0:0:0:0:
36,192,108624,1,0,0:0:0:0:
36,192,108794,1,0,0:0:0:0:
109,192,108879,1,0,0:0:0:0:
182,192,108964,1,0,0:0:0:0:
36,192,109135,1,0,0:0:0:0:
329,192,109220,1,0,0:0:0:0:
36,192,109390,1,0,0:0:0:0:
475,192,109476,1,0,0:0:0:0:
36,192,109646,1,0,0:0:0:0:
402,192,109731,1,0,0:0:0:0:
36,192,109902,1,0,0:0:0:0:
329,192,109987,1,0,0:0:0:0:
36,192,110157,1,0,0:0:0:0:
182,192,110328,1,0,0:0:0:0:
329,192,110498,1,0,0:0:0:0:
256,192,110498,1,0,0:0:0:0:
36,192,110498,1,0,0:0:0:0:
182,192,110498,1,0,0:0:0:0:
402,192,110669,128,0,110839:0:0:0:0:
256,192,110839,1,0,0:0:0:0:
109,192,111010,128,0,111180:0:0:0:0:
256,192,111180,1,0,0:0:0:0:
329,192,111180,1,0,0:0:0:0:
475,192,111180,1,0,0:0:0:0:
402,192,111351,128,0,111521:0:0:0:0:
256,192,111521,1,0,0:0:0:0:
109,192,111692,128,0,111862:0:0:0:0:
256,192,111862,1,0,0:0:0:0:
36,192,111862,1,0,0:0:0:0:
182,192,111862,1,0,0:0:0:0:
402,192,112032,128,0,112203:0:0:0:0:
256,192,112203,1,0,0:0:0:0:
109,192,112373,128,0,112544:0:0:0:0:
256,192,112544,1,0,0:0:0:0:
329,192,112544,1,0,0:0:0:0:
475,192,112544,1,0,0:0:0:0:
402,192,112714,128,0,112885:0:0:0:0:
256,192,112885,1,0,0:0:0:0:
109,192,113055,128,0,113226:0:0:0:0:
256,192,113226,1,0,0:0:0:0:
182,192,113226,1,0,0:0:0:0:
36,192,113226,1,0,0:0:0:0:
402,192,113311,128,0,113481:0:0:0:0:
256,192,113567,1,0,0:0:0:0:
109,192,113737,128,0,113907:0:0:0:0:
256,192,113907,1,0,0:0:0:0:
475,192,113908,1,0,0:0:0:0:
329,192,113908,1,0,0:0:0:0:
402,192,114078,128,0,114248:0:0:0:0:
256,192,114248,1,0,0:0:0:0:
109,192,114419,128,0,114589:0:0:0:0:
256,192,114589,1,0,0:0:0:0:
36,192,114589,1,0,0:0:0:0:
182,192,114589,1,0,0:0:0:0:
402,192,114760,128,0,114930:0:0:0:0:
256,192,114930,1,0,0:0:0:0:
109,192,115101,128,0,115271:0:0:0:0:
256,192,115271,1,0,0:0:0:0:
329,192,115271,1,0,0:0:0:0:
475,192,115271,1,0,0:0:0:0:
402,192,115442,128,0,115612:0:0:0:0:
36,192,115612,1,0,0:0:0:0:
256,192,115612,1,0,0:0:0:0:
182,192,115782,1,0,0:0:0:0:
109,192,115783,128,0,115953:0:0:0:0:
329,192,115953,1,0,0:0:0:0:
256,192,115953,1,0,0:0:0:0:
36,192,115953,1,0,0:0:0:0:
182,192,115953,1,0,0:0:0:0:
402,192,116123,128,0,116293:0:0:0:0:
256,192,116294,1,0,0:0:0:0:
109,192,116464,128,0,116634:0:0:0:0:
329,192,116635,1,0,0:0:0:0:
475,192,116635,1,0,0:0:0:0:
256,192,116635,1,0,0:0:0:0:
402,192,116805,128,0,116975:0:0:0:0:
256,192,116976,1,0,0:0:0:0:
109,192,117146,128,0,117316:0:0:0:0:
36,192,117317,1,0,0:0:0:0:
256,192,117317,1,0,0:0:0:0:
182,192,117317,1,0,0:0:0:0:
402,192,117487,128,0,117657:0:0:0:0:
256,192,117657,1,0,0:0:0:0:
109,192,117828,128,0,117998:0:0:0:0:
475,192,117998,1,0,0:0:0:0:
329,192,117998,1,0,0:0:0:0:
256,192,117998,1,0,0:0:0:0:
402,192,118169,128,0,118339:0:0:0:0:
256,192,118339,1,0,0:0:0:0:
109,192,118510,128,0,118680:0:0:0:0:
36,192,118680,1,0,0:0:0:0:
182,192,118680,1,0,0:0:0:0:
256,192,118680,1,0,0:0:0:0:
402,192,118851,128,0,119021:0:0:0:0:
256,192,119021,1,0,0:0:0:0:
109,192,119192,128,0,119362:0:0:0:0:
475,192,119362,1,0,0:0:0:0:
329,192,119362,1,0,0:0:0:0:
256,192,119362,1,0,0:0:0:0:
402,192,119532,128,0,119702:0:0:0:0:
256,192,119703,1,0,0:0:0:0:
475,192,119873,1,0,0:0:0:0:
36,192,119873,1,0,0:0:0:0:
402,192,120129,1,0,0:0:0:0:
109,192,120129,1,0,0:0:0:0:
402,192,120299,1,0,0:0:0:0:
109,192,120299,1,0,0:0:0:0:
182,192,120555,1,0,0:0:0:0:
329,192,120555,1,0,0:0:0:0:
329,192,120896,1,0,0:0:0:0:
182,192,120896,1,0,0:0:0:0:
36,192,121067,1,0,0:0:0:0:
109,192,121067,1,0,0:0:0:0:
182,192,121237,1,0,0:0:0:0:
402,192,121237,128,0,121408:0:0:0:0:
256,192,121408,1,0,0:0:0:0:
36,192,121408,1,0,0:0:0:0:
329,192,121408,1,0,0:0:0:0:
402,192,121578,128,0,121749:0:0:0:0:
36,192,121748,1,0,0:0:0:0:
402,192,121919,128,0,122090:0:0:0:0:
256,192,122089,1,0,0:0:0:0:
36,192,122089,1,0,0:0:0:0:
402,192,122260,128,0,122431:0:0:0:0:
475,192,122430,1,0,0:0:0:0:
109,192,122601,128,0,122771:0:0:0:0:
475,192,122771,1,0,0:0:0:0:
256,192,122771,1,0,0:0:0:0:
109,192,122942,128,0,123112:0:0:0:0:
475,192,123112,1,0,0:0:0:0:
256,192,123283,128,0,123453:0:0:0:0:
475,192,123453,1,0,0:0:0:0:
182,192,123623,1,0,0:0:0:0:
182,192,123709,1,0,0:0:0:0:
36,192,123794,1,0,0:0:0:0:
402,192,123964,128,0,124135:0:0:0:0:
256,192,124135,1,0,0:0:0:0:
36,192,124135,1,0,0:0:0:0:
402,192,124305,128,0,124476:0:0:0:0:
36,192,124476,1,0,0:0:0:0:
402,192,124646,128,0,124817:0:0:0:0:
36,192,124817,1,0,0:0:0:0:
256,192,124817,1,0,0:0:0:0:
402,192,124987,128,0,125158:0:0:0:0:
36,192,125158,1,0,0:0:0:0:
329,192,125158,1,0,0:0:0:0:
182,192,125328,1,0,0:0:0:0:
475,192,125498,1,0,0:0:0:0:
109,192,125669,1,0,0:0:0:0:
182,192,125754,1,0,0:0:0:0:
109,192,125839,1,0,0:0:0:0:
402,192,126010,128,0,126180:0:0:0:0:
402,192,126351,128,0,126521:0:0:0:0:
475,192,126521,1,0,0:0:0:0:
109,192,126692,128,0,126862:0:0:0:0:
475,192,126862,1,0,0:0:0:0:
256,192,126862,1,0,0:0:0:0:
109,192,127033,128,0,127203:0:0:0:0:
475,192,127203,1,0,0:0:0:0:
109,192,127373,128,0,127544:0:0:0:0:
256,192,127544,1,0,0:0:0:0:
475,192,127544,1,0,0:0:0:0:
109,192,127714,128,0,127885:0:0:0:0:
36,192,127885,1,0,0:0:0:0:
475,192,128055,128,0,128226:0:0:0:0:
36,192,128226,1,0,0:0:0:0:
402,192,128396,128,0,128567:0:0:0:0:
36,192,128567,1,0,0:0:0:0:
329,192,128737,128,0,128908:0:0:0:0:
256,192,128908,1,0,0:0:0:0:
329,192,129078,1,0,0:0:0:0:
402,192,129078,128,0,129248:0:0:0:0:
329,192,129163,1,0,0:0:0:0:
36,192,129248,1,0,0:0:0:0:
475,192,129419,1,0,0:0:0:0:
36,192,129589,1,0,0:0:0:0:
475,192,129760,1,0,0:0:0:0:
36,192,129930,1,0,0:0:0:0:
475,192,130015,1,0,0:0:0:0:
36,192,130101,1,0,0:0:0:0:
475,192,130186,1,0,0:0:0:0:
36,192,130271,1,0,0:0:0:0:
475,192,130356,1,0,0:0:0:0:
36,192,130442,1,0,0:0:0:0:
475,192,130527,1,0,0:0:0:0:
256,192,130612,1,0,0:0:0:0:
109,192,130953,1,0,0:0:0:0:
109,192,131123,1,0,0:0:0:0:
182,192,131294,1,0,0:0:0:0:
256,192,131464,1,0,0:0:0:0:
402,192,131464,1,0,0:0:0:0:
256,192,131635,1,0,0:0:0:0:
329,192,131635,1,0,0:0:0:0:
182,192,131805,1,0,0:0:0:0:
109,192,131976,1,0,0:0:0:0:
402,192,131976,1,0,0:0:0:0:
256,192,132146,1,0,0:0:0:0:
109,192,132317,1,0,0:0:0:0:
256,192,132487,1,0,0:0:0:0:
36,192,132657,128,0,137430:0:0:0:0:
402,192,132657,1,0,0:0:0:0:
256,192,132828,1,0,0:0:0:0:
109,192,132913,1,0,0:0:0:0:
256,192,133084,1,0,0:0:0:0:
402,192,133169,1,0,0:0:0:0:
182,192,133339,128,0,137430:0:0:0:0:
402,192,133339,1,0,0:0:0:0:
256,192,133424,1,0,0:0:0:0:
109,192,133510,1,0,0:0:0:0:
256,192,133680,1,0,0:0:0:0:
402,192,133765,1,0,0:0:0:0:
256,192,133936,1,0,0:0:0:0:
329,192,134021,128,0,137430:0:0:0:0:
109,192,134021,1,0,0:0:0:0:
256,192,134192,1,0,0:0:0:0:
402,192,134277,1,0,0:0:0:0:
256,192,134447,1,0,0:0:0:0:
109,192,134532,1,0,0:0:0:0:
475,192,134703,128,0,137430:0:0:0:0:
402,192,134703,1,0,0:0:0:0:
109,192,134873,1,0,0:0:0:0:
256,192,135044,1,0,0:0:0:0:
109,192,135214,1,0,0:0:0:0:
402,192,135385,1,0,0:0:0:0:
256,192,135555,1,0,0:0:0:0:
109,192,135640,1,0,0:0:0:0:
256,192,135811,1,0,0:0:0:0:
402,192,135896,1,0,0:0:0:0:
109,192,136067,1,0,0:0:0:0:
256,192,136152,1,0,0:0:0:0:
402,192,136237,1,0,0:0:0:0:
256,192,136407,1,0,0:0:0:0:
109,192,136492,1,0,0:0:0:0:
256,192,136663,1,0,0:0:0:0:
402,192,136748,1,0,0:0:0:0:
256,192,136919,1,0,0:0:0:0:
109,192,137004,1,0,0:0:0:0:
256,192,137175,1,0,0:0:0:0:
402,192,137260,1,0,0:0:0:0:
402,192,137430,1,0,0:0:0:0:
109,192,137600,1,0,0:0:0:0:
256,192,137771,1,0,0:0:0:0:
109,192,137941,1,0,0:0:0:0:
402,192,138112,1,0,0:0:0:0:
256,192,138282,1,0,0:0:0:0:
109,192,138367,1,0,0:0:0:0:
256,192,138538,1,0,0:0:0:0:
402,192,138623,1,0,0:0:0:0:
109,192,138794,1,0,0:0:0:0:
256,192,138879,1,0,0:0:0:0:
402,192,138964,1,0,0:0:0:0:
256,192,139134,1,0,0:0:0:0:
109,192,139219,1,0,0:0:0:0:
256,192,139390,1,0,0:0:0:0:
402,192,139475,1,0,0:0:0:0:
256,192,139646,1,0,0:0:0:0:
109,192,139731,1,0,0:0:0:0:
256,192,139902,1,0,0:0:0:0:
402,192,139987,1,0,0:0:0:0:
402,192,140157,1,0,0:0:0:0:
109,192,140327,1,0,0:0:0:0:
256,192,140498,1,0,0:0:0:0:
109,192,140668,1,0,0:0:0:0:
402,192,140839,1,0,0:0:0:0:
256,192,141009,1,0,0:0:0:0:
109,192,141094,1,0,0:0:0:0:
256,192,141265,1,0,0:0:0:0:
402,192,141350,1,0,0:0:0:0:
109,192,141521,1,0,0:0:0:0:
36,192,141521,128,0,142885:0:0:0:0:
475,192,141521,128,0,142885:0:0:0:0:
182,192,141521,1,0,0:0:0:0:
256,192,141606,1,0,0:0:0:0:
402,192,141691,1,0,0:0:0:0:
256,192,141861,1,0,0:0:0:0:
109,192,141946,1,0,0:0:0:0:
256,192,142117,1,0,0:0:0:0:
402,192,142202,1,0,0:0:0:0:
182,192,142203,1,0,0:0:0:0:
329,192,142288,1,0,0:0:0:0:
256,192,142373,1,0,0:0:0:0:
182,192,142373,1,0,0:0:0:0:
109,192,142458,1,0,0:0:0:0:
329,192,142544,1,0,0:0:0:0:
256,192,142629,1,0,0:0:0:0:
182,192,142629,1,0,0:0:0:0:
402,192,142714,1,0,0:0:0:0:
329,192,142714,1,0,0:0:0:0:
182,192,142799,1,0,0:0:0:0:
402,192,142885,1,0,0:0:0:0:
109,192,143055,1,0,0:0:0:0:
182,192,143055,128,0,143226:0:0:0:0:
329,192,143055,128,0,143226:0:0:0:0:
256,192,143226,1,0,0:0:0:0:
109,192,143396,1,0,0:0:0:0:
182,192,143396,128,0,143567:0:0:0:0:
329,192,143396,128,0,143567:0:0:0:0:
402,192,143567,1,0,0:0:0:0:
256,192,143737,1,0,0:0:0:0:
329,192,143737,128,0,143908:0:0:0:0:
182,192,143737,128,0,143908:0:0:0:0:
109,192,143822,1,0,0:0:0:0:
256,192,143993,1,0,0:0:0:0:
402,192,144078,1,0,0:0:0:0:
182,192,144078,128,0,144249:0:0:0:0:
329,192,144078,128,0,144249:0:0:0:0:
109,192,144249,1,0,0:0:0:0:
256,192,144334,1,0,0:0:0:0:
402,192,144419,1,0,0:0:0:0:
182,192,144419,128,0,144590:0:0:0:0:
329,192,144419,128,0,144590:0:0:0:0:
256,192,144589,1,0,0:0:0:0:
109,192,144674,1,0,0:0:0:0:
329,192,144760,128,0,144931:0:0:0:0:
182,192,144760,128,0,144931:0:0:0:0:
256,192,144845,1,0,0:0:0:0:
402,192,144930,1,0,0:0:0:0:
256,192,145101,1,0,0:0:0:0:
329,192,145101,128,0,145272:0:0:0:0:
182,192,145101,128,0,145272:0:0:0:0:
109,192,145186,1,0,0:0:0:0:
256,192,145357,1,0,0:0:0:0:
402,192,145442,1,0,0:0:0:0:
182,192,145442,128,0,145613:0:0:0:0:
329,192,145442,128,0,145613:0:0:0:0:
36,192,145442,1,0,0:0:0:0:
475,192,145442,1,0,0:0:0:0:
402,192,145612,1,0,0:0:0:0:
36,192,145612,1,0,0:0:0:0:
475,192,145612,1,0,0:0:0:0:
109,192,145782,1,0,0:0:0:0:
329,192,145782,128,0,145953:0:0:0:0:
182,192,145782,128,0,145953:0:0:0:0:
256,192,145953,1,0,0:0:0:0:
109,192,146123,1,0,0:0:0:0:
182,192,146123,128,0,146294:0:0:0:0:
329,192,146123,128,0,146294:0:0:0:0:
402,192,146294,1,0,0:0:0:0:
256,192,146464,1,0,0:0:0:0:
182,192,146464,128,0,146635:0:0:0:0:
329,192,146464,128,0,146635:0:0:0:0:
109,192,146549,1,0,0:0:0:0:
256,192,146720,1,0,0:0:0:0:
402,192,146805,1,0,0:0:0:0:
182,192,146805,128,0,146976:0:0:0:0:
329,192,146805,128,0,146976:0:0:0:0:
109,192,146976,1,0,0:0:0:0:
256,192,147061,1,0,0:0:0:0:
402,192,147146,1,0,0:0:0:0:
182,192,147146,128,0,147317:0:0:0:0:
329,192,147146,128,0,147317:0:0:0:0:
256,192,147316,1,0,0:0:0:0:
109,192,147401,1,0,0:0:0:0:
329,192,147487,128,0,147658:0:0:0:0:
182,192,147487,128,0,147658:0:0:0:0:
256,192,147572,1,0,0:0:0:0:
402,192,147657,1,0,0:0:0:0:
256,192,147828,1,0,0:0:0:0:
329,192,147828,128,0,147998:0:0:0:0:
182,192,147828,128,0,147998:0:0:0:0:
109,192,147913,1,0,0:0:0:0:
256,192,148084,1,0,0:0:0:0:
402,192,148169,1,0,0:0:0:0:
329,192,148169,128,0,148339:0:0:0:0:
182,192,148169,128,0,148340:0:0:0:0:
402,192,148339,1,0,0:0:0:0:
36,192,148339,1,0,0:0:0:0:
475,192,148339,1,0,0:0:0:0:
256,192,148509,1,0,0:0:0:0:
182,192,148510,128,0,148681:0:0:0:0:
329,192,148510,128,0,148681:0:0:0:0:
109,192,148594,1,0,0:0:0:0:
256,192,148765,1,0,0:0:0:0:
402,192,148850,1,0,0:0:0:0:
329,192,148851,128,0,149022:0:0:0:0:
182,192,148851,128,0,149022:0:0:0:0:
402,192,149021,1,0,0:0:0:0:
36,192,149021,1,0,0:0:0:0:
475,192,149021,1,0,0:0:0:0:
256,192,149191,1,0,0:0:0:0:
329,192,149192,128,0,149362:0:0:0:0:
182,192,149192,128,0,149362:0:0:0:0:
109,192,149276,1,0,0:0:0:0:
256,192,149447,1,0,0:0:0:0:
402,192,149532,1,0,0:0:0:0:
329,192,149533,128,0,149703:0:0:0:0:
182,192,149533,128,0,149704:0:0:0:0:
402,192,149703,1,0,0:0:0:0:
475,192,149703,1,0,0:0:0:0:
36,192,149703,1,0,0:0:0:0:
256,192,149873,1,0,0:0:0:0:
329,192,149873,128,0,150044:0:0:0:0:
182,192,149873,128,0,150044:0:0:0:0:
109,192,149958,1,0,0:0:0:0:
256,192,150129,1,0,0:0:0:0:
402,192,150214,1,0,0:0:0:0:
182,192,150214,128,0,150385:0:0:0:0:
329,192,150214,128,0,150385:0:0:0:0:
402,192,150385,1,0,0:0:0:0:
36,192,150385,1,0,0:0:0:0:
475,192,150385,1,0,0:0:0:0:
256,192,150555,1,0,0:0:0:0:
182,192,150555,128,0,150725:0:0:0:0:
329,192,150555,128,0,150725:0:0:0:0:
109,192,150640,1,0,0:0:0:0:
256,192,150811,1,0,0:0:0:0:
402,192,150896,1,0,0:0:0:0:
182,192,150896,128,0,151067:0:0:0:0:
329,192,150896,128,0,151066:0:0:0:0:
109,192,151067,1,0,0:0:0:0:
36,192,151067,1,0,0:0:0:0:
475,192,151237,1,0,0:0:0:0:
256,192,151237,1,0,0:0:0:0:
182,192,151237,128,0,151408:0:0:0:0:
329,192,151237,128,0,151408:0:0:0:0:
402,192,151322,1,0,0:0:0:0:
109,192,151407,1,0,0:0:0:0:
36,192,151407,1,0,0:0:0:0:
256,192,151577,1,0,0:0:0:0:
475,192,151578,1,0,0:0:0:0:
329,192,151578,128,0,151749:0:0:0:0:
182,192,151578,128,0,151749:0:0:0:0:
402,192,151662,1,0,0:0:0:0:
109,192,151748,1,0,0:0:0:0:
36,192,151748,1,0,0:0:0:0:
475,192,151834,1,0,0:0:0:0:
256,192,151918,1,0,0:0:0:0:
36,192,151919,1,0,0:0:0:0:
329,192,151919,128,0,152089:0:0:0:0:
182,192,151919,128,0,152089:0:0:0:0:
402,192,152003,1,0,0:0:0:0:
475,192,152005,1,0,0:0:0:0:
109,192,152089,1,0,0:0:0:0:
36,192,152089,1,0,0:0:0:0:
475,192,152175,1,0,0:0:0:0:
256,192,152259,1,0,0:0:0:0:
36,192,152260,1,0,0:0:0:0:
329,192,152260,128,0,152430:0:0:0:0:
182,192,152260,128,0,152431:0:0:0:0:
402,192,152345,1,0,0:0:0:0:
475,192,152345,1,0,0:0:0:0:
36,192,152430,1,0,0:0:0:0:
475,192,152430,1,0,0:0:0:0:
182,192,152601,128,0,152771:0:0:0:0:
329,192,152771,128,0,152942:0:0:0:0:
182,192,152942,128,0,153112:0:0:0:0:
475,192,153112,128,0,153282:0:0:0:0:
109,192,153282,1,0,0:0:0:0:
402,192,153368,128,0,153538:0:0:0:0:
109,192,153538,1,0,0:0:0:0:
329,192,153623,128,0,153794:0:0:0:0:
