osu file format v13

[General]
AudioFilename: 01 - You Make Me Crazy.mp3
AudioLeadIn: 0
PreviewTime: 65194
Countdown: 0
SampleSet: Normal
StackLeniency: 0.7
Mode: 3
LetterboxInBreaks: 0
SpecialStyle: 0
WidescreenStoryboard: 1

[Editor]
DistanceSpacing: 1
BeatDivisor: 4
GridSize: 8
TimelineZoom: 3.299999

[Metadata]
Title:You Make Me Crazy
TitleUnicode:You Make Me Crazy
Artist:ETIA.
ArtistUnicode:ETIA.
Creator:Remillion Cross
Version:Normal+
Source:
Tags:retroactive ep electronic hardcore digital perfomance lilium records takane6
BeatmapID:608151
BeatmapSetID:259213

[Difficulty]
HPDrainRate:6
CircleSize:7
OverallDifficulty:6
ApproachRate:9
SliderMultiplier:1.4
SliderTickRate:1

[Events]
//Background and Video events
0,0,"Crazy.jpg",0,0
//Break Periods
//Storyboard Layer 0 (Background)
//Storyboard Layer 1 (Fail)
//Storyboard Layer 2 (Pass)
//Storyboard Layer 3 (Foreground)
//Storyboard Sound Samples

[TimingPoints]
1104,340.909090909091,4,1,0,5,1,0
66558,-100,4,1,0,5,0,1
66643,-100,4,1,0,5,0,0
99285,-100,4,1,0,5,0,1
110535,-100,4,1,0,5,0,0
153831,-100,4,1,0,5,0,1
174285,-100,4,1,0,5,0,0
175649,-100,4,1,0,5,0,1
197808,-100,4,1,0,5,0,0

[HitObjects]
36,192,1104,5,0,0:0:0:0:
475,192,1104,1,0,0:0:0:0:
256,192,1274,1,0,0:0:0:0:
109,192,1444,1,0,0:0:0:0:
402,192,1444,1,0,0:0:0:0:
36,192,1785,1,0,0:0:0:0:
475,192,1785,1,0,0:0:0:0:
109,192,2126,1,0,0:0:0:0:
402,192,2126,1,0,0:0:0:0:
36,192,2467,1,0,0:0:0:0:
475,192,2467,1,0,0:0:0:0:
109,192,2808,1,0,0:0:0:0:
402,192,2808,1,0,0:0:0:0:
36,192,3149,1,0,0:0:0:0:
475,192,3149,1,0,0:0:0:0:
256,192,3319,128,0,3490:0:0:0:0:
36,192,3490,1,0,0:0:0:0:
475,192,3490,1,0,0:0:0:0:
182,192,3660,128,0,3831:0:0:0:0:
329,192,3831,1,0,0:0:0:0:
36,192,3831,1,0,0:0:0:0:
182,192,4172,1,0,0:0:0:0:
475,192,4172,1,0,0:0:0:0:
36,192,4513,1,0,0:0:0:0:
329,192,4513,1,0,0:0:0:0:
109,192,4854,1,0,0:0:0:0:
402,192,4854,1,0,0:0:0:0:
36,192,5194,1,0,0:0:0:0:
475,192,5194,1,0,0:0:0:0:
329,192,5194,128,0,5535:0:0:0:0:
182,192,5535,1,0,0:0:0:0:
256,192,5706,128,0,5876:0:0:0:0:
36,192,5876,1,0,0:0:0:0:
475,192,5876,1,0,0:0:0:0:
256,192,6047,128,0,6217:0:0:0:0:
36,192,6217,1,0,0:0:0:0:
475,192,6217,1,0,0:0:0:0:
256,192,6388,128,0,6558:0:0:0:0:
475,192,6558,1,0,0:0:0:0:
36,192,6558,1,0,0:0:0:0:
182,192,6729,1,0,0:0:0:0:
109,192,6899,1,0,0:0:0:0:
402,192,6899,1,0,0:0:0:0:
182,192,7240,1,0,0:0:0:0:
475,192,7240,1,0,0:0:0:0:
402,192,7581,1,0,0:0:0:0:
109,192,7581,1,0,0:0:0:0:
36,192,7922,1,0,0:0:0:0:
475,192,7922,1,0,0:0:0:0:
329,192,8092,128,0,8263:0:0:0:0:
36,192,8263,1,0,0:0:0:0:
256,192,8433,128,0,8604:0:0:0:0:
36,192,8604,1,0,0:0:0:0:
182,192,8774,128,0,8944:0:0:0:0:
36,192,8944,1,0,0:0:0:0:
475,192,8944,1,0,0:0:0:0:
182,192,9285,1,0,0:0:0:0:
36,192,9285,1,0,0:0:0:0:
329,192,9626,1,0,0:0:0:0:
475,192,9626,1,0,0:0:0:0:
109,192,9967,1,0,0:0:0:0:
402,192,9967,1,0,0:0:0:0:
36,192,10308,1,0,0:0:0:0:
475,192,10308,1,0,0:0:0:0:
182,192,10479,1,0,0:0:0:0:
36,192,10649,1,0,0:0:0:0:
329,192,10649,1,0,0:0:0:0:
475,192,10649,1,0,0:0:0:0:
402,192,10819,128,0,11331:0:0:0:0:
109,192,11501,128,0,12013:0:0:0:0:
36,192,12013,1,0,0:0:0:0:
256,192,12013,1,0,0:0:0:0:
475,192,12013,1,0,0:0:0:0:
36,192,12354,1,0,0:0:0:0:
475,192,12354,1,0,0:0:0:0:
329,192,12354,128,0,12694:0:0:0:0:
36,192,12694,1,0,0:0:0:0:
475,192,12694,1,0,0:0:0:0:
109,192,13035,1,0,0:0:0:0:
256,192,13035,1,0,0:0:0:0:
329,192,13035,128,0,13376:0:0:0:0:
109,192,13376,1,0,0:0:0:0:
256,192,13376,1,0,0:0:0:0:
36,192,13717,1,0,0:0:0:0:
475,192,13717,1,0,0:0:0:0:
402,192,13717,128,0,14058:0:0:0:0:
109,192,14058,1,0,0:0:0:0:
329,192,14058,1,0,0:0:0:0:
256,192,14229,128,0,14399:0:0:0:0:
36,192,14399,1,0,0:0:0:0:
475,192,14399,1,0,0:0:0:0:
402,192,14740,1,0,0:0:0:0:
36,192,14740,1,0,0:0:0:0:
109,192,15081,1,0,0:0:0:0:
329,192,15081,1,0,0:0:0:0:
402,192,15081,128,0,15422:0:0:0:0:
36,192,15422,1,0,0:0:0:0:
256,192,15422,1,0,0:0:0:0:
109,192,15763,1,0,0:0:0:0:
329,192,15763,1,0,0:0:0:0:
402,192,15763,128,0,16104:0:0:0:0:
109,192,16104,128,0,16444:0:0:0:0:
36,192,16104,1,0,0:0:0:0:
475,192,16104,1,0,0:0:0:0:
329,192,16444,1,0,0:0:0:0:
475,192,16444,1,0,0:0:0:0:
36,192,16615,128,0,16785:0:0:0:0:
402,192,16785,1,0,0:0:0:0:
256,192,16956,128,0,17126:0:0:0:0:
475,192,17126,1,0,0:0:0:0:
329,192,17126,1,0,0:0:0:0:
256,192,17297,128,0,17467:0:0:0:0:
182,192,17467,1,0,0:0:0:0:
36,192,17467,1,0,0:0:0:0:
256,192,17638,1,0,0:0:0:0:
109,192,17808,1,0,0:0:0:0:
329,192,17808,1,0,0:0:0:0:
402,192,17808,128,0,18149:0:0:0:0:
36,192,18149,1,0,0:0:0:0:
256,192,18149,1,0,0:0:0:0:
109,192,18490,1,0,0:0:0:0:
329,192,18490,1,0,0:0:0:0:
402,192,18490,128,0,18831:0:0:0:0:
36,192,18831,1,0,0:0:0:0:
475,192,18831,1,0,0:0:0:0:
329,192,19001,128,0,19172:0:0:0:0:
109,192,19172,1,0,0:0:0:0:
256,192,19342,128,0,19513:0:0:0:0:
36,192,19513,1,0,0:0:0:0:
182,192,19683,128,0,19854:0:0:0:0:
329,192,19854,1,0,0:0:0:0:
475,192,19854,1,0,0:0:0:0:
36,192,19854,1,0,0:0:0:0:
36,192,20194,1,0,0:0:0:0:
475,192,20194,1,0,0:0:0:0:
36,192,20535,1,0,0:0:0:0:
475,192,20535,1,0,0:0:0:0:
182,192,20706,1,0,0:0:0:0:
475,192,20876,1,0,0:0:0:0:
36,192,20876,1,0,0:0:0:0:
256,192,20876,128,0,21388:0:0:0:0:
36,192,21558,1,0,0:0:0:0:
475,192,21558,1,0,0:0:0:0:
256,192,21558,128,0,22240:0:0:0:0:
36,192,22410,1,0,0:0:0:0:
475,192,22410,1,0,0:0:0:0:
36,192,22581,1,0,0:0:0:0:
475,192,22581,1,0,0:0:0:0:
36,192,22922,1,0,0:0:0:0:
475,192,22922,1,0,0:0:0:0:
256,192,22922,1,0,0:0:0:0:
182,192,23092,128,0,23263:0:0:0:0:
329,192,23263,1,0,0:0:0:0:
182,192,23433,128,0,23604:0:0:0:0:
402,192,23604,1,0,0:0:0:0:
182,192,23774,128,0,23944:0:0:0:0:
475,192,23944,1,0,0:0:0:0:
182,192,24115,128,0,24285:0:0:0:0:
402,192,24285,1,0,0:0:0:0:
182,192,24456,128,0,24626:0:0:0:0:
329,192,24626,1,0,0:0:0:0:
182,192,24797,128,0,24967:0:0:0:0:
402,192,24967,1,0,0:0:0:0:
182,192,25138,128,0,25308:0:0:0:0:
475,192,25308,1,0,0:0:0:0:
36,192,25308,1,0,0:0:0:0:
329,192,25308,1,0,0:0:0:0:
36,192,25649,1,0,0:0:0:0:
475,192,25649,1,0,0:0:0:0:
329,192,25819,128,0,25990:0:0:0:0:
109,192,25990,1,0,0:0:0:0:
329,192,26160,128,0,26331:0:0:0:0:
182,192,26331,1,0,0:0:0:0:
329,192,26501,128,0,26672:0:0:0:0:
256,192,26672,1,0,0:0:0:0:
329,192,26842,128,0,27013:0:0:0:0:
182,192,27013,1,0,0:0:0:0:
329,192,27183,128,0,27354:0:0:0:0:
109,192,27354,1,0,0:0:0:0:
329,192,27524,128,0,27694:0:0:0:0:
36,192,27694,1,0,0:0:0:0:
475,192,27694,1,0,0:0:0:0:
402,192,27865,1,0,0:0:0:0:
256,192,27950,1,0,0:0:0:0:
109,192,28035,1,0,0:0:0:0:
256,192,28206,128,0,28376:0:0:0:0:
36,192,28376,1,0,0:0:0:0:
182,192,28376,1,0,0:0:0:0:
475,192,28547,128,0,28717:0:0:0:0:
256,192,28717,1,0,0:0:0:0:
475,192,28888,128,0,29058:0:0:0:0:
329,192,29058,1,0,0:0:0:0:
475,192,29229,128,0,29399:0:0:0:0:
256,192,29399,1,0,0:0:0:0:
475,192,29569,128,0,29740:0:0:0:0:
109,192,29740,1,0,0:0:0:0:
475,192,29910,128,0,30081:0:0:0:0:
182,192,30081,1,0,0:0:0:0:
475,192,30251,128,0,30422:0:0:0:0:
256,192,30422,1,0,0:0:0:0:
475,192,30592,128,0,30763:0:0:0:0:
329,192,30763,1,0,0:0:0:0:
36,192,30763,1,0,0:0:0:0:
36,192,31104,1,0,0:0:0:0:
475,192,31104,1,0,0:0:0:0:
256,192,31274,128,0,31444:0:0:0:0:
36,192,31444,1,0,0:0:0:0:
256,192,31615,128,0,31785:0:0:0:0:
475,192,31785,1,0,0:0:0:0:
256,192,31956,128,0,32126:0:0:0:0:
36,192,32126,1,0,0:0:0:0:
256,192,32297,128,0,32467:0:0:0:0:
475,192,32467,1,0,0:0:0:0:
36,192,32467,1,0,0:0:0:0:
402,192,32638,128,0,33149:0:0:0:0:
36,192,33149,1,0,0:0:0:0:
475,192,33149,1,0,0:0:0:0:
182,192,33149,1,0,0:0:0:0:
256,192,33319,128,0,33831:0:0:0:0:
36,192,33831,1,0,0:0:0:0:
475,192,33831,1,0,0:0:0:0:
36,192,34172,1,0,0:0:0:0:
475,192,34172,1,0,0:0:0:0:
36,192,34513,1,0,0:0:0:0:
475,192,34513,1,0,0:0:0:0:
475,192,34854,1,0,0:0:0:0:
36,192,34854,1,0,0:0:0:0:
36,192,35194,1,0,0:0:0:0:
475,192,35194,1,0,0:0:0:0:
475,192,35535,1,0,0:0:0:0:
36,192,35535,1,0,0:0:0:0:
36,192,35876,1,0,0:0:0:0:
475,192,35876,1,0,0:0:0:0:
36,192,36217,1,0,0:0:0:0:
475,192,36217,1,0,0:0:0:0:
109,192,36558,1,0,0:0:0:0:
402,192,36558,1,0,0:0:0:0:
109,192,36899,1,0,0:0:0:0:
402,192,36899,1,0,0:0:0:0:
109,192,37240,1,0,0:0:0:0:
402,192,37240,1,0,0:0:0:0:
109,192,37581,1,0,0:0:0:0:
402,192,37581,1,0,0:0:0:0:
109,192,37922,1,0,0:0:0:0:
402,192,37922,1,0,0:0:0:0:
109,192,38263,1,0,0:0:0:0:
402,192,38263,1,0,0:0:0:0:
109,192,38604,1,0,0:0:0:0:
402,192,38604,1,0,0:0:0:0:
109,192,38944,1,0,0:0:0:0:
402,192,38944,1,0,0:0:0:0:
36,192,39285,1,0,0:0:0:0:
475,192,39285,1,0,0:0:0:0:
182,192,39456,1,0,0:0:0:0:
329,192,39626,1,0,0:0:0:0:
182,192,39797,1,0,0:0:0:0:
36,192,39967,1,0,0:0:0:0:
475,192,39967,1,0,0:0:0:0:
182,192,40138,1,0,0:0:0:0:
329,192,40223,1,0,0:0:0:0:
182,192,40393,1,0,0:0:0:0:
329,192,40479,1,0,0:0:0:0:
36,192,40649,1,0,0:0:0:0:
475,192,40649,1,0,0:0:0:0:
329,192,40819,1,0,0:0:0:0:
182,192,40990,1,0,0:0:0:0:
329,192,41160,1,0,0:0:0:0:
36,192,41331,1,0,0:0:0:0:
475,192,41331,1,0,0:0:0:0:
329,192,41501,1,0,0:0:0:0:
182,192,41586,1,0,0:0:0:0:
329,192,41757,1,0,0:0:0:0:
182,192,41842,1,0,0:0:0:0:
36,192,42013,1,0,0:0:0:0:
475,192,42013,1,0,0:0:0:0:
329,192,42183,1,0,0:0:0:0:
109,192,42354,1,0,0:0:0:0:
402,192,42354,1,0,0:0:0:0:
256,192,42694,128,0,43376:0:0:0:0:
36,192,43376,1,0,0:0:0:0:
475,192,43376,1,0,0:0:0:0:
329,192,43547,128,0,44058:0:0:0:0:
182,192,44229,128,0,44740:0:0:0:0:
36,192,44740,1,0,0:0:0:0:
475,192,44740,1,0,0:0:0:0:
329,192,44740,1,0,0:0:0:0:
256,192,47467,128,0,50194:0:0:0:0:
402,192,50194,128,0,51729:0:0:0:0:
256,192,51729,128,0,52410:0:0:0:0:
109,192,52410,128,0,52922:0:0:0:0:
475,192,52922,128,0,54285:0:0:0:0:
329,192,54285,128,0,54967:0:0:0:0:
182,192,54967,128,0,55649:0:0:0:0:
36,192,55649,1,0,0:0:0:0:
475,192,55649,1,0,0:0:0:0:
475,192,55990,1,0,0:0:0:0:
36,192,55990,1,0,0:0:0:0:
36,192,56331,1,0,0:0:0:0:
475,192,56331,1,0,0:0:0:0:
36,192,56672,1,0,0:0:0:0:
475,192,56672,1,0,0:0:0:0:
109,192,57013,1,0,0:0:0:0:
402,192,57013,1,0,0:0:0:0:
109,192,57354,1,0,0:0:0:0:
402,192,57354,1,0,0:0:0:0:
109,192,57694,1,0,0:0:0:0:
402,192,57694,1,0,0:0:0:0:
109,192,58035,1,0,0:0:0:0:
402,192,58035,1,0,0:0:0:0:
182,192,58376,1,0,0:0:0:0:
329,192,58376,1,0,0:0:0:0:
182,192,58717,1,0,0:0:0:0:
329,192,58717,1,0,0:0:0:0:
182,192,59058,1,0,0:0:0:0:
329,192,59058,1,0,0:0:0:0:
182,192,59399,1,0,0:0:0:0:
329,192,59399,1,0,0:0:0:0:
109,192,59740,1,0,0:0:0:0:
402,192,59740,1,0,0:0:0:0:
109,192,60081,1,0,0:0:0:0:
402,192,60081,1,0,0:0:0:0:
36,192,60422,1,0,0:0:0:0:
475,192,60422,1,0,0:0:0:0:
36,192,60763,1,0,0:0:0:0:
475,192,60763,1,0,0:0:0:0:
36,192,61104,1,0,0:0:0:0:
475,192,61104,1,0,0:0:0:0:
256,192,61274,1,0,0:0:0:0:
109,192,61444,1,0,0:0:0:0:
402,192,61615,1,0,0:0:0:0:
36,192,61785,1,0,0:0:0:0:
475,192,61785,1,0,0:0:0:0:
182,192,61956,1,0,0:0:0:0:
329,192,62041,1,0,0:0:0:0:
182,192,62211,1,0,0:0:0:0:
329,192,62297,1,0,0:0:0:0:
36,192,62467,1,0,0:0:0:0:
475,192,62467,1,0,0:0:0:0:
182,192,62638,1,0,0:0:0:0:
256,192,62808,1,0,0:0:0:0:
329,192,62979,1,0,0:0:0:0:
36,192,63149,1,0,0:0:0:0:
475,192,63149,1,0,0:0:0:0:
329,192,63319,1,0,0:0:0:0:
182,192,63405,1,0,0:0:0:0:
329,192,63575,1,0,0:0:0:0:
182,192,63660,1,0,0:0:0:0:
36,192,63831,1,0,0:0:0:0:
475,192,63831,1,0,0:0:0:0:
36,192,64172,1,0,0:0:0:0:
475,192,64172,1,0,0:0:0:0:
36,192,64513,1,0,0:0:0:0:
475,192,64513,1,0,0:0:0:0:
256,192,64513,128,0,65194:0:0:0:0:
36,192,65194,1,0,0:0:0:0:
475,192,65194,1,0,0:0:0:0:
256,192,66217,128,0,66558:0:0:0:0:
36,192,66558,1,0,0:0:0:0:
475,192,66558,1,0,0:0:0:0:
109,192,67069,1,0,0:0:0:0:
402,192,67069,1,0,0:0:0:0:
182,192,67581,1,0,0:0:0:0:
329,192,67581,1,0,0:0:0:0:
109,192,68092,1,0,0:0:0:0:
402,192,68092,1,0,0:0:0:0:
36,192,68604,1,0,0:0:0:0:
256,192,68604,1,0,0:0:0:0:
475,192,68604,1,0,0:0:0:0:
182,192,68944,1,0,0:0:0:0:
329,192,68944,1,0,0:0:0:0:
109,192,69115,1,0,0:0:0:0:
402,192,69115,1,0,0:0:0:0:
256,192,69115,1,0,0:0:0:0:
182,192,69285,1,0,0:0:0:0:
329,192,69285,1,0,0:0:0:0:
109,192,69797,1,0,0:0:0:0:
402,192,69797,1,0,0:0:0:0:
36,192,70308,1,0,0:0:0:0:
475,192,70308,1,0,0:0:0:0:
182,192,70819,1,0,0:0:0:0:
329,192,70819,1,0,0:0:0:0:
109,192,71160,1,0,0:0:0:0:
256,192,71246,1,0,0:0:0:0:
36,192,71331,1,0,0:0:0:0:
475,192,71331,1,0,0:0:0:0:
182,192,71501,1,0,0:0:0:0:
329,192,71501,1,0,0:0:0:0:
329,192,71672,1,0,0:0:0:0:
182,192,71672,1,0,0:0:0:0:
109,192,71842,1,0,0:0:0:0:
402,192,71842,1,0,0:0:0:0:
182,192,72013,1,0,0:0:0:0:
329,192,72013,1,0,0:0:0:0:
109,192,72524,1,0,0:0:0:0:
402,192,72524,1,0,0:0:0:0:
36,192,73035,1,0,0:0:0:0:
475,192,73035,1,0,0:0:0:0:
109,192,73547,1,0,0:0:0:0:
402,192,73547,1,0,0:0:0:0:
36,192,74058,1,0,0:0:0:0:
256,192,74058,1,0,0:0:0:0:
475,192,74058,1,0,0:0:0:0:
256,192,74229,128,0,74569:0:0:0:0:
36,192,74740,1,0,0:0:0:0:
475,192,74740,1,0,0:0:0:0:
182,192,75251,1,0,0:0:0:0:
329,192,75251,1,0,0:0:0:0:
36,192,75422,1,0,0:0:0:0:
475,192,75422,1,0,0:0:0:0:
36,192,75763,1,0,0:0:0:0:
475,192,75763,1,0,0:0:0:0:
402,192,76104,128,0,76444:0:0:0:0:
109,192,76274,1,0,0:0:0:0:
182,192,76274,1,0,0:0:0:0:
109,192,76615,128,0,76956:0:0:0:0:
329,192,76785,1,0,0:0:0:0:
402,192,76785,1,0,0:0:0:0:
256,192,76956,1,0,0:0:0:0:
256,192,77297,1,0,0:0:0:0:
36,192,77467,1,0,0:0:0:0:
475,192,77467,1,0,0:0:0:0:
329,192,77467,1,0,0:0:0:0:
402,192,77979,1,0,0:0:0:0:
256,192,77979,1,0,0:0:0:0:
329,192,78490,1,0,0:0:0:0:
182,192,78490,1,0,0:0:0:0:
109,192,79001,1,0,0:0:0:0:
256,192,79001,1,0,0:0:0:0:
36,192,79513,1,0,0:0:0:0:
182,192,79513,1,0,0:0:0:0:
475,192,79513,1,0,0:0:0:0:
36,192,80194,1,0,0:0:0:0:
182,192,80194,1,0,0:0:0:0:
109,192,80706,1,0,0:0:0:0:
256,192,80706,1,0,0:0:0:0:
182,192,81217,1,0,0:0:0:0:
329,192,81217,1,0,0:0:0:0:
256,192,81729,1,0,0:0:0:0:
402,192,81729,1,0,0:0:0:0:
36,192,82069,1,0,0:0:0:0:
182,192,82155,1,0,0:0:0:0:
329,192,82240,1,0,0:0:0:0:
475,192,82240,1,0,0:0:0:0:
256,192,82410,1,0,0:0:0:0:
36,192,82581,1,0,0:0:0:0:
182,192,82666,1,0,0:0:0:0:
329,192,82751,1,0,0:0:0:0:
475,192,82751,1,0,0:0:0:0:
36,192,82922,1,0,0:0:0:0:
182,192,82922,1,0,0:0:0:0:
329,192,83433,1,0,0:0:0:0:
475,192,83433,1,0,0:0:0:0:
36,192,83944,1,0,0:0:0:0:
182,192,83944,1,0,0:0:0:0:
329,192,84456,1,0,0:0:0:0:
475,192,84456,1,0,0:0:0:0:
109,192,84967,1,0,0:0:0:0:
256,192,84967,1,0,0:0:0:0:
402,192,84967,1,0,0:0:0:0:
182,192,85138,1,0,0:0:0:0:
329,192,85308,1,0,0:0:0:0:
475,192,85308,1,0,0:0:0:0:
182,192,85479,1,0,0:0:0:0:
36,192,85479,1,0,0:0:0:0:
402,192,85649,128,0,86160:0:0:0:0:
256,192,85649,1,0,0:0:0:0:
182,192,86160,128,0,86672:0:0:0:0:
475,192,86331,1,0,0:0:0:0:
36,192,86331,1,0,0:0:0:0:
402,192,86672,128,0,87183:0:0:0:0:
36,192,87013,1,0,0:0:0:0:
256,192,87183,128,0,87694:0:0:0:0:
36,192,87268,1,0,0:0:0:0:
36,192,87524,1,0,0:0:0:0:
36,192,87694,1,0,0:0:0:0:
475,192,87694,1,0,0:0:0:0:
182,192,87865,1,0,0:0:0:0:
256,192,88035,1,0,0:0:0:0:
329,192,88206,1,0,0:0:0:0:
475,192,88376,1,0,0:0:0:0:
36,192,88376,1,0,0:0:0:0:
182,192,88376,1,0,0:0:0:0:
109,192,89058,128,0,89740:0:0:0:0:
182,192,89740,128,0,90422:0:0:0:0:
329,192,90422,128,0,91104:0:0:0:0:
402,192,91104,128,0,92467:0:0:0:0:
109,192,92467,128,0,93831:0:0:0:0:
36,192,93831,1,0,0:0:0:0:
475,192,93831,1,0,0:0:0:0:
329,192,94001,1,0,0:0:0:0:
182,192,94172,1,0,0:0:0:0:
329,192,94342,1,0,0:0:0:0:
36,192,94513,1,0,0:0:0:0:
475,192,94513,1,0,0:0:0:0:
329,192,94768,1,0,0:0:0:0:
182,192,94768,1,0,0:0:0:0:
329,192,95024,1,0,0:0:0:0:
182,192,95024,1,0,0:0:0:0:
36,192,95194,1,0,0:0:0:0:
475,192,95194,1,0,0:0:0:0:
182,192,95365,1,0,0:0:0:0:
329,192,95535,1,0,0:0:0:0:
182,192,95706,1,0,0:0:0:0:
36,192,95876,1,0,0:0:0:0:
475,192,95876,1,0,0:0:0:0:
256,192,96132,1,0,0:0:0:0:
182,192,96132,1,0,0:0:0:0:
182,192,96388,1,0,0:0:0:0:
256,192,96388,1,0,0:0:0:0:
36,192,96558,1,0,0:0:0:0:
475,192,96558,1,0,0:0:0:0:
182,192,96729,1,0,0:0:0:0:
36,192,96899,1,0,0:0:0:0:
475,192,96899,1,0,0:0:0:0:
36,192,97240,1,0,0:0:0:0:
475,192,97240,1,0,0:0:0:0:
36,192,97496,1,0,0:0:0:0:
475,192,97496,1,0,0:0:0:0:
36,192,97751,1,0,0:0:0:0:
475,192,97751,1,0,0:0:0:0:
36,192,97922,1,0,0:0:0:0:
475,192,97922,1,0,0:0:0:0:
329,192,97922,1,0,0:0:0:0:
402,192,98092,128,0,98348:0:0:0:0:
329,192,98348,128,0,98604:0:0:0:0:
182,192,98604,128,0,98859:0:0:0:0:
109,192,98859,128,0,99115:0:0:0:0:
256,192,99115,128,0,99285:0:0:0:0:
36,192,99285,1,0,0:0:0:0:
475,192,99285,1,0,0:0:0:0:
109,192,99626,1,0,0:0:0:0:
402,192,99626,1,0,0:0:0:0:
36,192,99967,1,0,0:0:0:0:
475,192,99967,1,0,0:0:0:0:
109,192,100223,1,0,0:0:0:0:
402,192,100223,1,0,0:0:0:0:
182,192,100479,1,0,0:0:0:0:
329,192,100479,1,0,0:0:0:0:
36,192,100649,1,0,0:0:0:0:
475,192,100649,1,0,0:0:0:0:
182,192,100819,1,0,0:0:0:0:
402,192,101075,1,0,0:0:0:0:
109,192,101331,1,0,0:0:0:0:
182,192,101586,1,0,0:0:0:0:
256,192,101842,1,0,0:0:0:0:
475,192,102013,1,0,0:0:0:0:
36,192,102013,1,0,0:0:0:0:
182,192,102183,1,0,0:0:0:0:
475,192,102354,1,0,0:0:0:0:
329,192,102354,1,0,0:0:0:0:
36,192,102694,1,0,0:0:0:0:
475,192,102694,1,0,0:0:0:0:
402,192,102950,1,0,0:0:0:0:
109,192,102950,1,0,0:0:0:0:
182,192,103206,1,0,0:0:0:0:
329,192,103206,1,0,0:0:0:0:
36,192,103376,1,0,0:0:0:0:
475,192,103376,1,0,0:0:0:0:
182,192,103547,1,0,0:0:0:0:
256,192,103802,1,0,0:0:0:0:
329,192,104058,1,0,0:0:0:0:
256,192,104314,1,0,0:0:0:0:
182,192,104569,1,0,0:0:0:0:
36,192,104740,1,0,0:0:0:0:
475,192,104740,1,0,0:0:0:0:
329,192,104910,1,0,0:0:0:0:
182,192,105081,1,0,0:0:0:0:
36,192,105081,1,0,0:0:0:0:
475,192,105422,1,0,0:0:0:0:
109,192,105422,1,0,0:0:0:0:
402,192,105677,1,0,0:0:0:0:
36,192,105677,1,0,0:0:0:0:
109,192,105933,1,0,0:0:0:0:
475,192,105933,1,0,0:0:0:0:
36,192,106104,1,0,0:0:0:0:
256,192,106104,1,0,0:0:0:0:
475,192,106274,1,0,0:0:0:0:
402,192,106530,1,0,0:0:0:0:
329,192,106785,1,0,0:0:0:0:
256,192,107041,1,0,0:0:0:0:
182,192,107297,1,0,0:0:0:0:
36,192,107467,1,0,0:0:0:0:
475,192,107467,1,0,0:0:0:0:
256,192,107638,1,0,0:0:0:0:
109,192,107808,1,0,0:0:0:0:
402,192,107808,1,0,0:0:0:0:
475,192,108149,1,0,0:0:0:0:
36,192,108149,1,0,0:0:0:0:
109,192,108405,1,0,0:0:0:0:
402,192,108405,1,0,0:0:0:0:
182,192,108660,1,0,0:0:0:0:
329,192,108660,1,0,0:0:0:0:
36,192,108831,1,0,0:0:0:0:
475,192,108831,1,0,0:0:0:0:
182,192,109001,1,0,0:0:0:0:
329,192,109257,1,0,0:0:0:0:
475,192,109513,1,0,0:0:0:0:
329,192,109768,1,0,0:0:0:0:
182,192,110024,1,0,0:0:0:0:
36,192,110194,1,0,0:0:0:0:
475,192,110194,1,0,0:0:0:0:
182,192,110365,1,0,0:0:0:0:
109,192,110535,1,0,0:0:0:0:
329,192,110535,1,0,0:0:0:0:
475,192,110535,1,0,0:0:0:0:
36,192,110706,128,0,110876:0:0:0:0:
329,192,110876,1,0,0:0:0:0:
36,192,111047,128,0,111217:0:0:0:0:
402,192,111217,1,0,0:0:0:0:
36,192,111388,128,0,111558:0:0:0:0:
475,192,111558,1,0,0:0:0:0:
36,192,111729,128,0,111899:0:0:0:0:
402,192,111899,1,0,0:0:0:0:
36,192,112069,128,0,112240:0:0:0:0:
329,192,112240,1,0,0:0:0:0:
36,192,112410,128,0,112581:0:0:0:0:
256,192,112581,1,0,0:0:0:0:
36,192,112751,128,0,112922:0:0:0:0:
182,192,112922,1,0,0:0:0:0:
36,192,113092,128,0,113263:0:0:0:0:
256,192,113263,1,0,0:0:0:0:
36,192,113433,128,0,113604:0:0:0:0:
402,192,113604,1,0,0:0:0:0:
36,192,113774,128,0,113944:0:0:0:0:
475,192,113944,1,0,0:0:0:0:
36,192,114115,128,0,114285:0:0:0:0:
402,192,114285,1,0,0:0:0:0:
36,192,114456,128,0,114626:0:0:0:0:
475,192,114626,1,0,0:0:0:0:
36,192,114797,128,0,114967:0:0:0:0:
402,192,114967,1,0,0:0:0:0:
475,192,115138,128,0,115308:0:0:0:0:
182,192,115308,1,0,0:0:0:0:
36,192,115308,1,0,0:0:0:0:
475,192,115479,128,0,115649:0:0:0:0:
36,192,115649,1,0,0:0:0:0:
182,192,115649,1,0,0:0:0:0:
36,192,115819,128,0,115990:0:0:0:0:
329,192,115819,1,0,0:0:0:0:
475,192,115990,1,0,0:0:0:0:
36,192,116160,128,0,116331:0:0:0:0:
402,192,116331,1,0,0:0:0:0:
36,192,116501,128,0,116672:0:0:0:0:
475,192,116672,1,0,0:0:0:0:
36,192,116842,128,0,117013:0:0:0:0:
402,192,117013,1,0,0:0:0:0:
36,192,117183,128,0,117354:0:0:0:0:
329,192,117354,1,0,0:0:0:0:
36,192,117524,128,0,117694:0:0:0:0:
402,192,117694,1,0,0:0:0:0:
36,192,117865,128,0,118035:0:0:0:0:
329,192,118035,1,0,0:0:0:0:
36,192,118206,128,0,118376:0:0:0:0:
475,192,118376,1,0,0:0:0:0:
36,192,118547,128,0,118717:0:0:0:0:
402,192,118717,1,0,0:0:0:0:
36,192,118888,128,0,119058:0:0:0:0:
475,192,119058,1,0,0:0:0:0:
36,192,119229,128,0,119399:0:0:0:0:
475,192,119399,1,0,0:0:0:0:
36,192,119569,128,0,119740:0:0:0:0:
256,192,119740,1,0,0:0:0:0:
402,192,119740,1,0,0:0:0:0:
182,192,120081,1,0,0:0:0:0:
329,192,120081,1,0,0:0:0:0:
256,192,120422,1,0,0:0:0:0:
109,192,120422,1,0,0:0:0:0:
182,192,120763,1,0,0:0:0:0:
36,192,120763,1,0,0:0:0:0:
36,192,121104,1,0,0:0:0:0:
256,192,121104,1,0,0:0:0:0:
475,192,121104,1,0,0:0:0:0:
109,192,121274,128,0,121444:0:0:0:0:
329,192,121444,1,0,0:0:0:0:
109,192,121615,128,0,121785:0:0:0:0:
329,192,121785,1,0,0:0:0:0:
109,192,121956,128,0,122126:0:0:0:0:
329,192,122126,1,0,0:0:0:0:
109,192,122297,128,0,122467:0:0:0:0:
329,192,122467,1,0,0:0:0:0:
109,192,122638,128,0,122808:0:0:0:0:
329,192,122808,1,0,0:0:0:0:
109,192,122979,128,0,123149:0:0:0:0:
329,192,123149,1,0,0:0:0:0:
109,192,123319,128,0,123490:0:0:0:0:
402,192,123319,128,0,123490:0:0:0:0:
475,192,123490,1,0,0:0:0:0:
36,192,123490,1,0,0:0:0:0:
182,192,123660,1,0,0:0:0:0:
256,192,123746,1,0,0:0:0:0:
329,192,123831,1,0,0:0:0:0:
109,192,124001,128,0,124172:0:0:0:0:
402,192,124172,1,0,0:0:0:0:
109,192,124342,128,0,124513:0:0:0:0:
475,192,124513,1,0,0:0:0:0:
109,192,124683,128,0,124854:0:0:0:0:
402,192,124854,1,0,0:0:0:0:
109,192,125024,128,0,125194:0:0:0:0:
402,192,125194,128,0,125535:0:0:0:0:
36,192,125194,1,0,0:0:0:0:
475,192,125194,1,0,0:0:0:0:
109,192,125535,1,0,0:0:0:0:
329,192,125706,1,0,0:0:0:0:
256,192,125791,1,0,0:0:0:0:
182,192,125876,1,0,0:0:0:0:
256,192,126047,128,0,126217:0:0:0:0:
475,192,126217,1,0,0:0:0:0:
36,192,126217,1,0,0:0:0:0:
256,192,126388,128,0,126558:0:0:0:0:
36,192,126558,1,0,0:0:0:0:
475,192,126558,1,0,0:0:0:0:
256,192,126899,1,0,0:0:0:0:
475,192,126899,1,0,0:0:0:0:
182,192,127240,1,0,0:0:0:0:
402,192,127240,1,0,0:0:0:0:
109,192,127581,1,0,0:0:0:0:
329,192,127581,1,0,0:0:0:0:
36,192,127922,1,0,0:0:0:0:
475,192,127922,1,0,0:0:0:0:
402,192,128092,128,0,128263:0:0:0:0:
36,192,128263,1,0,0:0:0:0:
256,192,128433,128,0,128604:0:0:0:0:
475,192,128604,1,0,0:0:0:0:
109,192,128774,128,0,128944:0:0:0:0:
402,192,128944,1,0,0:0:0:0:
256,192,128944,1,0,0:0:0:0:
36,192,129285,1,0,0:0:0:0:
475,192,129285,1,0,0:0:0:0:
109,192,129456,1,0,0:0:0:0:
402,192,129456,1,0,0:0:0:0:
182,192,129626,1,0,0:0:0:0:
329,192,129626,1,0,0:0:0:0:
36,192,129797,1,0,0:0:0:0:
475,192,129797,1,0,0:0:0:0:
109,192,129967,1,0,0:0:0:0:
402,192,129967,1,0,0:0:0:0:
256,192,129967,128,0,130479:0:0:0:0:
256,192,130649,128,0,131331:0:0:0:0:
36,192,131501,1,0,0:0:0:0:
475,192,131501,1,0,0:0:0:0:
36,192,131672,1,0,0:0:0:0:
475,192,131672,1,0,0:0:0:0:
36,192,132013,1,0,0:0:0:0:
475,192,132013,1,0,0:0:0:0:
256,192,132013,1,0,0:0:0:0:
36,192,132694,1,0,0:0:0:0:
182,192,133376,1,0,0:0:0:0:
329,192,134058,1,0,0:0:0:0:
475,192,134740,128,0,137467:0:0:0:0:
36,192,137467,128,0,138831:0:0:0:0:
475,192,138831,128,0,140194:0:0:0:0:
329,192,140194,128,0,141558:0:0:0:0:
36,192,141558,1,0,0:0:0:0:
475,192,141558,1,0,0:0:0:0:
182,192,141558,1,0,0:0:0:0:
475,192,142240,1,0,0:0:0:0:
36,192,142410,1,0,0:0:0:0:
475,192,142581,1,0,0:0:0:0:
402,192,142666,1,0,0:0:0:0:
329,192,142751,1,0,0:0:0:0:
36,192,142922,1,0,0:0:0:0:
475,192,142922,1,0,0:0:0:0:
36,192,143263,1,0,0:0:0:0:
475,192,143263,1,0,0:0:0:0:
36,192,143604,1,0,0:0:0:0:
475,192,143604,1,0,0:0:0:0:
109,192,143859,1,0,0:0:0:0:
402,192,143859,1,0,0:0:0:0:
182,192,144115,1,0,0:0:0:0:
329,192,144115,1,0,0:0:0:0:
475,192,144285,1,0,0:0:0:0:
36,192,144285,1,0,0:0:0:0:
36,192,144626,1,0,0:0:0:0:
475,192,144626,1,0,0:0:0:0:
475,192,144967,1,0,0:0:0:0:
36,192,144967,1,0,0:0:0:0:
109,192,145308,1,0,0:0:0:0:
402,192,145308,1,0,0:0:0:0:
402,192,145479,1,0,0:0:0:0:
109,192,145479,1,0,0:0:0:0:
36,192,145649,1,0,0:0:0:0:
475,192,145649,1,0,0:0:0:0:
256,192,145649,1,0,0:0:0:0:
36,192,145990,1,0,0:0:0:0:
475,192,145990,1,0,0:0:0:0:
36,192,146331,1,0,0:0:0:0:
475,192,146331,1,0,0:0:0:0:
109,192,146586,1,0,0:0:0:0:
402,192,146586,1,0,0:0:0:0:
182,192,146842,1,0,0:0:0:0:
329,192,146842,1,0,0:0:0:0:
36,192,147013,1,0,0:0:0:0:
475,192,147013,1,0,0:0:0:0:
36,192,147354,1,0,0:0:0:0:
475,192,147354,1,0,0:0:0:0:
36,192,147694,1,0,0:0:0:0:
475,192,147694,1,0,0:0:0:0:
109,192,147865,1,0,0:0:0:0:
402,192,147865,1,0,0:0:0:0:
182,192,148035,1,0,0:0:0:0:
329,192,148035,1,0,0:0:0:0:
256,192,148206,128,0,148376:0:0:0:0:
36,192,148376,1,0,0:0:0:0:
475,192,148376,1,0,0:0:0:0:
329,192,148632,1,0,0:0:0:0:
182,192,148888,1,0,0:0:0:0:
36,192,149058,1,0,0:0:0:0:
475,192,149058,1,0,0:0:0:0:
329,192,149314,1,0,0:0:0:0:
182,192,149569,1,0,0:0:0:0:
36,192,149740,1,0,0:0:0:0:
475,192,149740,1,0,0:0:0:0:
182,192,149996,1,0,0:0:0:0:
329,192,150251,1,0,0:0:0:0:
36,192,150422,1,0,0:0:0:0:
475,192,150422,1,0,0:0:0:0:
182,192,150677,1,0,0:0:0:0:
329,192,150933,1,0,0:0:0:0:
36,192,151104,1,0,0:0:0:0:
109,192,151104,1,0,0:0:0:0:
402,192,151274,1,0,0:0:0:0:
475,192,151274,1,0,0:0:0:0:
36,192,151444,1,0,0:0:0:0:
109,192,151444,1,0,0:0:0:0:
402,192,151615,1,0,0:0:0:0:
475,192,151615,1,0,0:0:0:0:
36,192,151785,1,0,0:0:0:0:
256,192,151785,128,0,152467:0:0:0:0:
475,192,151785,1,0,0:0:0:0:
36,192,152467,1,0,0:0:0:0:
475,192,152467,1,0,0:0:0:0:
36,192,153831,1,0,0:0:0:0:
182,192,153831,1,0,0:0:0:0:
475,192,153831,1,0,0:0:0:0:
256,192,154001,1,0,0:0:0:0:
402,192,154172,1,0,0:0:0:0:
109,192,154172,1,0,0:0:0:0:
36,192,154513,1,0,0:0:0:0:
182,192,154513,1,0,0:0:0:0:
109,192,154768,1,0,0:0:0:0:
256,192,154768,1,0,0:0:0:0:
182,192,155024,1,0,0:0:0:0:
329,192,155024,1,0,0:0:0:0:
182,192,155365,1,0,0:0:0:0:
329,192,155365,1,0,0:0:0:0:
256,192,155621,1,0,0:0:0:0:
402,192,155621,1,0,0:0:0:0:
329,192,155876,1,0,0:0:0:0:
475,192,155876,1,0,0:0:0:0:
402,192,156132,1,0,0:0:0:0:
256,192,156132,1,0,0:0:0:0:
329,192,156388,1,0,0:0:0:0:
182,192,156388,1,0,0:0:0:0:
36,192,156558,1,0,0:0:0:0:
475,192,156558,1,0,0:0:0:0:
182,192,156729,1,0,0:0:0:0:
109,192,156899,1,0,0:0:0:0:
402,192,156899,1,0,0:0:0:0:
329,192,157240,1,0,0:0:0:0:
182,192,157240,1,0,0:0:0:0:
402,192,157496,1,0,0:0:0:0:
109,192,157496,1,0,0:0:0:0:
36,192,157751,1,0,0:0:0:0:
475,192,157751,1,0,0:0:0:0:
36,192,158092,1,0,0:0:0:0:
475,192,158092,1,0,0:0:0:0:
109,192,158348,1,0,0:0:0:0:
402,192,158348,1,0,0:0:0:0:
182,192,158604,1,0,0:0:0:0:
329,192,158604,1,0,0:0:0:0:
109,192,158859,1,0,0:0:0:0:
402,192,158859,1,0,0:0:0:0:
36,192,159115,1,0,0:0:0:0:
475,192,159115,1,0,0:0:0:0:
182,192,159285,1,0,0:0:0:0:
329,192,159285,1,0,0:0:0:0:
109,192,159456,1,0,0:0:0:0:
256,192,159626,1,0,0:0:0:0:
402,192,159626,1,0,0:0:0:0:
36,192,159967,1,0,0:0:0:0:
182,192,159967,1,0,0:0:0:0:
109,192,160223,1,0,0:0:0:0:
256,192,160223,1,0,0:0:0:0:
182,192,160479,1,0,0:0:0:0:
329,192,160479,1,0,0:0:0:0:
402,192,160819,1,0,0:0:0:0:
475,192,160819,1,0,0:0:0:0:
109,192,161075,1,0,0:0:0:0:
36,192,161075,1,0,0:0:0:0:
402,192,161331,1,0,0:0:0:0:
475,192,161331,1,0,0:0:0:0:
109,192,161586,1,0,0:0:0:0:
36,192,161586,1,0,0:0:0:0:
402,192,161842,1,0,0:0:0:0:
475,192,161842,1,0,0:0:0:0:
36,192,162013,1,0,0:0:0:0:
182,192,162013,1,0,0:0:0:0:
256,192,162183,1,0,0:0:0:0:
329,192,162354,1,0,0:0:0:0:
475,192,162354,1,0,0:0:0:0:
36,192,162694,1,0,0:0:0:0:
182,192,162694,1,0,0:0:0:0:
329,192,162950,1,0,0:0:0:0:
475,192,162950,1,0,0:0:0:0:
182,192,163206,1,0,0:0:0:0:
36,192,163206,1,0,0:0:0:0:
36,192,163547,1,0,0:0:0:0:
182,192,163547,1,0,0:0:0:0:
109,192,163802,1,0,0:0:0:0:
256,192,163802,1,0,0:0:0:0:
182,192,164058,1,0,0:0:0:0:
329,192,164058,1,0,0:0:0:0:
256,192,164314,1,0,0:0:0:0:
109,192,164314,1,0,0:0:0:0:
182,192,164569,1,0,0:0:0:0:
36,192,164569,1,0,0:0:0:0:
329,192,164740,1,0,0:0:0:0:
475,192,164740,1,0,0:0:0:0:
109,192,164740,1,0,0:0:0:0:
256,192,164910,1,0,0:0:0:0:
36,192,165081,1,0,0:0:0:0:
402,192,165081,1,0,0:0:0:0:
475,192,165422,1,0,0:0:0:0:
182,192,165422,1,0,0:0:0:0:
402,192,165677,1,0,0:0:0:0:
109,192,165677,1,0,0:0:0:0:
36,192,165933,1,0,0:0:0:0:
329,192,165933,1,0,0:0:0:0:
36,192,166274,1,0,0:0:0:0:
329,192,166274,1,0,0:0:0:0:
109,192,166530,1,0,0:0:0:0:
402,192,166530,1,0,0:0:0:0:
182,192,166785,1,0,0:0:0:0:
475,192,166785,1,0,0:0:0:0:
402,192,167041,1,0,0:0:0:0:
109,192,167041,1,0,0:0:0:0:
329,192,167297,1,0,0:0:0:0:
36,192,167297,1,0,0:0:0:0:
475,192,167467,1,0,0:0:0:0:
182,192,167467,1,0,0:0:0:0:
329,192,167638,1,0,0:0:0:0:
36,192,167808,1,0,0:0:0:0:
182,192,167808,1,0,0:0:0:0:
475,192,168149,1,0,0:0:0:0:
256,192,168149,1,0,0:0:0:0:
402,192,168405,1,0,0:0:0:0:
182,192,168405,1,0,0:0:0:0:
109,192,168660,1,0,0:0:0:0:
329,192,168660,1,0,0:0:0:0:
109,192,169001,1,0,0:0:0:0:
329,192,169001,1,0,0:0:0:0:
182,192,169257,1,0,0:0:0:0:
402,192,169257,1,0,0:0:0:0:
475,192,169513,1,0,0:0:0:0:
256,192,169513,1,0,0:0:0:0:
402,192,169768,1,0,0:0:0:0:
182,192,169768,1,0,0:0:0:0:
329,192,170024,1,0,0:0:0:0:
109,192,170024,1,0,0:0:0:0:
36,192,170194,1,0,0:0:0:0:
475,192,170194,1,0,0:0:0:0:
182,192,170365,1,0,0:0:0:0:
329,192,170535,1,0,0:0:0:0:
475,192,170535,1,0,0:0:0:0:
36,192,170876,1,0,0:0:0:0:
256,192,170876,1,0,0:0:0:0:
109,192,171132,1,0,0:0:0:0:
329,192,171132,1,0,0:0:0:0:
182,192,171388,1,0,0:0:0:0:
402,192,171388,1,0,0:0:0:0:
256,192,171729,1,0,0:0:0:0:
475,192,171729,1,0,0:0:0:0:
182,192,172069,1,0,0:0:0:0:
402,192,172069,1,0,0:0:0:0:
109,192,172410,1,0,0:0:0:0:
329,192,172410,1,0,0:0:0:0:
182,192,172751,1,0,0:0:0:0:
402,192,172751,1,0,0:0:0:0:
475,192,172922,1,0,0:0:0:0:
36,192,172922,1,0,0:0:0:0:
182,192,173092,1,0,0:0:0:0:
329,192,173263,1,0,0:0:0:0:
475,192,173263,1,0,0:0:0:0:
36,192,173604,1,0,0:0:0:0:
182,192,173604,1,0,0:0:0:0:
329,192,173859,1,0,0:0:0:0:
475,192,173859,1,0,0:0:0:0:
182,192,174115,1,0,0:0:0:0:
36,192,174115,1,0,0:0:0:0:
329,192,174285,1,0,0:0:0:0:
475,192,174285,1,0,0:0:0:0:
36,192,174456,128,0,174711:0:0:0:0:
182,192,174711,128,0,174967:0:0:0:0:
475,192,174967,128,0,175223:0:0:0:0:
329,192,175223,128,0,175479:0:0:0:0:
182,192,175479,128,0,175649:0:0:0:0:
36,192,175649,1,0,0:0:0:0:
475,192,175649,1,0,0:0:0:0:
329,192,175819,1,0,0:0:0:0:
109,192,175990,1,0,0:0:0:0:
475,192,175990,1,0,0:0:0:0:
256,192,176160,1,0,0:0:0:0:
36,192,176331,1,0,0:0:0:0:
402,192,176331,1,0,0:0:0:0:
109,192,176586,1,0,0:0:0:0:
475,192,176586,1,0,0:0:0:0:
36,192,176842,1,0,0:0:0:0:
402,192,176842,1,0,0:0:0:0:
36,192,177183,1,0,0:0:0:0:
256,192,177183,1,0,0:0:0:0:
109,192,177439,1,0,0:0:0:0:
329,192,177439,1,0,0:0:0:0:
182,192,177694,1,0,0:0:0:0:
402,192,177694,1,0,0:0:0:0:
329,192,177950,1,0,0:0:0:0:
109,192,177950,1,0,0:0:0:0:
256,192,178206,1,0,0:0:0:0:
36,192,178206,1,0,0:0:0:0:
475,192,178376,1,0,0:0:0:0:
109,192,178376,1,0,0:0:0:0:
329,192,178547,1,0,0:0:0:0:
182,192,178717,1,0,0:0:0:0:
36,192,178717,1,0,0:0:0:0:
402,192,178888,1,0,0:0:0:0:
256,192,179058,1,0,0:0:0:0:
109,192,179058,1,0,0:0:0:0:
182,192,179314,1,0,0:0:0:0:
329,192,179314,1,0,0:0:0:0:
256,192,179569,1,0,0:0:0:0:
402,192,179569,1,0,0:0:0:0:
402,192,179910,1,0,0:0:0:0:
256,192,179910,1,0,0:0:0:0:
329,192,180166,1,0,0:0:0:0:
182,192,180166,1,0,0:0:0:0:
256,192,180422,1,0,0:0:0:0:
109,192,180422,1,0,0:0:0:0:
182,192,180677,1,0,0:0:0:0:
329,192,180677,1,0,0:0:0:0:
256,192,180933,1,0,0:0:0:0:
402,192,180933,1,0,0:0:0:0:
36,192,181104,1,0,0:0:0:0:
475,192,181104,1,0,0:0:0:0:
182,192,181274,1,0,0:0:0:0:
329,192,181444,1,0,0:0:0:0:
475,192,181444,1,0,0:0:0:0:
182,192,181615,1,0,0:0:0:0:
36,192,181785,1,0,0:0:0:0:
402,192,181785,1,0,0:0:0:0:
109,192,182041,1,0,0:0:0:0:
475,192,182041,1,0,0:0:0:0:
36,192,182297,1,0,0:0:0:0:
402,192,182297,1,0,0:0:0:0:
36,192,182638,1,0,0:0:0:0:
402,192,182638,1,0,0:0:0:0:
109,192,182893,1,0,0:0:0:0:
329,192,182893,1,0,0:0:0:0:
182,192,183149,1,0,0:0:0:0:
256,192,183149,1,0,0:0:0:0:
109,192,183405,1,0,0:0:0:0:
329,192,183405,1,0,0:0:0:0:
36,192,183660,1,0,0:0:0:0:
402,192,183660,1,0,0:0:0:0:
109,192,183831,1,0,0:0:0:0:
475,192,183831,1,0,0:0:0:0:
256,192,184001,1,0,0:0:0:0:
36,192,184172,1,0,0:0:0:0:
402,192,184172,1,0,0:0:0:0:
182,192,184342,1,0,0:0:0:0:
329,192,184513,1,0,0:0:0:0:
475,192,184513,1,0,0:0:0:0:
182,192,184768,1,0,0:0:0:0:
36,192,184768,1,0,0:0:0:0:
329,192,185024,1,0,0:0:0:0:
475,192,185024,1,0,0:0:0:0:
329,192,185365,1,0,0:0:0:0:
475,192,185365,1,0,0:0:0:0:
402,192,185621,1,0,0:0:0:0:
256,192,185621,1,0,0:0:0:0:
329,192,185876,1,0,0:0:0:0:
475,192,185876,1,0,0:0:0:0:
256,192,186132,1,0,0:0:0:0:
109,192,186132,1,0,0:0:0:0:
182,192,186388,1,0,0:0:0:0:
36,192,186388,1,0,0:0:0:0:
36,192,186558,1,0,0:0:0:0:
182,192,186558,1,0,0:0:0:0:
475,192,186558,1,0,0:0:0:0:
36,192,186899,1,0,0:0:0:0:
182,192,186899,1,0,0:0:0:0:
36,192,187240,1,0,0:0:0:0:
182,192,187240,1,0,0:0:0:0:
182,192,187581,1,0,0:0:0:0:
36,192,187581,1,0,0:0:0:0:
182,192,187922,1,0,0:0:0:0:
36,192,187922,1,0,0:0:0:0:
36,192,188263,1,0,0:0:0:0:
182,192,188263,1,0,0:0:0:0:
182,192,188604,1,0,0:0:0:0:
36,192,188604,1,0,0:0:0:0:
475,192,188944,1,0,0:0:0:0:
256,192,188944,1,0,0:0:0:0:
329,192,189115,1,0,0:0:0:0:
182,192,189285,1,0,0:0:0:0:
36,192,189285,1,0,0:0:0:0:
182,192,189626,1,0,0:0:0:0:
36,192,189626,1,0,0:0:0:0:
36,192,189967,1,0,0:0:0:0:
182,192,189967,1,0,0:0:0:0:
182,192,190308,1,0,0:0:0:0:
36,192,190308,1,0,0:0:0:0:
36,192,190649,1,0,0:0:0:0:
182,192,190649,1,0,0:0:0:0:
182,192,190990,1,0,0:0:0:0:
36,192,190990,1,0,0:0:0:0:
36,192,191331,1,0,0:0:0:0:
182,192,191331,1,0,0:0:0:0:
329,192,191501,1,0,0:0:0:0:
475,192,191501,1,0,0:0:0:0:
182,192,191672,1,0,0:0:0:0:
36,192,191672,1,0,0:0:0:0:
402,192,191842,128,0,192013:0:0:0:0:
36,192,192013,1,0,0:0:0:0:
256,192,192013,1,0,0:0:0:0:
109,192,192183,1,0,0:0:0:0:
402,192,192354,1,0,0:0:0:0:
256,192,192524,1,0,0:0:0:0:
36,192,192694,1,0,0:0:0:0:
182,192,192694,1,0,0:0:0:0:
329,192,192950,1,0,0:0:0:0:
475,192,192950,1,0,0:0:0:0:
182,192,193206,1,0,0:0:0:0:
36,192,193206,1,0,0:0:0:0:
329,192,193376,1,0,0:0:0:0:
475,192,193376,1,0,0:0:0:0:
256,192,193547,1,0,0:0:0:0:
109,192,193717,1,0,0:0:0:0:
402,192,193888,1,0,0:0:0:0:
36,192,194058,1,0,0:0:0:0:
182,192,194058,1,0,0:0:0:0:
329,192,194314,1,0,0:0:0:0:
475,192,194314,1,0,0:0:0:0:
182,192,194569,1,0,0:0:0:0:
36,192,194569,1,0,0:0:0:0:
182,192,194740,128,0,195251:0:0:0:0:
402,192,194740,1,0,0:0:0:0:
329,192,194910,1,0,0:0:0:0:
475,192,195081,1,0,0:0:0:0:
329,192,195251,128,0,195763:0:0:0:0:
36,192,195422,1,0,0:0:0:0:
475,192,195763,128,0,196274:0:0:0:0:
36,192,195763,1,0,0:0:0:0:
256,192,196274,128,0,196785:0:0:0:0:
36,192,196785,128,0,197467:0:0:0:0:
475,192,197467,1,0,0:0:0:0:
329,192,197638,1,0,0:0:0:0:
36,192,197808,1,0,0:0:0:0:
475,192,197808,1,0,0:0:0:0:
182,192,197808,1,0,0:0:0:0:
109,192,197979,128,0,198149:0:0:0:0:
182,192,198149,1,0,0:0:0:0:
402,192,198149,1,0,0:0:0:0:
109,192,198319,128,0,198490:0:0:0:0:
256,192,198490,1,0,0:0:0:0:
475,192,198490,1,0,0:0:0:0:
109,192,198660,128,0,198831:0:0:0:0:
182,192,198831,1,0,0:0:0:0:
402,192,198831,1,0,0:0:0:0:
109,192,199001,128,0,199172:0:0:0:0:
475,192,199172,1,0,0:0:0:0:
256,192,199172,1,0,0:0:0:0:
109,192,199342,128,0,199513:0:0:0:0:
329,192,199513,1,0,0:0:0:0:
475,192,199513,1,0,0:0:0:0:
256,192,199683,128,0,199854:0:0:0:0:
36,192,199854,1,0,0:0:0:0:
475,192,199854,1,0,0:0:0:0:
182,192,200024,1,0,0:0:0:0:
329,192,200109,1,0,0:0:0:0:
475,192,200194,1,0,0:0:0:0:
36,192,200194,1,0,0:0:0:0:
109,192,200365,128,0,200535:0:0:0:0:
256,192,200535,1,0,0:0:0:0:
402,192,200535,1,0,0:0:0:0:
109,192,200706,128,0,200876:0:0:0:0:
475,192,200876,1,0,0:0:0:0:
329,192,200876,1,0,0:0:0:0:
109,192,201047,128,0,201217:0:0:0:0:
256,192,201217,1,0,0:0:0:0:
402,192,201217,1,0,0:0:0:0:
109,192,201388,128,0,201558:0:0:0:0:
402,192,201558,128,0,201899:0:0:0:0:
36,192,201558,1,0,0:0:0:0:
475,192,201558,1,0,0:0:0:0:
109,192,201899,1,0,0:0:0:0:
402,192,202069,1,0,0:0:0:0:
256,192,202155,1,0,0:0:0:0:
36,192,202240,1,0,0:0:0:0:
475,192,202240,1,0,0:0:0:0:
256,192,202410,128,0,202581:0:0:0:0:
36,192,202581,1,0,0:0:0:0:
475,192,202581,1,0,0:0:0:0:
256,192,202751,128,0,202922:0:0:0:0:
475,192,202922,1,0,0:0:0:0:
36,192,202922,1,0,0:0:0:0:
109,192,203092,128,0,203263:0:0:0:0:
182,192,203263,1,0,0:0:0:0:
402,192,203263,1,0,0:0:0:0:
109,192,203433,128,0,203604:0:0:0:0:
256,192,203604,1,0,0:0:0:0:
475,192,203604,1,0,0:0:0:0:
109,192,203774,128,0,203944:0:0:0:0:
329,192,203944,1,0,0:0:0:0:
475,192,203944,1,0,0:0:0:0:
109,192,204115,128,0,204285:0:0:0:0:
36,192,204285,1,0,0:0:0:0:
475,192,204285,1,0,0:0:0:0:
402,192,204456,128,0,204626:0:0:0:0:
256,192,204626,1,0,0:0:0:0:
329,192,204797,128,0,204967:0:0:0:0:
182,192,204967,1,0,0:0:0:0:
256,192,205138,128,0,205308:0:0:0:0:
36,192,205308,1,0,0:0:0:0:
475,192,205308,1,0,0:0:0:0:
36,192,205649,1,0,0:0:0:0:
182,192,205649,1,0,0:0:0:0:
329,192,205819,1,0,0:0:0:0:
475,192,205819,1,0,0:0:0:0:
36,192,205990,1,0,0:0:0:0:
182,192,205990,1,0,0:0:0:0:
329,192,206160,1,0,0:0:0:0:
475,192,206160,1,0,0:0:0:0:
256,192,206331,128,0,207013:0:0:0:0:
36,192,206331,1,0,0:0:0:0:
475,192,206672,1,0,0:0:0:0:
36,192,207013,1,0,0:0:0:0:
475,192,207013,1,0,0:0:0:0:
329,192,207183,1,0,0:0:0:0:
329,192,207439,1,0,0:0:0:0:
329,192,207609,1,0,0:0:0:0:
109,192,207865,1,0,0:0:0:0:
109,192,208206,1,0,0:0:0:0:
475,192,208376,1,0,0:0:0:0:
182,192,208376,1,0,0:0:0:0:
36,192,208376,1,0,0:0:0:0:
36,192,208717,1,0,0:0:0:0:
475,192,208717,1,0,0:0:0:0:
475,192,209058,1,0,0:0:0:0:
36,192,209058,1,0,0:0:0:0:
36,192,209399,1,0,0:0:0:0:
475,192,209399,1,0,0:0:0:0:
36,192,209740,1,0,0:0:0:0:
475,192,209740,1,0,0:0:0:0:
36,192,210081,1,0,0:0:0:0:
475,192,210081,1,0,0:0:0:0:
475,192,210422,1,0,0:0:0:0:
36,192,210422,1,0,0:0:0:0:
475,192,210763,1,0,0:0:0:0:
36,192,210763,1,0,0:0:0:0:
36,192,210933,1,0,0:0:0:0:
475,192,210933,1,0,0:0:0:0:
402,192,211104,1,0,0:0:0:0:
109,192,211104,1,0,0:0:0:0:
109,192,211444,1,0,0:0:0:0:
402,192,211444,1,0,0:0:0:0:
402,192,211785,1,0,0:0:0:0:
109,192,211785,1,0,0:0:0:0:
109,192,212126,1,0,0:0:0:0:
402,192,212126,1,0,0:0:0:0:
402,192,212467,1,0,0:0:0:0:
109,192,212467,1,0,0:0:0:0:
109,192,212808,1,0,0:0:0:0:
402,192,212808,1,0,0:0:0:0:
109,192,213149,1,0,0:0:0:0:
402,192,213149,1,0,0:0:0:0:
109,192,213319,1,0,0:0:0:0:
402,192,213319,1,0,0:0:0:0:
182,192,213490,1,0,0:0:0:0:
329,192,213490,1,0,0:0:0:0:
256,192,213660,128,0,213831:0:0:0:0:
36,192,213831,1,0,0:0:0:0:
475,192,213831,1,0,0:0:0:0:
182,192,214001,1,0,0:0:0:0:
329,192,214172,1,0,0:0:0:0:
182,192,214342,1,0,0:0:0:0:
109,192,214513,1,0,0:0:0:0:
402,192,214513,1,0,0:0:0:0:
329,192,214683,1,0,0:0:0:0:
256,192,214768,1,0,0:0:0:0:
182,192,214939,1,0,0:0:0:0:
256,192,215024,1,0,0:0:0:0:
36,192,215194,1,0,0:0:0:0:
475,192,215194,1,0,0:0:0:0:
256,192,215365,1,0,0:0:0:0:
109,192,215535,1,0,0:0:0:0:
402,192,215706,1,0,0:0:0:0:
182,192,215876,1,0,0:0:0:0:
329,192,215876,1,0,0:0:0:0:
182,192,216047,1,0,0:0:0:0:
256,192,216132,1,0,0:0:0:0:
329,192,216302,1,0,0:0:0:0:
256,192,216388,1,0,0:0:0:0:
36,192,216558,1,0,0:0:0:0:
182,192,216558,1,0,0:0:0:0:
329,192,216729,1,0,0:0:0:0:
475,192,216729,1,0,0:0:0:0:
36,192,216899,1,0,0:0:0:0:
182,192,216899,1,0,0:0:0:0:
329,192,217069,1,0,0:0:0:0:
475,192,217069,1,0,0:0:0:0:
256,192,217240,128,0,217922:0:0:0:0:
36,192,217922,1,0,0:0:0:0:
475,192,217922,1,0,0:0:0:0:
109,192,218092,128,0,218604:0:0:0:0:
402,192,218604,128,0,218944:0:0:0:0:
109,192,218944,1,0,0:0:0:0:
