osu file format v14

[General]
AudioFilename: 01 - You Make Me Crazy.mp3
AudioLeadIn: 0
PreviewTime: 65194
Countdown: 0
SampleSet: Normal
StackLeniency: 0.7
Mode: 3
LetterboxInBreaks: 0
SpecialStyle: 0
WidescreenStoryboard: 1

[Editor]
DistanceSpacing: 1
BeatDivisor: 4
GridSize: 8
TimelineZoom: 3.299999

[Metadata]
Title:You Make Me Crazy
TitleUnicode:You Make Me Crazy
Artist:ETIA.
ArtistUnicode:ETIA.
Creator:Remillion Cross
Version:Insane
Source:
Tags:retroactive ep electronic hardcore digital perfomance lilium records takane6
BeatmapID:615233
BeatmapSetID:259213

[Difficulty]
HPDrainRate:7.3
CircleSize:7
OverallDifficulty:7.3
ApproachRate:9
SliderMultiplier:1.4
SliderTickRate:1

[Events]
//Background and Video events
0,0,"Crazy.jpg",0,0
//Break Periods
//Storyboard Layer 0 (Background)
//Storyboard Layer 1 (Fail)
//Storyboard Layer 2 (Pass)
//Storyboard Layer 3 (Foreground)
//Storyboard Sound Samples

[TimingPoints]
1104,340.909090909091,4,1,0,5,1,0
10649,-111.111111111111,4,1,0,5,0,0
12013,-100,4,1,0,5,0,0
22581,-166.666666666667,4,1,0,5,0,0
22751,-80,4,1,0,5,0,0
22922,-100,4,1,0,5,0,0
32467,-111.111111111111,4,1,0,5,0,0
33831,-100,4,1,0,5,0,0
44740,-200,4,1,0,5,0,0
52922,-166.666666666667,4,1,0,5,0,0
54285,-142.857142857143,4,1,0,5,0,0
54967,-125,4,1,0,5,0,0
55308,-111.111111111111,4,1,0,5,0,0
55649,-100,4,1,0,5,0,0
65194,-125,4,1,0,5,0,0
66217,-50,4,1,0,5,0,0
66388,-200,4,1,0,5,0,0
66558,-100,4,1,0,5,0,1
66643,-100,4,1,0,5,0,0
79513,-50,4,1,0,5,0,0
79854,-200,4,1,0,5,0,0
80194,-100,4,1,0,5,0,0
99285,-100,4,1,0,5,0,1
110535,-100,4,1,0,5,0,0
119740,-111.111111111111,4,1,0,5,0,0
121104,-100,4,1,0,5,0,0
152467,-125,4,1,0,5,0,0
153831,-100,4,1,0,5,0,1
174285,-100,4,1,0,5,0,0
175649,-100,4,1,0,5,0,1
197467,-117.647058823529,4,1,0,5,0,1
197808,-100,4,1,0,5,0,0
217922,-111.111111111111,4,1,0,5,0,0
218092,-117.647058823529,4,1,0,5,0,0
218263,-125,4,1,0,5,0,0
218433,-133.333333333333,4,1,0,5,0,0
218604,-142.857142857143,4,1,0,5,0,0
218859,-50,4,1,0,5,0,0

[HitObjects]
182,192,1104,5,0,0:0:0:0:
36,192,1104,1,0,0:0:0:0:
475,192,1104,1,0,0:0:0:0:
256,192,1274,1,0,0:0:0:0:
475,192,1444,128,0,1785:0:0:0:0:
109,192,1444,1,0,0:0:0:0:
329,192,1615,1,0,0:0:0:0:
256,192,1785,1,0,0:0:0:0:
36,192,1785,1,0,0:0:0:0:
109,192,1956,1,0,0:0:0:0:
182,192,2126,1,0,0:0:0:0:
475,192,2126,1,0,0:0:0:0:
402,192,2297,1,0,0:0:0:0:
329,192,2467,1,0,0:0:0:0:
36,192,2467,1,0,0:0:0:0:
182,192,2638,1,0,0:0:0:0:
109,192,2808,1,0,0:0:0:0:
402,192,2808,1,0,0:0:0:0:
329,192,2979,1,0,0:0:0:0:
36,192,3149,1,0,0:0:0:0:
475,192,3149,1,0,0:0:0:0:
256,192,3319,128,0,3490:0:0:0:0:
36,192,3490,1,0,0:0:0:0:
475,192,3490,1,0,0:0:0:0:
109,192,3660,1,0,0:0:0:0:
256,192,3746,1,0,0:0:0:0:
402,192,3831,1,0,0:0:0:0:
36,192,3831,1,0,0:0:0:0:
182,192,4001,1,0,0:0:0:0:
109,192,4172,1,0,0:0:0:0:
475,192,4172,1,0,0:0:0:0:
402,192,4342,1,0,0:0:0:0:
475,192,4513,1,0,0:0:0:0:
36,192,4513,1,0,0:0:0:0:
182,192,4683,1,0,0:0:0:0:
329,192,4854,1,0,0:0:0:0:
475,192,4854,1,0,0:0:0:0:
256,192,5024,1,0,0:0:0:0:
182,192,5194,1,0,0:0:0:0:
36,192,5194,1,0,0:0:0:0:
475,192,5194,1,0,0:0:0:0:
182,192,5365,1,0,0:0:0:0:
329,192,5535,1,0,0:0:0:0:
182,192,5706,1,0,0:0:0:0:
256,192,5791,1,0,0:0:0:0:
329,192,5876,1,0,0:0:0:0:
256,192,6047,128,0,6217:0:0:0:0:
36,192,6217,1,0,0:0:0:0:
475,192,6217,1,0,0:0:0:0:
256,192,6388,128,0,6558:0:0:0:0:
36,192,6558,1,0,0:0:0:0:
475,192,6558,1,0,0:0:0:0:
182,192,6729,1,0,0:0:0:0:
475,192,6899,128,0,7240:0:0:0:0:
36,192,6899,1,0,0:0:0:0:
256,192,7069,1,0,0:0:0:0:
109,192,7240,1,0,0:0:0:0:
402,192,7240,1,0,0:0:0:0:
329,192,7410,1,0,0:0:0:0:
256,192,7581,1,0,0:0:0:0:
36,192,7581,1,0,0:0:0:0:
475,192,7751,1,0,0:0:0:0:
402,192,7922,1,0,0:0:0:0:
109,192,7922,1,0,0:0:0:0:
329,192,8092,128,0,8263:0:0:0:0:
36,192,8263,1,0,0:0:0:0:
475,192,8263,1,0,0:0:0:0:
256,192,8433,128,0,8604:0:0:0:0:
36,192,8604,1,0,0:0:0:0:
475,192,8604,1,0,0:0:0:0:
182,192,8774,128,0,8944:0:0:0:0:
36,192,8944,1,0,0:0:0:0:
402,192,8944,1,0,0:0:0:0:
475,192,8944,1,0,0:0:0:0:
329,192,9115,1,0,0:0:0:0:
256,192,9200,1,0,0:0:0:0:
182,192,9285,1,0,0:0:0:0:
36,192,9285,1,0,0:0:0:0:
329,192,9456,1,0,0:0:0:0:
256,192,9626,1,0,0:0:0:0:
109,192,9626,1,0,0:0:0:0:
402,192,9797,1,0,0:0:0:0:
329,192,9967,1,0,0:0:0:0:
182,192,9967,1,0,0:0:0:0:
475,192,10138,1,0,0:0:0:0:
402,192,10308,1,0,0:0:0:0:
256,192,10308,1,0,0:0:0:0:
109,192,10479,1,0,0:0:0:0:
36,192,10649,1,0,0:0:0:0:
475,192,10649,1,0,0:0:0:0:
182,192,10649,1,0,0:0:0:0:
329,192,10819,128,0,10990:0:0:0:0:
256,192,11160,128,0,11331:0:0:0:0:
182,192,11501,128,0,11672:0:0:0:0:
109,192,11842,128,0,12013:0:0:0:0:
36,192,12013,1,0,0:0:0:0:
256,192,12013,1,0,0:0:0:0:
475,192,12013,1,0,0:0:0:0:
402,192,12183,128,0,12354:0:0:0:0:
182,192,12183,1,0,0:0:0:0:
36,192,12354,1,0,0:0:0:0:
256,192,12354,1,0,0:0:0:0:
402,192,12524,128,0,12694:0:0:0:0:
109,192,12524,1,0,0:0:0:0:
182,192,12694,1,0,0:0:0:0:
329,192,12694,1,0,0:0:0:0:
402,192,12865,128,0,13035:0:0:0:0:
109,192,12865,1,0,0:0:0:0:
36,192,13035,1,0,0:0:0:0:
256,192,13035,1,0,0:0:0:0:
402,192,13206,128,0,13376:0:0:0:0:
182,192,13206,1,0,0:0:0:0:
109,192,13376,1,0,0:0:0:0:
329,192,13376,1,0,0:0:0:0:
402,192,13547,128,0,13717:0:0:0:0:
256,192,13547,1,0,0:0:0:0:
36,192,13717,1,0,0:0:0:0:
475,192,13717,1,0,0:0:0:0:
402,192,13888,128,0,14058:0:0:0:0:
182,192,13888,1,0,0:0:0:0:
109,192,14058,1,0,0:0:0:0:
256,192,14058,1,0,0:0:0:0:
475,192,14229,128,0,14399:0:0:0:0:
402,192,14399,1,0,0:0:0:0:
36,192,14399,1,0,0:0:0:0:
109,192,14569,1,0,0:0:0:0:
256,192,14655,1,0,0:0:0:0:
402,192,14740,1,0,0:0:0:0:
36,192,14740,1,0,0:0:0:0:
402,192,14910,128,0,15081:0:0:0:0:
182,192,14910,1,0,0:0:0:0:
36,192,15081,1,0,0:0:0:0:
475,192,15081,1,0,0:0:0:0:
402,192,15251,128,0,15422:0:0:0:0:
329,192,15251,1,0,0:0:0:0:
256,192,15422,1,0,0:0:0:0:
109,192,15422,1,0,0:0:0:0:
402,192,15592,128,0,15763:0:0:0:0:
182,192,15592,1,0,0:0:0:0:
36,192,15763,1,0,0:0:0:0:
329,192,15763,1,0,0:0:0:0:
402,192,15933,128,0,16104:0:0:0:0:
109,192,15933,1,0,0:0:0:0:
182,192,16104,1,0,0:0:0:0:
475,192,16104,1,0,0:0:0:0:
36,192,16104,1,0,0:0:0:0:
256,192,16274,128,0,16444:0:0:0:0:
36,192,16444,1,0,0:0:0:0:
475,192,16444,1,0,0:0:0:0:
109,192,16615,1,0,0:0:0:0:
256,192,16700,1,0,0:0:0:0:
402,192,16785,1,0,0:0:0:0:
256,192,16956,128,0,17126:0:0:0:0:
256,192,17297,128,0,17467:0:0:0:0:
475,192,17467,1,0,0:0:0:0:
36,192,17467,1,0,0:0:0:0:
402,192,17638,128,0,17808:0:0:0:0:
109,192,17638,1,0,0:0:0:0:
182,192,17808,1,0,0:0:0:0:
329,192,17808,1,0,0:0:0:0:
402,192,17979,128,0,18149:0:0:0:0:
36,192,17979,1,0,0:0:0:0:
109,192,18149,1,0,0:0:0:0:
256,192,18149,1,0,0:0:0:0:
402,192,18319,128,0,18490:0:0:0:0:
329,192,18319,1,0,0:0:0:0:
182,192,18490,1,0,0:0:0:0:
36,192,18490,1,0,0:0:0:0:
402,192,18660,128,0,18831:0:0:0:0:
256,192,18660,1,0,0:0:0:0:
109,192,18831,1,0,0:0:0:0:
475,192,18831,1,0,0:0:0:0:
329,192,19001,128,0,19172:0:0:0:0:
36,192,19172,1,0,0:0:0:0:
475,192,19172,1,0,0:0:0:0:
256,192,19342,128,0,19513:0:0:0:0:
475,192,19513,1,0,0:0:0:0:
36,192,19513,1,0,0:0:0:0:
182,192,19683,128,0,19854:0:0:0:0:
36,192,19854,1,0,0:0:0:0:
475,192,19854,1,0,0:0:0:0:
329,192,19854,1,0,0:0:0:0:
36,192,20194,1,0,0:0:0:0:
475,192,20194,1,0,0:0:0:0:
182,192,20280,1,0,0:0:0:0:
109,192,20365,1,0,0:0:0:0:
329,192,20365,1,0,0:0:0:0:
256,192,20450,1,0,0:0:0:0:
36,192,20535,1,0,0:0:0:0:
475,192,20535,1,0,0:0:0:0:
402,192,20621,1,0,0:0:0:0:
182,192,20706,1,0,0:0:0:0:
256,192,20791,1,0,0:0:0:0:
36,192,20876,1,0,0:0:0:0:
109,192,20876,1,0,0:0:0:0:
402,192,20961,1,0,0:0:0:0:
475,192,20961,1,0,0:0:0:0:
109,192,21047,1,0,0:0:0:0:
182,192,21047,1,0,0:0:0:0:
329,192,21132,1,0,0:0:0:0:
402,192,21132,1,0,0:0:0:0:
36,192,21217,1,0,0:0:0:0:
109,192,21217,1,0,0:0:0:0:
402,192,21302,1,0,0:0:0:0:
475,192,21302,1,0,0:0:0:0:
109,192,21388,1,0,0:0:0:0:
182,192,21388,1,0,0:0:0:0:
329,192,21473,1,0,0:0:0:0:
402,192,21473,1,0,0:0:0:0:
36,192,21558,1,0,0:0:0:0:
256,192,21558,1,0,0:0:0:0:
475,192,21558,1,0,0:0:0:0:
256,192,21729,1,0,0:0:0:0:
475,192,21899,1,0,0:0:0:0:
329,192,22069,1,0,0:0:0:0:
182,192,22155,1,0,0:0:0:0:
36,192,22410,1,0,0:0:0:0:
475,192,22410,1,0,0:0:0:0:
256,192,22410,1,0,0:0:0:0:
36,192,22581,1,0,0:0:0:0:
475,192,22581,1,0,0:0:0:0:
256,192,22581,1,0,0:0:0:0:
36,192,22922,1,0,0:0:0:0:
256,192,22922,1,0,0:0:0:0:
475,192,22922,1,0,0:0:0:0:
109,192,23092,128,0,23263:0:0:0:0:
36,192,23263,1,0,0:0:0:0:
475,192,23263,1,0,0:0:0:0:
109,192,23433,128,0,23604:0:0:0:0:
256,192,23604,1,0,0:0:0:0:
402,192,23604,1,0,0:0:0:0:
109,192,23774,128,0,23944:0:0:0:0:
475,192,23944,1,0,0:0:0:0:
36,192,23944,1,0,0:0:0:0:
109,192,24115,128,0,24285:0:0:0:0:
256,192,24285,1,0,0:0:0:0:
402,192,24285,1,0,0:0:0:0:
109,192,24456,128,0,24626:0:0:0:0:
475,192,24626,1,0,0:0:0:0:
329,192,24626,1,0,0:0:0:0:
109,192,24797,128,0,24967:0:0:0:0:
256,192,24967,1,0,0:0:0:0:
402,192,24967,1,0,0:0:0:0:
256,192,25138,128,0,25308:0:0:0:0:
36,192,25308,1,0,0:0:0:0:
475,192,25308,1,0,0:0:0:0:
329,192,25308,1,0,0:0:0:0:
36,192,25649,1,0,0:0:0:0:
475,192,25649,1,0,0:0:0:0:
402,192,25819,128,0,25990:0:0:0:0:
256,192,25990,1,0,0:0:0:0:
109,192,25990,1,0,0:0:0:0:
402,192,26160,128,0,26331:0:0:0:0:
36,192,26331,1,0,0:0:0:0:
329,192,26331,1,0,0:0:0:0:
402,192,26501,128,0,26672:0:0:0:0:
109,192,26672,1,0,0:0:0:0:
256,192,26672,1,0,0:0:0:0:
402,192,26842,128,0,27013:0:0:0:0:
36,192,27013,1,0,0:0:0:0:
475,192,27013,1,0,0:0:0:0:
402,192,27183,128,0,27354:0:0:0:0:
109,192,27354,1,0,0:0:0:0:
329,192,27354,1,0,0:0:0:0:
402,192,27524,128,0,27694:0:0:0:0:
36,192,27694,1,0,0:0:0:0:
182,192,27694,1,0,0:0:0:0:
402,192,27865,1,0,0:0:0:0:
256,192,27950,1,0,0:0:0:0:
109,192,28035,1,0,0:0:0:0:
256,192,28206,1,0,0:0:0:0:
36,192,28376,1,0,0:0:0:0:
475,192,28376,1,0,0:0:0:0:
475,192,28547,128,0,28717:0:0:0:0:
109,192,28717,1,0,0:0:0:0:
402,192,28717,1,0,0:0:0:0:
475,192,28888,128,0,29058:0:0:0:0:
329,192,29058,1,0,0:0:0:0:
182,192,29058,1,0,0:0:0:0:
475,192,29229,128,0,29399:0:0:0:0:
36,192,29399,1,0,0:0:0:0:
256,192,29399,1,0,0:0:0:0:
475,192,29569,128,0,29740:0:0:0:0:
109,192,29740,1,0,0:0:0:0:
329,192,29740,1,0,0:0:0:0:
475,192,29910,128,0,30081:0:0:0:0:
182,192,30081,1,0,0:0:0:0:
402,192,30081,1,0,0:0:0:0:
475,192,30251,128,0,30422:0:0:0:0:
36,192,30422,1,0,0:0:0:0:
329,192,30422,1,0,0:0:0:0:
475,192,30592,128,0,30763:0:0:0:0:
109,192,30763,1,0,0:0:0:0:
256,192,30763,1,0,0:0:0:0:
329,192,30763,1,0,0:0:0:0:
36,192,31104,1,0,0:0:0:0:
475,192,31104,1,0,0:0:0:0:
256,192,31274,128,0,31444:0:0:0:0:
36,192,31444,1,0,0:0:0:0:
475,192,31444,1,0,0:0:0:0:
256,192,31615,128,0,31785:0:0:0:0:
109,192,31785,1,0,0:0:0:0:
402,192,31785,1,0,0:0:0:0:
256,192,31956,128,0,32126:0:0:0:0:
109,192,32126,1,0,0:0:0:0:
402,192,32126,1,0,0:0:0:0:
256,192,32297,128,0,32467:0:0:0:0:
36,192,32467,1,0,0:0:0:0:
329,192,32467,1,0,0:0:0:0:
475,192,32467,1,0,0:0:0:0:
402,192,32638,128,0,33149:0:0:0:0:
36,192,33149,1,0,0:0:0:0:
182,192,33149,1,0,0:0:0:0:
475,192,33149,1,0,0:0:0:0:
256,192,33319,128,0,33831:0:0:0:0:
36,192,33831,1,0,0:0:0:0:
182,192,33831,1,0,0:0:0:0:
475,192,33831,1,0,0:0:0:0:
402,192,34001,128,0,34172:0:0:0:0:
329,192,34001,1,0,0:0:0:0:
36,192,34172,1,0,0:0:0:0:
182,192,34172,1,0,0:0:0:0:
475,192,34172,1,0,0:0:0:0:
402,192,34342,128,0,34513:0:0:0:0:
256,192,34342,1,0,0:0:0:0:
109,192,34513,1,0,0:0:0:0:
182,192,34513,1,0,0:0:0:0:
329,192,34513,1,0,0:0:0:0:
402,192,34683,128,0,34854:0:0:0:0:
256,192,34683,1,0,0:0:0:0:
36,192,34854,1,0,0:0:0:0:
109,192,34854,1,0,0:0:0:0:
329,192,34854,1,0,0:0:0:0:
402,192,35024,128,0,35194:0:0:0:0:
182,192,35024,1,0,0:0:0:0:
256,192,35194,1,0,0:0:0:0:
36,192,35194,1,0,0:0:0:0:
475,192,35194,1,0,0:0:0:0:
402,192,35365,128,0,35535:0:0:0:0:
109,192,35365,1,0,0:0:0:0:
182,192,35535,1,0,0:0:0:0:
329,192,35535,1,0,0:0:0:0:
36,192,35535,1,0,0:0:0:0:
402,192,35706,128,0,35876:0:0:0:0:
256,192,35706,1,0,0:0:0:0:
109,192,35876,1,0,0:0:0:0:
182,192,35876,1,0,0:0:0:0:
475,192,35876,1,0,0:0:0:0:
402,192,36047,128,0,36217:0:0:0:0:
329,192,36047,1,0,0:0:0:0:
36,192,36217,1,0,0:0:0:0:
256,192,36217,1,0,0:0:0:0:
475,192,36217,1,0,0:0:0:0:
402,192,36388,128,0,36558:0:0:0:0:
109,192,36388,1,0,0:0:0:0:
182,192,36558,1,0,0:0:0:0:
329,192,36558,1,0,0:0:0:0:
36,192,36558,1,0,0:0:0:0:
256,192,36729,128,0,36899:0:0:0:0:
402,192,36729,1,0,0:0:0:0:
109,192,36899,1,0,0:0:0:0:
329,192,36899,1,0,0:0:0:0:
475,192,36899,1,0,0:0:0:0:
256,192,37069,128,0,37240:0:0:0:0:
402,192,37069,1,0,0:0:0:0:
182,192,37240,1,0,0:0:0:0:
36,192,37240,1,0,0:0:0:0:
329,192,37240,1,0,0:0:0:0:
256,192,37410,128,0,37581:0:0:0:0:
109,192,37410,1,0,0:0:0:0:
36,192,37581,1,0,0:0:0:0:
402,192,37581,1,0,0:0:0:0:
475,192,37581,1,0,0:0:0:0:
256,192,37751,128,0,37922:0:0:0:0:
182,192,37751,1,0,0:0:0:0:
109,192,37922,1,0,0:0:0:0:
329,192,37922,1,0,0:0:0:0:
475,192,37922,1,0,0:0:0:0:
256,192,38092,128,0,38263:0:0:0:0:
402,192,38092,1,0,0:0:0:0:
329,192,38263,1,0,0:0:0:0:
182,192,38263,1,0,0:0:0:0:
36,192,38263,1,0,0:0:0:0:
256,192,38433,128,0,38604:0:0:0:0:
109,192,38433,1,0,0:0:0:0:
182,192,38604,1,0,0:0:0:0:
329,192,38604,1,0,0:0:0:0:
475,192,38604,1,0,0:0:0:0:
256,192,38774,128,0,38944:0:0:0:0:
402,192,38774,1,0,0:0:0:0:
36,192,38944,1,0,0:0:0:0:
182,192,38944,1,0,0:0:0:0:
475,192,38944,1,0,0:0:0:0:
256,192,39115,128,0,39285:0:0:0:0:
402,192,39115,1,0,0:0:0:0:
36,192,39285,1,0,0:0:0:0:
182,192,39285,1,0,0:0:0:0:
475,192,39285,1,0,0:0:0:0:
475,192,39456,1,0,0:0:0:0:
182,192,39456,1,0,0:0:0:0:
36,192,39456,1,0,0:0:0:0:
109,192,39626,1,0,0:0:0:0:
329,192,39626,1,0,0:0:0:0:
402,192,39626,1,0,0:0:0:0:
109,192,39797,1,0,0:0:0:0:
329,192,39797,1,0,0:0:0:0:
402,192,39797,1,0,0:0:0:0:
36,192,39967,1,0,0:0:0:0:
256,192,39967,1,0,0:0:0:0:
475,192,39967,1,0,0:0:0:0:
109,192,40138,1,0,0:0:0:0:
329,192,40138,1,0,0:0:0:0:
182,192,40223,1,0,0:0:0:0:
402,192,40223,1,0,0:0:0:0:
109,192,40393,1,0,0:0:0:0:
329,192,40393,1,0,0:0:0:0:
182,192,40479,1,0,0:0:0:0:
402,192,40479,1,0,0:0:0:0:
36,192,40649,1,0,0:0:0:0:
475,192,40649,1,0,0:0:0:0:
329,192,40649,1,0,0:0:0:0:
36,192,40819,1,0,0:0:0:0:
329,192,40819,1,0,0:0:0:0:
475,192,40819,1,0,0:0:0:0:
109,192,40990,1,0,0:0:0:0:
182,192,40990,1,0,0:0:0:0:
402,192,40990,1,0,0:0:0:0:
182,192,41160,1,0,0:0:0:0:
109,192,41160,1,0,0:0:0:0:
402,192,41160,1,0,0:0:0:0:
36,192,41331,1,0,0:0:0:0:
256,192,41331,1,0,0:0:0:0:
475,192,41331,1,0,0:0:0:0:
182,192,41501,1,0,0:0:0:0:
402,192,41501,1,0,0:0:0:0:
109,192,41586,1,0,0:0:0:0:
329,192,41586,1,0,0:0:0:0:
182,192,41757,1,0,0:0:0:0:
402,192,41757,1,0,0:0:0:0:
109,192,41842,1,0,0:0:0:0:
329,192,41842,1,0,0:0:0:0:
36,192,42013,1,0,0:0:0:0:
475,192,42013,1,0,0:0:0:0:
109,192,42098,1,0,0:0:0:0:
256,192,42183,1,0,0:0:0:0:
329,192,42268,1,0,0:0:0:0:
109,192,42354,1,0,0:0:0:0:
402,192,42354,1,0,0:0:0:0:
182,192,42439,1,0,0:0:0:0:
329,192,42524,1,0,0:0:0:0:
402,192,42609,1,0,0:0:0:0:
36,192,42694,1,0,0:0:0:0:
475,192,42694,1,0,0:0:0:0:
109,192,42751,1,0,0:0:0:0:
182,192,42808,1,0,0:0:0:0:
256,192,42865,1,0,0:0:0:0:
182,192,42922,1,0,0:0:0:0:
109,192,42979,1,0,0:0:0:0:
36,192,43035,1,0,0:0:0:0:
475,192,43035,1,0,0:0:0:0:
402,192,43092,1,0,0:0:0:0:
329,192,43149,1,0,0:0:0:0:
256,192,43206,1,0,0:0:0:0:
182,192,43263,1,0,0:0:0:0:
109,192,43319,1,0,0:0:0:0:
475,192,43376,1,0,0:0:0:0:
36,192,43376,1,0,0:0:0:0:
402,192,43376,1,0,0:0:0:0:
329,192,43547,128,0,44058:0:0:0:0:
182,192,44229,128,0,44740:0:0:0:0:
36,192,44740,1,0,0:0:0:0:
329,192,44740,1,0,0:0:0:0:
475,192,44740,1,0,0:0:0:0:
256,192,47467,128,0,50194:0:0:0:0:
402,192,50194,128,0,52922:0:0:0:0:
256,192,51729,128,0,52922:0:0:0:0:
109,192,52410,128,0,52922:0:0:0:0:
475,192,52922,128,0,55649:0:0:0:0:
329,192,54285,128,0,55649:0:0:0:0:
182,192,54967,128,0,55649:0:0:0:0:
36,192,55649,1,0,0:0:0:0:
256,192,55649,1,0,0:0:0:0:
402,192,55649,1,0,0:0:0:0:
36,192,55990,1,0,0:0:0:0:
182,192,55990,1,0,0:0:0:0:
475,192,55990,1,0,0:0:0:0:
109,192,56331,128,0,56586:0:0:0:0:
475,192,56331,1,0,0:0:0:0:
36,192,56331,1,0,0:0:0:0:
329,192,56501,1,0,0:0:0:0:
256,192,56586,128,0,56842:0:0:0:0:
475,192,56757,1,0,0:0:0:0:
402,192,56842,128,0,57013:0:0:0:0:
36,192,57013,1,0,0:0:0:0:
475,192,57013,1,0,0:0:0:0:
256,192,57013,1,0,0:0:0:0:
109,192,57098,1,0,0:0:0:0:
402,192,57183,128,0,57439:0:0:0:0:
182,192,57183,1,0,0:0:0:0:
182,192,57354,1,0,0:0:0:0:
256,192,57439,128,0,57694:0:0:0:0:
36,192,57609,1,0,0:0:0:0:
109,192,57694,128,0,57950:0:0:0:0:
329,192,57865,1,0,0:0:0:0:
256,192,57950,128,0,58206:0:0:0:0:
475,192,58121,1,0,0:0:0:0:
402,192,58206,128,0,58376:0:0:0:0:
36,192,58376,1,0,0:0:0:0:
182,192,58376,1,0,0:0:0:0:
475,192,58376,1,0,0:0:0:0:
109,192,58717,1,0,0:0:0:0:
329,192,58717,1,0,0:0:0:0:
475,192,58717,1,0,0:0:0:0:
402,192,59058,128,0,59314:0:0:0:0:
36,192,59058,1,0,0:0:0:0:
256,192,59058,1,0,0:0:0:0:
182,192,59229,1,0,0:0:0:0:
256,192,59314,128,0,59569:0:0:0:0:
36,192,59484,1,0,0:0:0:0:
109,192,59569,128,0,59740:0:0:0:0:
475,192,59740,1,0,0:0:0:0:
36,192,59740,1,0,0:0:0:0:
402,192,59825,1,0,0:0:0:0:
109,192,59910,128,0,60166:0:0:0:0:
329,192,59910,1,0,0:0:0:0:
182,192,60081,1,0,0:0:0:0:
256,192,60166,128,0,60422:0:0:0:0:
329,192,60336,1,0,0:0:0:0:
402,192,60422,128,0,60677:0:0:0:0:
329,192,60592,1,0,0:0:0:0:
256,192,60677,128,0,60933:0:0:0:0:
182,192,60848,1,0,0:0:0:0:
109,192,60933,128,0,61104:0:0:0:0:
36,192,61104,1,0,0:0:0:0:
329,192,61104,1,0,0:0:0:0:
475,192,61104,1,0,0:0:0:0:
475,192,61274,1,0,0:0:0:0:
329,192,61274,1,0,0:0:0:0:
36,192,61274,1,0,0:0:0:0:
329,192,61444,1,0,0:0:0:0:
109,192,61444,1,0,0:0:0:0:
182,192,61444,1,0,0:0:0:0:
182,192,61615,1,0,0:0:0:0:
329,192,61615,1,0,0:0:0:0:
109,192,61615,1,0,0:0:0:0:
36,192,61785,1,0,0:0:0:0:
475,192,61785,1,0,0:0:0:0:
402,192,61785,1,0,0:0:0:0:
109,192,61956,1,0,0:0:0:0:
182,192,61956,1,0,0:0:0:0:
329,192,62041,1,0,0:0:0:0:
402,192,62041,1,0,0:0:0:0:
109,192,62211,1,0,0:0:0:0:
182,192,62211,1,0,0:0:0:0:
329,192,62297,1,0,0:0:0:0:
402,192,62297,1,0,0:0:0:0:
36,192,62467,1,0,0:0:0:0:
256,192,62467,1,0,0:0:0:0:
475,192,62467,1,0,0:0:0:0:
475,192,62638,1,0,0:0:0:0:
256,192,62638,1,0,0:0:0:0:
36,192,62638,1,0,0:0:0:0:
109,192,62808,1,0,0:0:0:0:
256,192,62808,1,0,0:0:0:0:
402,192,62808,1,0,0:0:0:0:
109,192,62979,1,0,0:0:0:0:
256,192,62979,1,0,0:0:0:0:
402,192,62979,1,0,0:0:0:0:
36,192,63149,1,0,0:0:0:0:
329,192,63149,1,0,0:0:0:0:
475,192,63149,1,0,0:0:0:0:
402,192,63319,1,0,0:0:0:0:
329,192,63319,1,0,0:0:0:0:
182,192,63405,1,0,0:0:0:0:
109,192,63405,1,0,0:0:0:0:
329,192,63575,1,0,0:0:0:0:
402,192,63575,1,0,0:0:0:0:
182,192,63660,1,0,0:0:0:0:
109,192,63660,1,0,0:0:0:0:
36,192,63831,1,0,0:0:0:0:
329,192,63831,1,0,0:0:0:0:
475,192,63831,1,0,0:0:0:0:
109,192,63916,1,0,0:0:0:0:
256,192,64001,1,0,0:0:0:0:
329,192,64086,1,0,0:0:0:0:
36,192,64172,1,0,0:0:0:0:
182,192,64172,1,0,0:0:0:0:
475,192,64172,1,0,0:0:0:0:
402,192,64257,1,0,0:0:0:0:
256,192,64342,1,0,0:0:0:0:
182,192,64427,1,0,0:0:0:0:
36,192,64513,1,0,0:0:0:0:
329,192,64513,1,0,0:0:0:0:
475,192,64513,1,0,0:0:0:0:
109,192,64569,1,0,0:0:0:0:
182,192,64626,1,0,0:0:0:0:
256,192,64683,1,0,0:0:0:0:
329,192,64740,1,0,0:0:0:0:
402,192,64797,1,0,0:0:0:0:
475,192,64854,1,0,0:0:0:0:
36,192,64854,1,0,0:0:0:0:
256,192,64854,1,0,0:0:0:0:
109,192,64910,1,0,0:0:0:0:
182,192,64967,1,0,0:0:0:0:
256,192,65024,1,0,0:0:0:0:
329,192,65081,1,0,0:0:0:0:
402,192,65138,1,0,0:0:0:0:
475,192,65194,1,0,0:0:0:0:
36,192,65194,1,0,0:0:0:0:
182,192,65194,1,0,0:0:0:0:
475,192,65706,128,0,66217:0:0:0:0:
36,192,65876,128,0,66217:0:0:0:0:
256,192,66217,128,0,66558:0:0:0:0:
36,192,66558,1,0,0:0:0:0:
475,192,66558,1,0,0:0:0:0:
36,192,66729,128,0,67069:0:0:0:0:
475,192,66729,128,0,67069:0:0:0:0:
109,192,67069,1,0,0:0:0:0:
402,192,67069,1,0,0:0:0:0:
109,192,67240,128,0,67581:0:0:0:0:
402,192,67240,128,0,67581:0:0:0:0:
182,192,67581,1,0,0:0:0:0:
329,192,67581,1,0,0:0:0:0:
182,192,67751,128,0,68092:0:0:0:0:
329,192,67751,128,0,68092:0:0:0:0:
109,192,68092,1,0,0:0:0:0:
402,192,68092,1,0,0:0:0:0:
109,192,68263,128,0,68604:0:0:0:0:
402,192,68263,128,0,68604:0:0:0:0:
36,192,68604,1,0,0:0:0:0:
256,192,68604,1,0,0:0:0:0:
475,192,68604,1,0,0:0:0:0:
182,192,68944,1,0,0:0:0:0:
329,192,68944,1,0,0:0:0:0:
109,192,69115,1,0,0:0:0:0:
256,192,69115,1,0,0:0:0:0:
402,192,69115,1,0,0:0:0:0:
329,192,69285,1,0,0:0:0:0:
182,192,69285,1,0,0:0:0:0:
182,192,69456,128,0,69797:0:0:0:0:
329,192,69456,128,0,69797:0:0:0:0:
109,192,69797,1,0,0:0:0:0:
402,192,69797,1,0,0:0:0:0:
109,192,69967,128,0,70308:0:0:0:0:
402,192,69967,128,0,70308:0:0:0:0:
36,192,70308,1,0,0:0:0:0:
475,192,70308,1,0,0:0:0:0:
36,192,70479,128,0,70819:0:0:0:0:
475,192,70479,128,0,70819:0:0:0:0:
182,192,70819,1,0,0:0:0:0:
329,192,70819,1,0,0:0:0:0:
182,192,70990,128,0,71331:0:0:0:0:
329,192,70990,128,0,71331:0:0:0:0:
36,192,71160,1,0,0:0:0:0:
256,192,71246,1,0,0:0:0:0:
36,192,71331,1,0,0:0:0:0:
475,192,71331,1,0,0:0:0:0:
109,192,71501,1,0,0:0:0:0:
402,192,71501,1,0,0:0:0:0:
402,192,71672,1,0,0:0:0:0:
109,192,71672,1,0,0:0:0:0:
36,192,71842,1,0,0:0:0:0:
475,192,71842,1,0,0:0:0:0:
109,192,72013,1,0,0:0:0:0:
182,192,72013,1,0,0:0:0:0:
109,192,72183,128,0,72524:0:0:0:0:
182,192,72183,128,0,72524:0:0:0:0:
329,192,72524,1,0,0:0:0:0:
402,192,72524,1,0,0:0:0:0:
402,192,72694,128,0,73035:0:0:0:0:
329,192,72694,128,0,73035:0:0:0:0:
109,192,73035,1,0,0:0:0:0:
182,192,73035,1,0,0:0:0:0:
109,192,73206,128,0,73547:0:0:0:0:
182,192,73206,128,0,73547:0:0:0:0:
329,192,73547,1,0,0:0:0:0:
402,192,73547,1,0,0:0:0:0:
402,192,73717,128,0,74058:0:0:0:0:
329,192,73717,128,0,74058:0:0:0:0:
36,192,74058,1,0,0:0:0:0:
256,192,74058,1,0,0:0:0:0:
475,192,74058,1,0,0:0:0:0:
36,192,74229,128,0,74569:0:0:0:0:
475,192,74229,128,0,74569:0:0:0:0:
256,192,74229,128,0,74569:0:0:0:0:
109,192,74740,1,0,0:0:0:0:
402,192,74740,1,0,0:0:0:0:
109,192,74910,128,0,75251:0:0:0:0:
402,192,74910,128,0,75251:0:0:0:0:
182,192,75251,1,0,0:0:0:0:
329,192,75251,1,0,0:0:0:0:
36,192,75422,1,0,0:0:0:0:
475,192,75422,1,0,0:0:0:0:
182,192,75422,128,0,75763:0:0:0:0:
329,192,75422,128,0,75763:0:0:0:0:
36,192,75763,1,0,0:0:0:0:
475,192,75763,1,0,0:0:0:0:
36,192,75933,128,0,76274:0:0:0:0:
475,192,75933,128,0,76274:0:0:0:0:
182,192,76274,1,0,0:0:0:0:
329,192,76274,1,0,0:0:0:0:
182,192,76444,128,0,76785:0:0:0:0:
329,192,76444,128,0,76785:0:0:0:0:
36,192,76785,1,0,0:0:0:0:
475,192,76785,1,0,0:0:0:0:
36,192,76956,128,0,77041:0:0:0:0:
475,192,76956,128,0,77041:0:0:0:0:
36,192,77126,128,0,77211:0:0:0:0:
475,192,77126,128,0,77211:0:0:0:0:
182,192,77126,1,0,0:0:0:0:
329,192,77126,1,0,0:0:0:0:
36,192,77297,128,0,77467:0:0:0:0:
475,192,77297,128,0,77467:0:0:0:0:
182,192,77467,1,0,0:0:0:0:
329,192,77467,1,0,0:0:0:0:
182,192,77638,128,0,77979:0:0:0:0:
329,192,77638,128,0,77979:0:0:0:0:
402,192,77979,1,0,0:0:0:0:
109,192,77979,1,0,0:0:0:0:
109,192,78149,128,0,78490:0:0:0:0:
402,192,78149,128,0,78490:0:0:0:0:
36,192,78490,1,0,0:0:0:0:
475,192,78490,1,0,0:0:0:0:
36,192,78660,128,0,79001:0:0:0:0:
475,192,78660,128,0,79001:0:0:0:0:
109,192,79001,1,0,0:0:0:0:
402,192,79001,1,0,0:0:0:0:
109,192,79172,128,0,79513:0:0:0:0:
402,192,79172,128,0,79513:0:0:0:0:
36,192,79513,1,0,0:0:0:0:
256,192,79513,1,0,0:0:0:0:
475,192,79513,1,0,0:0:0:0:
329,192,80194,1,0,0:0:0:0:
475,192,80194,1,0,0:0:0:0:
329,192,80365,128,0,80706:0:0:0:0:
475,192,80365,128,0,80706:0:0:0:0:
36,192,80706,1,0,0:0:0:0:
182,192,80706,1,0,0:0:0:0:
36,192,80876,128,0,81217:0:0:0:0:
182,192,80876,128,0,81217:0:0:0:0:
329,192,81217,1,0,0:0:0:0:
475,192,81217,1,0,0:0:0:0:
329,192,81388,128,0,81729:0:0:0:0:
475,192,81388,128,0,81729:0:0:0:0:
182,192,81729,1,0,0:0:0:0:
36,192,81729,1,0,0:0:0:0:
36,192,81899,128,0,82240:0:0:0:0:
182,192,81899,128,0,82240:0:0:0:0:
329,192,82069,1,0,0:0:0:0:
402,192,82155,1,0,0:0:0:0:
109,192,82240,1,0,0:0:0:0:
256,192,82240,1,0,0:0:0:0:
475,192,82240,1,0,0:0:0:0:
329,192,82410,1,0,0:0:0:0:
402,192,82410,1,0,0:0:0:0:
329,192,82581,1,0,0:0:0:0:
402,192,82581,1,0,0:0:0:0:
182,192,82666,1,0,0:0:0:0:
109,192,82666,1,0,0:0:0:0:
36,192,82751,1,0,0:0:0:0:
256,192,82751,1,0,0:0:0:0:
475,192,82751,1,0,0:0:0:0:
109,192,82922,1,0,0:0:0:0:
402,192,82922,1,0,0:0:0:0:
109,192,83092,128,0,83433:0:0:0:0:
402,192,83092,128,0,83433:0:0:0:0:
182,192,83433,1,0,0:0:0:0:
329,192,83433,1,0,0:0:0:0:
182,192,83604,128,0,83944:0:0:0:0:
329,192,83604,128,0,83944:0:0:0:0:
109,192,83944,1,0,0:0:0:0:
402,192,83944,1,0,0:0:0:0:
109,192,84115,128,0,84456:0:0:0:0:
402,192,84115,128,0,84456:0:0:0:0:
36,192,84456,1,0,0:0:0:0:
475,192,84456,1,0,0:0:0:0:
475,192,84626,128,0,84967:0:0:0:0:
36,192,84626,128,0,84967:0:0:0:0:
182,192,84967,1,0,0:0:0:0:
256,192,84967,1,0,0:0:0:0:
329,192,84967,1,0,0:0:0:0:
182,192,85138,1,0,0:0:0:0:
329,192,85138,1,0,0:0:0:0:
36,192,85308,1,0,0:0:0:0:
256,192,85308,1,0,0:0:0:0:
475,192,85308,1,0,0:0:0:0:
36,192,85479,1,0,0:0:0:0:
475,192,85479,1,0,0:0:0:0:
256,192,85479,1,0,0:0:0:0:
109,192,85649,1,0,0:0:0:0:
402,192,85649,1,0,0:0:0:0:
109,192,85819,128,0,86160:0:0:0:0:
402,192,85819,128,0,86160:0:0:0:0:
36,192,86160,1,0,0:0:0:0:
475,192,86160,1,0,0:0:0:0:
36,192,86331,128,0,86672:0:0:0:0:
475,192,86331,128,0,86672:0:0:0:0:
109,192,86672,128,0,87183:0:0:0:0:
402,192,86672,128,0,87183:0:0:0:0:
182,192,87013,1,0,0:0:0:0:
329,192,87013,1,0,0:0:0:0:
256,192,87183,128,0,87694:0:0:0:0:
182,192,87268,1,0,0:0:0:0:
329,192,87268,1,0,0:0:0:0:
182,192,87524,1,0,0:0:0:0:
329,192,87524,1,0,0:0:0:0:
475,192,87694,5,0,0:0:0:0:
36,192,87694,1,0,0:0:0:0:
256,192,87865,128,0,87950:0:0:0:0:
256,192,88035,128,0,88121:0:0:0:0:
256,192,88206,128,0,88376:0:0:0:0:
36,192,88376,1,0,0:0:0:0:
475,192,88376,1,0,0:0:0:0:
109,192,89058,128,0,89740:0:0:0:0:
182,192,89740,128,0,90422:0:0:0:0:
329,192,90422,128,0,91104:0:0:0:0:
402,192,91104,128,0,92467:0:0:0:0:
36,192,91104,1,0,0:0:0:0:
109,192,91444,1,0,0:0:0:0:
329,192,91785,1,0,0:0:0:0:
256,192,92041,1,0,0:0:0:0:
182,192,92297,1,0,0:0:0:0:
109,192,92467,128,0,93831:0:0:0:0:
256,192,92638,1,0,0:0:0:0:
329,192,92893,1,0,0:0:0:0:
475,192,93149,1,0,0:0:0:0:
402,192,93405,1,0,0:0:0:0:
329,192,93660,1,0,0:0:0:0:
36,192,93831,1,0,0:0:0:0:
256,192,93831,1,0,0:0:0:0:
475,192,93831,1,0,0:0:0:0:
475,192,94001,1,0,0:0:0:0:
36,192,94001,1,0,0:0:0:0:
256,192,94001,1,0,0:0:0:0:
182,192,94172,1,0,0:0:0:0:
329,192,94172,1,0,0:0:0:0:
402,192,94172,1,0,0:0:0:0:
402,192,94342,1,0,0:0:0:0:
329,192,94342,1,0,0:0:0:0:
182,192,94342,1,0,0:0:0:0:
36,192,94513,1,0,0:0:0:0:
475,192,94513,1,0,0:0:0:0:
109,192,94683,1,0,0:0:0:0:
256,192,94683,1,0,0:0:0:0:
182,192,94768,1,0,0:0:0:0:
329,192,94768,1,0,0:0:0:0:
109,192,94939,1,0,0:0:0:0:
256,192,94939,1,0,0:0:0:0:
182,192,95024,1,0,0:0:0:0:
329,192,95024,1,0,0:0:0:0:
36,192,95194,1,0,0:0:0:0:
256,192,95194,1,0,0:0:0:0:
475,192,95194,1,0,0:0:0:0:
36,192,95365,1,0,0:0:0:0:
256,192,95365,1,0,0:0:0:0:
475,192,95365,1,0,0:0:0:0:
109,192,95535,1,0,0:0:0:0:
402,192,95535,1,0,0:0:0:0:
329,192,95535,1,0,0:0:0:0:
329,192,95706,1,0,0:0:0:0:
402,192,95706,1,0,0:0:0:0:
109,192,95706,1,0,0:0:0:0:
36,192,95876,1,0,0:0:0:0:
256,192,95876,1,0,0:0:0:0:
475,192,95876,1,0,0:0:0:0:
402,192,96047,1,0,0:0:0:0:
256,192,96047,1,0,0:0:0:0:
329,192,96132,1,0,0:0:0:0:
182,192,96132,1,0,0:0:0:0:
402,192,96302,1,0,0:0:0:0:
256,192,96302,1,0,0:0:0:0:
329,192,96388,1,0,0:0:0:0:
182,192,96388,1,0,0:0:0:0:
36,192,96558,1,0,0:0:0:0:
475,192,96558,1,0,0:0:0:0:
109,192,96643,1,0,0:0:0:0:
256,192,96729,1,0,0:0:0:0:
329,192,96814,1,0,0:0:0:0:
475,192,96899,1,0,0:0:0:0:
36,192,96899,1,0,0:0:0:0:
402,192,96984,1,0,0:0:0:0:
256,192,97069,1,0,0:0:0:0:
182,192,97155,1,0,0:0:0:0:
475,192,97240,1,0,0:0:0:0:
36,192,97240,1,0,0:0:0:0:
109,192,97282,1,0,0:0:0:0:
182,192,97325,1,0,0:0:0:0:
256,192,97368,1,0,0:0:0:0:
329,192,97410,1,0,0:0:0:0:
402,192,97453,1,0,0:0:0:0:
36,192,97496,1,0,0:0:0:0:
475,192,97496,1,0,0:0:0:0:
109,192,97538,1,0,0:0:0:0:
182,192,97581,1,0,0:0:0:0:
256,192,97623,1,0,0:0:0:0:
329,192,97666,1,0,0:0:0:0:
402,192,97709,1,0,0:0:0:0:
475,192,97751,1,0,0:0:0:0:
36,192,97751,1,0,0:0:0:0:
109,192,97794,1,0,0:0:0:0:
182,192,97836,1,0,0:0:0:0:
256,192,97879,1,0,0:0:0:0:
36,192,97922,1,0,0:0:0:0:
475,192,97922,1,0,0:0:0:0:
329,192,97922,1,0,0:0:0:0:
475,192,98092,128,0,98348:0:0:0:0:
256,192,98263,1,0,0:0:0:0:
329,192,98348,128,0,98604:0:0:0:0:
109,192,98518,1,0,0:0:0:0:
182,192,98604,128,0,98859:0:0:0:0:
475,192,98774,1,0,0:0:0:0:
329,192,98774,1,0,0:0:0:0:
36,192,98859,128,0,99285:0:0:0:0:
475,192,98944,1,0,0:0:0:0:
329,192,98944,1,0,0:0:0:0:
402,192,99030,1,0,0:0:0:0:
182,192,99115,128,0,99285:0:0:0:0:
329,192,99115,1,0,0:0:0:0:
475,192,99285,1,0,0:0:0:0:
109,192,99285,1,0,0:0:0:0:
402,192,99371,1,0,0:0:0:0:
329,192,99456,1,0,0:0:0:0:
36,192,99626,1,0,0:0:0:0:
475,192,99626,1,0,0:0:0:0:
109,192,99711,1,0,0:0:0:0:
256,192,99797,1,0,0:0:0:0:
475,192,99882,1,0,0:0:0:0:
402,192,99967,1,0,0:0:0:0:
36,192,99967,1,0,0:0:0:0:
109,192,100138,1,0,0:0:0:0:
182,192,100223,1,0,0:0:0:0:
402,192,100223,1,0,0:0:0:0:
475,192,100308,1,0,0:0:0:0:
256,192,100308,1,0,0:0:0:0:
109,192,100393,1,0,0:0:0:0:
182,192,100479,1,0,0:0:0:0:
402,192,100479,1,0,0:0:0:0:
36,192,100649,1,0,0:0:0:0:
475,192,100649,1,0,0:0:0:0:
109,192,100734,1,0,0:0:0:0:
182,192,100819,1,0,0:0:0:0:
402,192,100819,1,0,0:0:0:0:
36,192,100990,1,0,0:0:0:0:
475,192,100990,1,0,0:0:0:0:
109,192,101075,1,0,0:0:0:0:
329,192,101075,1,0,0:0:0:0:
36,192,101246,1,0,0:0:0:0:
475,192,101246,1,0,0:0:0:0:
109,192,101331,1,0,0:0:0:0:
329,192,101331,1,0,0:0:0:0:
475,192,101501,1,0,0:0:0:0:
36,192,101501,1,0,0:0:0:0:
402,192,101586,1,0,0:0:0:0:
182,192,101586,1,0,0:0:0:0:
36,192,101757,1,0,0:0:0:0:
475,192,101757,1,0,0:0:0:0:
182,192,101842,1,0,0:0:0:0:
402,192,101842,1,0,0:0:0:0:
36,192,102013,1,0,0:0:0:0:
475,192,102013,1,0,0:0:0:0:
182,192,102183,128,0,102354:0:0:0:0:
36,192,102354,1,0,0:0:0:0:
475,192,102354,1,0,0:0:0:0:
329,192,102524,128,0,102694:0:0:0:0:
36,192,102694,1,0,0:0:0:0:
475,192,102694,1,0,0:0:0:0:
182,192,102865,1,0,0:0:0:0:
256,192,102950,1,0,0:0:0:0:
402,192,102950,1,0,0:0:0:0:
36,192,103035,1,0,0:0:0:0:
182,192,103035,1,0,0:0:0:0:
475,192,103121,1,0,0:0:0:0:
402,192,103206,1,0,0:0:0:0:
256,192,103206,1,0,0:0:0:0:
36,192,103376,1,0,0:0:0:0:
475,192,103376,1,0,0:0:0:0:
109,192,103461,1,0,0:0:0:0:
182,192,103547,1,0,0:0:0:0:
109,192,103717,1,0,0:0:0:0:
475,192,103717,1,0,0:0:0:0:
182,192,103802,1,0,0:0:0:0:
329,192,103802,1,0,0:0:0:0:
182,192,103973,1,0,0:0:0:0:
256,192,104058,1,0,0:0:0:0:
402,192,104058,1,0,0:0:0:0:
109,192,104229,1,0,0:0:0:0:
182,192,104314,1,0,0:0:0:0:
329,192,104314,1,0,0:0:0:0:
36,192,104399,1,0,0:0:0:0:
475,192,104399,1,0,0:0:0:0:
402,192,104484,1,0,0:0:0:0:
329,192,104569,1,0,0:0:0:0:
182,192,104569,1,0,0:0:0:0:
36,192,104740,1,0,0:0:0:0:
256,192,104740,1,0,0:0:0:0:
475,192,104740,1,0,0:0:0:0:
182,192,104910,1,0,0:0:0:0:
36,192,105081,1,0,0:0:0:0:
256,192,105081,1,0,0:0:0:0:
475,192,105081,1,0,0:0:0:0:
329,192,105251,1,0,0:0:0:0:
36,192,105422,1,0,0:0:0:0:
256,192,105422,1,0,0:0:0:0:
475,192,105422,1,0,0:0:0:0:
182,192,105592,1,0,0:0:0:0:
475,192,105592,1,0,0:0:0:0:
36,192,105677,1,0,0:0:0:0:
329,192,105677,1,0,0:0:0:0:
182,192,105848,1,0,0:0:0:0:
475,192,105848,1,0,0:0:0:0:
36,192,105933,1,0,0:0:0:0:
329,192,105933,1,0,0:0:0:0:
109,192,106104,1,0,0:0:0:0:
182,192,106104,1,0,0:0:0:0:
402,192,106104,1,0,0:0:0:0:
109,192,106274,1,0,0:0:0:0:
182,192,106274,1,0,0:0:0:0:
402,192,106274,1,0,0:0:0:0:
36,192,106444,1,0,0:0:0:0:
256,192,106444,1,0,0:0:0:0:
475,192,106444,1,0,0:0:0:0:
36,192,106615,1,0,0:0:0:0:
256,192,106615,1,0,0:0:0:0:
475,192,106615,1,0,0:0:0:0:
109,192,106785,1,0,0:0:0:0:
256,192,106785,1,0,0:0:0:0:
402,192,106785,1,0,0:0:0:0:
36,192,106956,1,0,0:0:0:0:
329,192,106956,1,0,0:0:0:0:
182,192,107041,1,0,0:0:0:0:
475,192,107041,1,0,0:0:0:0:
36,192,107211,1,0,0:0:0:0:
329,192,107211,1,0,0:0:0:0:
182,192,107297,1,0,0:0:0:0:
475,192,107297,1,0,0:0:0:0:
36,192,107467,1,0,0:0:0:0:
182,192,107467,1,0,0:0:0:0:
256,192,107552,1,0,0:0:0:0:
329,192,107638,1,0,0:0:0:0:
475,192,107638,1,0,0:0:0:0:
256,192,107723,1,0,0:0:0:0:
36,192,107808,1,0,0:0:0:0:
182,192,107808,1,0,0:0:0:0:
256,192,107893,1,0,0:0:0:0:
329,192,107979,1,0,0:0:0:0:
475,192,107979,1,0,0:0:0:0:
256,192,108064,1,0,0:0:0:0:
36,192,108149,1,0,0:0:0:0:
182,192,108149,1,0,0:0:0:0:
329,192,108234,1,0,0:0:0:0:
475,192,108234,1,0,0:0:0:0:
36,192,108319,1,0,0:0:0:0:
182,192,108319,1,0,0:0:0:0:
329,192,108405,1,0,0:0:0:0:
475,192,108405,1,0,0:0:0:0:
36,192,108490,1,0,0:0:0:0:
182,192,108490,1,0,0:0:0:0:
329,192,108575,1,0,0:0:0:0:
475,192,108575,1,0,0:0:0:0:
182,192,108660,1,0,0:0:0:0:
36,192,108660,1,0,0:0:0:0:
329,192,108746,1,0,0:0:0:0:
475,192,108746,1,0,0:0:0:0:
36,192,108831,1,0,0:0:0:0:
182,192,108831,1,0,0:0:0:0:
256,192,108916,1,0,0:0:0:0:
329,192,109001,1,0,0:0:0:0:
475,192,109001,128,0,109257:0:0:0:0:
182,192,109172,1,0,0:0:0:0:
256,192,109257,1,0,0:0:0:0:
402,192,109257,128,0,109513:0:0:0:0:
256,192,109427,1,0,0:0:0:0:
109,192,109513,128,0,109768:0:0:0:0:
182,192,109513,1,0,0:0:0:0:
329,192,109683,1,0,0:0:0:0:
182,192,109768,128,0,110024:0:0:0:0:
256,192,109768,1,0,0:0:0:0:
402,192,109939,1,0,0:0:0:0:
256,192,110024,128,0,110194:0:0:0:0:
329,192,110024,1,0,0:0:0:0:
402,192,110194,128,0,110365:0:0:0:0:
109,192,110365,128,0,110535:0:0:0:0:
36,192,110535,1,0,0:0:0:0:
475,192,110535,1,0,0:0:0:0:
329,192,110535,1,0,0:0:0:0:
109,192,110706,128,0,110876:0:0:0:0:
256,192,110706,1,0,0:0:0:0:
36,192,110876,1,0,0:0:0:0:
475,192,110876,1,0,0:0:0:0:
109,192,111047,128,0,111217:0:0:0:0:
329,192,111047,1,0,0:0:0:0:
36,192,111217,1,0,0:0:0:0:
475,192,111217,1,0,0:0:0:0:
109,192,111388,128,0,111558:0:0:0:0:
256,192,111388,1,0,0:0:0:0:
329,192,111558,1,0,0:0:0:0:
475,192,111558,1,0,0:0:0:0:
109,192,111729,128,0,111899:0:0:0:0:
182,192,111729,1,0,0:0:0:0:
36,192,111899,1,0,0:0:0:0:
402,192,111899,1,0,0:0:0:0:
109,192,112069,128,0,112240:0:0:0:0:
256,192,112069,1,0,0:0:0:0:
329,192,112240,1,0,0:0:0:0:
475,192,112240,1,0,0:0:0:0:
109,192,112410,128,0,112581:0:0:0:0:
182,192,112410,1,0,0:0:0:0:
256,192,112581,1,0,0:0:0:0:
402,192,112581,1,0,0:0:0:0:
109,192,112751,128,0,112922:0:0:0:0:
329,192,112751,1,0,0:0:0:0:
36,192,112922,1,0,0:0:0:0:
475,192,112922,1,0,0:0:0:0:
109,192,113092,128,0,113263:0:0:0:0:
402,192,113092,1,0,0:0:0:0:
329,192,113263,1,0,0:0:0:0:
36,192,113263,1,0,0:0:0:0:
109,192,113433,128,0,113604:0:0:0:0:
256,192,113433,1,0,0:0:0:0:
36,192,113604,1,0,0:0:0:0:
475,192,113604,1,0,0:0:0:0:
109,192,113774,128,0,113944:0:0:0:0:
329,192,113774,1,0,0:0:0:0:
36,192,113944,1,0,0:0:0:0:
475,192,113944,1,0,0:0:0:0:
109,192,114115,128,0,114285:0:0:0:0:
256,192,114115,1,0,0:0:0:0:
182,192,114285,1,0,0:0:0:0:
402,192,114285,1,0,0:0:0:0:
109,192,114456,128,0,114626:0:0:0:0:
329,192,114456,1,0,0:0:0:0:
256,192,114626,1,0,0:0:0:0:
475,192,114626,1,0,0:0:0:0:
109,192,114797,128,0,114967:0:0:0:0:
402,192,114797,1,0,0:0:0:0:
329,192,114967,1,0,0:0:0:0:
36,192,114967,1,0,0:0:0:0:
475,192,115138,128,0,115308:0:0:0:0:
109,192,115138,128,0,115308:0:0:0:0:
329,192,115308,1,0,0:0:0:0:
36,192,115308,1,0,0:0:0:0:
475,192,115479,128,0,115649:0:0:0:0:
109,192,115479,128,0,115649:0:0:0:0:
36,192,115649,1,0,0:0:0:0:
329,192,115649,1,0,0:0:0:0:
109,192,115819,128,0,115990:0:0:0:0:
256,192,115819,1,0,0:0:0:0:
182,192,115990,1,0,0:0:0:0:
475,192,115990,1,0,0:0:0:0:
109,192,116160,128,0,116331:0:0:0:0:
402,192,116160,1,0,0:0:0:0:
329,192,116331,1,0,0:0:0:0:
36,192,116331,1,0,0:0:0:0:
109,192,116501,128,0,116672:0:0:0:0:
256,192,116501,1,0,0:0:0:0:
182,192,116672,1,0,0:0:0:0:
402,192,116672,1,0,0:0:0:0:
109,192,116842,128,0,117013:0:0:0:0:
329,192,116842,1,0,0:0:0:0:
256,192,117013,1,0,0:0:0:0:
36,192,117013,1,0,0:0:0:0:
109,192,117183,128,0,117354:0:0:0:0:
475,192,117183,1,0,0:0:0:0:
402,192,117354,1,0,0:0:0:0:
182,192,117354,1,0,0:0:0:0:
109,192,117524,128,0,117694:0:0:0:0:
256,192,117524,1,0,0:0:0:0:
36,192,117694,1,0,0:0:0:0:
475,192,117694,1,0,0:0:0:0:
109,192,117865,128,0,118035:0:0:0:0:
329,192,117865,1,0,0:0:0:0:
182,192,118035,1,0,0:0:0:0:
475,192,118035,1,0,0:0:0:0:
109,192,118206,128,0,118376:0:0:0:0:
256,192,118206,1,0,0:0:0:0:
36,192,118376,1,0,0:0:0:0:
329,192,118376,1,0,0:0:0:0:
109,192,118547,128,0,118717:0:0:0:0:
182,192,118547,1,0,0:0:0:0:
475,192,118717,1,0,0:0:0:0:
329,192,118717,1,0,0:0:0:0:
109,192,118888,128,0,119058:0:0:0:0:
256,192,118888,1,0,0:0:0:0:
36,192,119058,1,0,0:0:0:0:
402,192,119058,1,0,0:0:0:0:
109,192,119229,128,0,119399:0:0:0:0:
182,192,119229,1,0,0:0:0:0:
256,192,119399,1,0,0:0:0:0:
475,192,119399,1,0,0:0:0:0:
109,192,119569,128,0,119740:0:0:0:0:
402,192,119569,1,0,0:0:0:0:
329,192,119740,1,0,0:0:0:0:
36,192,119740,1,0,0:0:0:0:
182,192,119740,1,0,0:0:0:0:
329,192,119910,1,0,0:0:0:0:
475,192,119910,1,0,0:0:0:0:
329,192,120166,1,0,0:0:0:0:
475,192,120166,1,0,0:0:0:0:
475,192,120336,1,0,0:0:0:0:
329,192,120336,1,0,0:0:0:0:
182,192,120592,1,0,0:0:0:0:
36,192,120592,1,0,0:0:0:0:
36,192,120933,1,0,0:0:0:0:
182,192,120933,1,0,0:0:0:0:
36,192,121104,1,0,0:0:0:0:
256,192,121104,1,0,0:0:0:0:
475,192,121104,1,0,0:0:0:0:
109,192,121274,128,0,121444:0:0:0:0:
329,192,121274,1,0,0:0:0:0:
182,192,121444,1,0,0:0:0:0:
475,192,121444,1,0,0:0:0:0:
402,192,121615,1,0,0:0:0:0:
109,192,121615,128,0,121785:0:0:0:0:
329,192,121785,1,0,0:0:0:0:
36,192,121785,1,0,0:0:0:0:
109,192,121956,128,0,122126:0:0:0:0:
182,192,121956,1,0,0:0:0:0:
256,192,122126,1,0,0:0:0:0:
475,192,122126,1,0,0:0:0:0:
109,192,122297,128,0,122467:0:0:0:0:
402,192,122297,1,0,0:0:0:0:
329,192,122467,1,0,0:0:0:0:
36,192,122467,1,0,0:0:0:0:
109,192,122638,128,0,122808:0:0:0:0:
475,192,122638,1,0,0:0:0:0:
402,192,122808,1,0,0:0:0:0:
182,192,122808,1,0,0:0:0:0:
109,192,122979,128,0,123149:0:0:0:0:
329,192,122979,1,0,0:0:0:0:
256,192,123149,1,0,0:0:0:0:
36,192,123149,1,0,0:0:0:0:
402,192,123319,128,0,123490:0:0:0:0:
256,192,123490,1,0,0:0:0:0:
36,192,123490,1,0,0:0:0:0:
402,192,123660,1,0,0:0:0:0:
256,192,123746,1,0,0:0:0:0:
36,192,123831,1,0,0:0:0:0:
475,192,123831,1,0,0:0:0:0:
109,192,124001,128,0,124172:0:0:0:0:
402,192,124001,1,0,0:0:0:0:
329,192,124172,1,0,0:0:0:0:
36,192,124172,1,0,0:0:0:0:
256,192,124257,1,0,0:0:0:0:
109,192,124342,128,0,124513:0:0:0:0:
182,192,124342,1,0,0:0:0:0:
329,192,124427,1,0,0:0:0:0:
256,192,124513,1,0,0:0:0:0:
475,192,124513,1,0,0:0:0:0:
109,192,124683,128,0,124854:0:0:0:0:
402,192,124683,1,0,0:0:0:0:
329,192,124768,1,0,0:0:0:0:
36,192,124854,1,0,0:0:0:0:
256,192,124854,1,0,0:0:0:0:
182,192,124939,1,0,0:0:0:0:
109,192,125024,128,0,125194:0:0:0:0:
36,192,125194,1,0,0:0:0:0:
475,192,125194,1,0,0:0:0:0:
256,192,125194,1,0,0:0:0:0:
256,192,125365,1,0,0:0:0:0:
109,192,125535,1,0,0:0:0:0:
402,192,125535,1,0,0:0:0:0:
329,192,125706,1,0,0:0:0:0:
182,192,125791,1,0,0:0:0:0:
36,192,125876,1,0,0:0:0:0:
475,192,125876,1,0,0:0:0:0:
256,192,126047,128,0,126217:0:0:0:0:
36,192,126217,1,0,0:0:0:0:
475,192,126217,1,0,0:0:0:0:
256,192,126388,128,0,126558:0:0:0:0:
475,192,126558,1,0,0:0:0:0:
36,192,126558,1,0,0:0:0:0:
109,192,126729,128,0,126899:0:0:0:0:
329,192,126729,1,0,0:0:0:0:
182,192,126899,1,0,0:0:0:0:
475,192,126899,1,0,0:0:0:0:
109,192,127069,128,0,127240:0:0:0:0:
256,192,127069,1,0,0:0:0:0:
36,192,127240,1,0,0:0:0:0:
402,192,127240,1,0,0:0:0:0:
109,192,127410,128,0,127581:0:0:0:0:
329,192,127410,1,0,0:0:0:0:
182,192,127581,1,0,0:0:0:0:
475,192,127581,1,0,0:0:0:0:
109,192,127751,128,0,127922:0:0:0:0:
329,192,127751,1,0,0:0:0:0:
256,192,127922,1,0,0:0:0:0:
36,192,127922,1,0,0:0:0:0:
402,192,128092,128,0,128263:0:0:0:0:
36,192,128263,1,0,0:0:0:0:
256,192,128263,1,0,0:0:0:0:
329,192,128433,128,0,128604:0:0:0:0:
36,192,128604,1,0,0:0:0:0:
475,192,128604,1,0,0:0:0:0:
256,192,128774,128,0,128944:0:0:0:0:
36,192,128944,1,0,0:0:0:0:
475,192,128944,1,0,0:0:0:0:
329,192,128944,1,0,0:0:0:0:
109,192,129115,1,0,0:0:0:0:
182,192,129200,1,0,0:0:0:0:
256,192,129285,1,0,0:0:0:0:
475,192,129285,1,0,0:0:0:0:
475,192,129456,1,0,0:0:0:0:
256,192,129456,1,0,0:0:0:0:
36,192,129626,1,0,0:0:0:0:
182,192,129626,1,0,0:0:0:0:
182,192,129797,1,0,0:0:0:0:
36,192,129797,1,0,0:0:0:0:
329,192,129967,1,0,0:0:0:0:
402,192,129967,1,0,0:0:0:0:
109,192,130052,1,0,0:0:0:0:
182,192,130052,1,0,0:0:0:0:
329,192,130138,1,0,0:0:0:0:
402,192,130138,1,0,0:0:0:0:
182,192,130223,1,0,0:0:0:0:
109,192,130223,1,0,0:0:0:0:
329,192,130308,1,0,0:0:0:0:
402,192,130308,1,0,0:0:0:0:
182,192,130393,1,0,0:0:0:0:
109,192,130393,1,0,0:0:0:0:
329,192,130479,1,0,0:0:0:0:
402,192,130479,1,0,0:0:0:0:
182,192,130564,1,0,0:0:0:0:
109,192,130564,1,0,0:0:0:0:
36,192,130649,1,0,0:0:0:0:
256,192,130649,1,0,0:0:0:0:
475,192,130649,1,0,0:0:0:0:
182,192,130819,1,0,0:0:0:0:
402,192,130990,1,0,0:0:0:0:
109,192,131160,1,0,0:0:0:0:
256,192,131246,1,0,0:0:0:0:
402,192,131331,1,0,0:0:0:0:
36,192,131501,1,0,0:0:0:0:
256,192,131501,1,0,0:0:0:0:
475,192,131501,1,0,0:0:0:0:
36,192,131672,1,0,0:0:0:0:
256,192,131672,1,0,0:0:0:0:
475,192,131672,1,0,0:0:0:0:
182,192,131842,1,0,0:0:0:0:
329,192,131842,1,0,0:0:0:0:
475,192,132013,1,0,0:0:0:0:
256,192,132013,1,0,0:0:0:0:
36,192,132013,1,0,0:0:0:0:
109,192,132694,128,0,133376:0:0:0:0:
182,192,133376,128,0,134058:0:0:0:0:
329,192,134058,128,0,134740:0:0:0:0:
402,192,134740,128,0,137467:0:0:0:0:
36,192,134740,1,0,0:0:0:0:
182,192,135081,128,0,135422:0:0:0:0:
36,192,135422,128,0,135677:0:0:0:0:
182,192,135677,128,0,135933:0:0:0:0:
329,192,135933,128,0,136104:0:0:0:0:
36,192,136274,128,0,136530:0:0:0:0:
109,192,136530,128,0,136785:0:0:0:0:
256,192,136785,128,0,137041:0:0:0:0:
182,192,137041,128,0,137297:0:0:0:0:
109,192,137297,128,0,137467:0:0:0:0:
36,192,137467,128,0,138831:0:0:0:0:
256,192,137467,128,0,137638:0:0:0:0:
475,192,137638,128,0,137808:0:0:0:0:
256,192,137808,128,0,137979:0:0:0:0:
475,192,137979,128,0,138149:0:0:0:0:
329,192,138149,128,0,138405:0:0:0:0:
256,192,138405,128,0,138660:0:0:0:0:
182,192,138660,128,0,138831:0:0:0:0:
475,192,138831,128,0,140194:0:0:0:0:
329,192,139001,128,0,139257:0:0:0:0:
256,192,139257,128,0,139513:0:0:0:0:
36,192,139513,128,0,139768:0:0:0:0:
109,192,139768,128,0,140024:0:0:0:0:
182,192,140024,128,0,140194:0:0:0:0:
329,192,140194,128,0,140365:0:0:0:0:
109,192,140365,128,0,140535:0:0:0:0:
329,192,140535,128,0,140706:0:0:0:0:
109,192,140706,128,0,140876:0:0:0:0:
329,192,140876,128,0,141132:0:0:0:0:
256,192,141132,128,0,141388:0:0:0:0:
182,192,141388,128,0,141558:0:0:0:0:
36,192,141558,1,0,0:0:0:0:
329,192,141558,1,0,0:0:0:0:
475,192,141558,1,0,0:0:0:0:
182,192,141729,128,0,141984:0:0:0:0:
256,192,141984,128,0,142240:0:0:0:0:
329,192,142240,128,0,142496:0:0:0:0:
475,192,142240,1,0,0:0:0:0:
36,192,142410,1,0,0:0:0:0:
256,192,142496,128,0,142751:0:0:0:0:
475,192,142581,1,0,0:0:0:0:
402,192,142666,1,0,0:0:0:0:
182,192,142751,128,0,142922:0:0:0:0:
329,192,142751,1,0,0:0:0:0:
402,192,142836,1,0,0:0:0:0:
475,192,142922,1,0,0:0:0:0:
36,192,142922,1,0,0:0:0:0:
109,192,143007,1,0,0:0:0:0:
182,192,143092,1,0,0:0:0:0:
475,192,143263,1,0,0:0:0:0:
36,192,143263,1,0,0:0:0:0:
402,192,143348,1,0,0:0:0:0:
36,192,143518,1,0,0:0:0:0:
109,192,143604,1,0,0:0:0:0:
475,192,143604,1,0,0:0:0:0:
329,192,143774,1,0,0:0:0:0:
256,192,143859,1,0,0:0:0:0:
475,192,143944,1,0,0:0:0:0:
36,192,143944,1,0,0:0:0:0:
109,192,144030,1,0,0:0:0:0:
182,192,144115,1,0,0:0:0:0:
36,192,144285,1,0,0:0:0:0:
475,192,144285,1,0,0:0:0:0:
402,192,144371,1,0,0:0:0:0:
329,192,144456,1,0,0:0:0:0:
36,192,144626,1,0,0:0:0:0:
475,192,144626,1,0,0:0:0:0:
109,192,144711,1,0,0:0:0:0:
329,192,144711,1,0,0:0:0:0:
475,192,144882,1,0,0:0:0:0:
402,192,144967,1,0,0:0:0:0:
182,192,144967,1,0,0:0:0:0:
36,192,145138,1,0,0:0:0:0:
109,192,145223,1,0,0:0:0:0:
329,192,145223,1,0,0:0:0:0:
182,192,145308,1,0,0:0:0:0:
402,192,145308,1,0,0:0:0:0:
36,192,145393,1,0,0:0:0:0:
109,192,145479,1,0,0:0:0:0:
329,192,145479,1,0,0:0:0:0:
329,192,145649,1,0,0:0:0:0:
109,192,145649,1,0,0:0:0:0:
475,192,145649,1,0,0:0:0:0:
36,192,145990,1,0,0:0:0:0:
256,192,145990,1,0,0:0:0:0:
36,192,146331,1,0,0:0:0:0:
475,192,146331,1,0,0:0:0:0:
402,192,146501,1,0,0:0:0:0:
329,192,146586,1,0,0:0:0:0:
109,192,146586,1,0,0:0:0:0:
36,192,146672,1,0,0:0:0:0:
182,192,146672,1,0,0:0:0:0:
402,192,146757,1,0,0:0:0:0:
329,192,146842,1,0,0:0:0:0:
109,192,146842,1,0,0:0:0:0:
36,192,147013,1,0,0:0:0:0:
475,192,147013,1,0,0:0:0:0:
109,192,147098,1,0,0:0:0:0:
182,192,147183,1,0,0:0:0:0:
36,192,147354,1,0,0:0:0:0:
475,192,147354,1,0,0:0:0:0:
402,192,147439,1,0,0:0:0:0:
256,192,147439,1,0,0:0:0:0:
109,192,147609,1,0,0:0:0:0:
182,192,147694,1,0,0:0:0:0:
329,192,147694,1,0,0:0:0:0:
36,192,147865,1,0,0:0:0:0:
475,192,147865,1,0,0:0:0:0:
402,192,147865,1,0,0:0:0:0:
109,192,147950,1,0,0:0:0:0:
256,192,147950,1,0,0:0:0:0:
402,192,148035,1,0,0:0:0:0:
475,192,148035,1,0,0:0:0:0:
36,192,148206,1,0,0:0:0:0:
475,192,148206,1,0,0:0:0:0:
109,192,148248,1,0,0:0:0:0:
182,192,148291,1,0,0:0:0:0:
256,192,148376,1,0,0:0:0:0:
475,192,148376,1,0,0:0:0:0:
36,192,148376,1,0,0:0:0:0:
36,192,148547,1,0,0:0:0:0:
475,192,148547,1,0,0:0:0:0:
256,192,148547,1,0,0:0:0:0:
109,192,148717,1,0,0:0:0:0:
402,192,148717,1,0,0:0:0:0:
256,192,148717,1,0,0:0:0:0:
109,192,148888,1,0,0:0:0:0:
402,192,148888,1,0,0:0:0:0:
256,192,148888,1,0,0:0:0:0:
36,192,149058,1,0,0:0:0:0:
475,192,149058,1,0,0:0:0:0:
329,192,149058,128,0,149314:0:0:0:0:
256,192,149314,128,0,149569:0:0:0:0:
475,192,149314,1,0,0:0:0:0:
36,192,149314,1,0,0:0:0:0:
182,192,149569,128,0,149740:0:0:0:0:
475,192,149569,1,0,0:0:0:0:
36,192,149569,1,0,0:0:0:0:
329,192,149740,1,0,0:0:0:0:
402,192,149740,1,0,0:0:0:0:
109,192,149740,1,0,0:0:0:0:
402,192,149910,1,0,0:0:0:0:
329,192,149910,1,0,0:0:0:0:
109,192,149910,1,0,0:0:0:0:
36,192,150081,1,0,0:0:0:0:
256,192,150081,1,0,0:0:0:0:
182,192,150081,1,0,0:0:0:0:
182,192,150251,1,0,0:0:0:0:
36,192,150251,1,0,0:0:0:0:
256,192,150251,1,0,0:0:0:0:
109,192,150422,1,0,0:0:0:0:
329,192,150422,128,0,150677:0:0:0:0:
475,192,150422,1,0,0:0:0:0:
182,192,150592,1,0,0:0:0:0:
256,192,150677,128,0,150933:0:0:0:0:
475,192,150677,1,0,0:0:0:0:
36,192,150677,1,0,0:0:0:0:
109,192,150848,1,0,0:0:0:0:
182,192,150933,128,0,151104:0:0:0:0:
36,192,150933,1,0,0:0:0:0:
475,192,150933,1,0,0:0:0:0:
36,192,151104,1,0,0:0:0:0:
475,192,151104,1,0,0:0:0:0:
402,192,151104,1,0,0:0:0:0:
109,192,151189,1,0,0:0:0:0:
182,192,151274,1,0,0:0:0:0:
402,192,151274,1,0,0:0:0:0:
256,192,151359,1,0,0:0:0:0:
109,192,151444,1,0,0:0:0:0:
475,192,151444,1,0,0:0:0:0:
36,192,151444,1,0,0:0:0:0:
182,192,151530,1,0,0:0:0:0:
256,192,151615,1,0,0:0:0:0:
36,192,151615,1,0,0:0:0:0:
329,192,151700,1,0,0:0:0:0:
475,192,151785,1,0,0:0:0:0:
402,192,151785,1,0,0:0:0:0:
36,192,151871,1,0,0:0:0:0:
109,192,151871,1,0,0:0:0:0:
329,192,151956,1,0,0:0:0:0:
402,192,151956,1,0,0:0:0:0:
109,192,152041,1,0,0:0:0:0:
182,192,152041,1,0,0:0:0:0:
402,192,152126,1,0,0:0:0:0:
475,192,152126,1,0,0:0:0:0:
36,192,152211,1,0,0:0:0:0:
109,192,152211,1,0,0:0:0:0:
329,192,152297,1,0,0:0:0:0:
402,192,152297,1,0,0:0:0:0:
182,192,152382,1,0,0:0:0:0:
109,192,152382,1,0,0:0:0:0:
36,192,152467,1,0,0:0:0:0:
256,192,152467,1,0,0:0:0:0:
475,192,152467,1,0,0:0:0:0:
182,192,152638,128,0,152808:0:0:0:0:
329,192,152808,128,0,152979:0:0:0:0:
182,192,152979,128,0,153149:0:0:0:0:
402,192,153149,128,0,153405:0:0:0:0:
256,192,153405,128,0,153660:0:0:0:0:
109,192,153660,128,0,153831:0:0:0:0:
36,192,153831,1,0,0:0:0:0:
475,192,153831,1,0,0:0:0:0:
402,192,153831,128,0,154172:0:0:0:0:
182,192,154001,1,0,0:0:0:0:
329,192,154172,128,0,154513:0:0:0:0:
36,192,154172,1,0,0:0:0:0:
475,192,154172,1,0,0:0:0:0:
182,192,154342,1,0,0:0:0:0:
36,192,154513,128,0,154768:0:0:0:0:
109,192,154513,1,0,0:0:0:0:
475,192,154513,1,0,0:0:0:0:
402,192,154683,1,0,0:0:0:0:
256,192,154768,128,0,155024:0:0:0:0:
475,192,154854,1,0,0:0:0:0:
109,192,154854,1,0,0:0:0:0:
329,192,154939,1,0,0:0:0:0:
475,192,155024,128,0,155194:0:0:0:0:
36,192,155024,1,0,0:0:0:0:
36,192,155194,1,0,0:0:0:0:
329,192,155194,1,0,0:0:0:0:
109,192,155280,1,0,0:0:0:0:
475,192,155365,128,0,155621:0:0:0:0:
182,192,155365,1,0,0:0:0:0:
36,192,155535,1,0,0:0:0:0:
402,192,155535,1,0,0:0:0:0:
329,192,155621,128,0,155876:0:0:0:0:
182,192,155706,1,0,0:0:0:0:
109,192,155791,1,0,0:0:0:0:
36,192,155876,128,0,156132:0:0:0:0:
475,192,155876,1,0,0:0:0:0:
256,192,155876,1,0,0:0:0:0:
402,192,156047,1,0,0:0:0:0:
182,192,156132,128,0,156388:0:0:0:0:
329,192,156217,1,0,0:0:0:0:
475,192,156217,1,0,0:0:0:0:
36,192,156302,1,0,0:0:0:0:
329,192,156388,128,0,156558:0:0:0:0:
109,192,156388,1,0,0:0:0:0:
475,192,156558,128,0,156899:0:0:0:0:
36,192,156558,1,0,0:0:0:0:
256,192,156558,1,0,0:0:0:0:
109,192,156643,1,0,0:0:0:0:
182,192,156729,1,0,0:0:0:0:
329,192,156899,128,0,157240:0:0:0:0:
36,192,156899,1,0,0:0:0:0:
402,192,156899,1,0,0:0:0:0:
182,192,157069,1,0,0:0:0:0:
36,192,157240,128,0,157496:0:0:0:0:
109,192,157240,1,0,0:0:0:0:
475,192,157240,1,0,0:0:0:0:
256,192,157410,1,0,0:0:0:0:
182,192,157496,128,0,157751:0:0:0:0:
109,192,157581,1,0,0:0:0:0:
475,192,157581,1,0,0:0:0:0:
402,192,157666,1,0,0:0:0:0:
329,192,157751,128,0,157922:0:0:0:0:
36,192,157751,1,0,0:0:0:0:
109,192,157922,1,0,0:0:0:0:
402,192,157922,1,0,0:0:0:0:
182,192,158007,1,0,0:0:0:0:
329,192,158092,128,0,158348:0:0:0:0:
256,192,158092,1,0,0:0:0:0:
36,192,158263,1,0,0:0:0:0:
475,192,158263,1,0,0:0:0:0:
402,192,158348,128,0,158604:0:0:0:0:
182,192,158433,1,0,0:0:0:0:
109,192,158518,1,0,0:0:0:0:
475,192,158604,128,0,158859:0:0:0:0:
36,192,158604,1,0,0:0:0:0:
256,192,158604,1,0,0:0:0:0:
182,192,158774,1,0,0:0:0:0:
402,192,158859,128,0,159115:0:0:0:0:
36,192,158944,1,0,0:0:0:0:
329,192,158944,1,0,0:0:0:0:
256,192,159030,1,0,0:0:0:0:
329,192,159115,128,0,159285:0:0:0:0:
182,192,159115,1,0,0:0:0:0:
182,192,159285,128,0,159626:0:0:0:0:
36,192,159285,1,0,0:0:0:0:
475,192,159285,1,0,0:0:0:0:
329,192,159456,1,0,0:0:0:0:
36,192,159626,128,0,159967:0:0:0:0:
475,192,159626,1,0,0:0:0:0:
256,192,159626,1,0,0:0:0:0:
329,192,159797,1,0,0:0:0:0:
402,192,159967,128,0,160223:0:0:0:0:
109,192,159967,1,0,0:0:0:0:
256,192,159967,1,0,0:0:0:0:
182,192,160138,1,0,0:0:0:0:
329,192,160223,128,0,160479:0:0:0:0:
36,192,160308,1,0,0:0:0:0:
475,192,160308,1,0,0:0:0:0:
109,192,160393,1,0,0:0:0:0:
256,192,160479,128,0,160649:0:0:0:0:
182,192,160479,1,0,0:0:0:0:
475,192,160649,1,0,0:0:0:0:
36,192,160649,1,0,0:0:0:0:
402,192,160734,1,0,0:0:0:0:
256,192,160819,128,0,161075:0:0:0:0:
329,192,160819,1,0,0:0:0:0:
36,192,160990,1,0,0:0:0:0:
475,192,160990,1,0,0:0:0:0:
109,192,161075,128,0,161331:0:0:0:0:
402,192,161160,1,0,0:0:0:0:
329,192,161246,1,0,0:0:0:0:
256,192,161331,128,0,161586:0:0:0:0:
475,192,161331,1,0,0:0:0:0:
182,192,161331,1,0,0:0:0:0:
402,192,161501,1,0,0:0:0:0:
109,192,161586,128,0,161842:0:0:0:0:
329,192,161586,1,0,0:0:0:0:
475,192,161672,1,0,0:0:0:0:
182,192,161672,1,0,0:0:0:0:
402,192,161757,1,0,0:0:0:0:
329,192,161842,128,0,162013:0:0:0:0:
256,192,161842,1,0,0:0:0:0:
475,192,162013,128,0,162354:0:0:0:0:
36,192,162013,1,0,0:0:0:0:
182,192,162013,1,0,0:0:0:0:
109,192,162183,1,0,0:0:0:0:
329,192,162354,128,0,162694:0:0:0:0:
256,192,162354,1,0,0:0:0:0:
36,192,162354,1,0,0:0:0:0:
402,192,162524,1,0,0:0:0:0:
36,192,162694,128,0,162950:0:0:0:0:
182,192,162694,1,0,0:0:0:0:
475,192,162694,1,0,0:0:0:0:
256,192,162865,1,0,0:0:0:0:
182,192,162950,128,0,163206:0:0:0:0:
475,192,163035,1,0,0:0:0:0:
109,192,163035,1,0,0:0:0:0:
402,192,163121,1,0,0:0:0:0:
329,192,163206,128,0,163376:0:0:0:0:
36,192,163206,1,0,0:0:0:0:
109,192,163376,1,0,0:0:0:0:
475,192,163376,1,0,0:0:0:0:
182,192,163461,1,0,0:0:0:0:
329,192,163547,128,0,163802:0:0:0:0:
256,192,163547,1,0,0:0:0:0:
36,192,163717,1,0,0:0:0:0:
475,192,163717,1,0,0:0:0:0:
182,192,163802,128,0,164058:0:0:0:0:
402,192,163973,1,0,0:0:0:0:
36,192,164058,128,0,164314:0:0:0:0:
329,192,164058,1,0,0:0:0:0:
109,192,164058,1,0,0:0:0:0:
329,192,164229,1,0,0:0:0:0:
256,192,164314,128,0,164569:0:0:0:0:
475,192,164399,1,0,0:0:0:0:
109,192,164399,1,0,0:0:0:0:
182,192,164484,1,0,0:0:0:0:
109,192,164569,128,0,164740:0:0:0:0:
402,192,164569,1,0,0:0:0:0:
36,192,164740,1,0,0:0:0:0:
475,192,164740,1,0,0:0:0:0:
329,192,164740,128,0,165081:0:0:0:0:
256,192,164910,1,0,0:0:0:0:
182,192,165081,128,0,165422:0:0:0:0:
36,192,165081,1,0,0:0:0:0:
475,192,165081,1,0,0:0:0:0:
402,192,165251,1,0,0:0:0:0:
36,192,165422,128,0,165677:0:0:0:0:
256,192,165422,1,0,0:0:0:0:
475,192,165422,1,0,0:0:0:0:
182,192,165592,1,0,0:0:0:0:
109,192,165677,128,0,165933:0:0:0:0:
329,192,165763,1,0,0:0:0:0:
475,192,165763,1,0,0:0:0:0:
256,192,165848,1,0,0:0:0:0:
182,192,165933,128,0,166104:0:0:0:0:
402,192,165933,1,0,0:0:0:0:
475,192,166104,1,0,0:0:0:0:
36,192,166104,1,0,0:0:0:0:
402,192,166189,1,0,0:0:0:0:
182,192,166274,128,0,166530:0:0:0:0:
329,192,166274,1,0,0:0:0:0:
475,192,166444,1,0,0:0:0:0:
36,192,166444,1,0,0:0:0:0:
109,192,166530,128,0,166785:0:0:0:0:
329,192,166615,1,0,0:0:0:0:
256,192,166700,1,0,0:0:0:0:
36,192,166785,128,0,167041:0:0:0:0:
182,192,166785,1,0,0:0:0:0:
475,192,166785,1,0,0:0:0:0:
402,192,166956,1,0,0:0:0:0:
182,192,167041,128,0,167297:0:0:0:0:
256,192,167126,1,0,0:0:0:0:
475,192,167126,1,0,0:0:0:0:
402,192,167211,1,0,0:0:0:0:
329,192,167297,128,0,167467:0:0:0:0:
36,192,167297,1,0,0:0:0:0:
475,192,167467,128,0,167808:0:0:0:0:
109,192,167467,1,0,0:0:0:0:
256,192,167467,1,0,0:0:0:0:
182,192,167638,1,0,0:0:0:0:
329,192,167808,128,0,168149:0:0:0:0:
36,192,167808,1,0,0:0:0:0:
256,192,167808,1,0,0:0:0:0:
109,192,167979,1,0,0:0:0:0:
36,192,168149,128,0,168405:0:0:0:0:
182,192,168149,1,0,0:0:0:0:
475,192,168149,1,0,0:0:0:0:
402,192,168319,1,0,0:0:0:0:
109,192,168405,128,0,168660:0:0:0:0:
256,192,168490,1,0,0:0:0:0:
475,192,168490,1,0,0:0:0:0:
402,192,168575,1,0,0:0:0:0:
182,192,168660,128,0,168831:0:0:0:0:
329,192,168660,1,0,0:0:0:0:
36,192,168831,1,0,0:0:0:0:
475,192,168831,1,0,0:0:0:0:
402,192,168916,1,0,0:0:0:0:
182,192,169001,128,0,169257:0:0:0:0:
329,192,169001,1,0,0:0:0:0:
36,192,169172,1,0,0:0:0:0:
475,192,169172,1,0,0:0:0:0:
329,192,169257,128,0,169513:0:0:0:0:
109,192,169342,1,0,0:0:0:0:
182,192,169427,1,0,0:0:0:0:
475,192,169513,128,0,169768:0:0:0:0:
36,192,169513,1,0,0:0:0:0:
256,192,169513,1,0,0:0:0:0:
182,192,169683,1,0,0:0:0:0:
329,192,169768,128,0,170024:0:0:0:0:
36,192,169854,1,0,0:0:0:0:
475,192,169854,1,0,0:0:0:0:
109,192,169939,1,0,0:0:0:0:
182,192,170024,128,0,170194:0:0:0:0:
402,192,170024,1,0,0:0:0:0:
475,192,170194,128,0,170535:0:0:0:0:
36,192,170194,1,0,0:0:0:0:
256,192,170194,1,0,0:0:0:0:
109,192,170365,1,0,0:0:0:0:
329,192,170535,128,0,170876:0:0:0:0:
182,192,170535,1,0,0:0:0:0:
402,192,170535,1,0,0:0:0:0:
109,192,170706,1,0,0:0:0:0:
36,192,170876,128,0,171132:0:0:0:0:
256,192,170876,1,0,0:0:0:0:
475,192,170876,1,0,0:0:0:0:
256,192,171047,1,0,0:0:0:0:
182,192,171132,128,0,171388:0:0:0:0:
475,192,171217,1,0,0:0:0:0:
109,192,171217,1,0,0:0:0:0:
402,192,171302,1,0,0:0:0:0:
329,192,171388,128,0,171558:0:0:0:0:
36,192,171388,1,0,0:0:0:0:
109,192,171558,1,0,0:0:0:0:
475,192,171558,1,0,0:0:0:0:
182,192,171643,1,0,0:0:0:0:
329,192,171729,128,0,171984:0:0:0:0:
256,192,171729,1,0,0:0:0:0:
36,192,171899,1,0,0:0:0:0:
475,192,171899,1,0,0:0:0:0:
182,192,171984,128,0,172240:0:0:0:0:
256,192,172069,1,0,0:0:0:0:
402,192,172155,1,0,0:0:0:0:
329,192,172240,128,0,172496:0:0:0:0:
475,192,172240,1,0,0:0:0:0:
36,192,172240,1,0,0:0:0:0:
256,192,172410,1,0,0:0:0:0:
182,192,172496,128,0,172751:0:0:0:0:
36,192,172581,1,0,0:0:0:0:
475,192,172581,1,0,0:0:0:0:
402,192,172666,1,0,0:0:0:0:
329,192,172751,128,0,172922:0:0:0:0:
109,192,172751,1,0,0:0:0:0:
475,192,172922,128,0,173263:0:0:0:0:
36,192,172922,1,0,0:0:0:0:
256,192,172922,1,0,0:0:0:0:
109,192,173092,1,0,0:0:0:0:
36,192,173263,128,0,173604:0:0:0:0:
182,192,173263,1,0,0:0:0:0:
329,192,173263,1,0,0:0:0:0:
402,192,173433,1,0,0:0:0:0:
182,192,173604,128,0,173859:0:0:0:0:
329,192,173604,1,0,0:0:0:0:
475,192,173604,1,0,0:0:0:0:
402,192,173774,1,0,0:0:0:0:
329,192,173859,128,0,174115:0:0:0:0:
36,192,173944,1,0,0:0:0:0:
256,192,173944,1,0,0:0:0:0:
109,192,174030,1,0,0:0:0:0:
475,192,174115,128,0,174285:0:0:0:0:
182,192,174115,1,0,0:0:0:0:
36,192,174285,1,0,0:0:0:0:
256,192,174285,1,0,0:0:0:0:
402,192,174285,1,0,0:0:0:0:
109,192,174456,1,0,0:0:0:0:
182,192,174456,1,0,0:0:0:0:
329,192,174541,1,0,0:0:0:0:
402,192,174541,1,0,0:0:0:0:
109,192,174711,1,0,0:0:0:0:
182,192,174711,1,0,0:0:0:0:
329,192,174797,1,0,0:0:0:0:
402,192,174797,1,0,0:0:0:0:
36,192,174967,1,0,0:0:0:0:
475,192,174967,1,0,0:0:0:0:
36,192,175138,1,0,0:0:0:0:
475,192,175138,1,0,0:0:0:0:
182,192,175308,1,0,0:0:0:0:
329,192,175393,1,0,0:0:0:0:
182,192,175479,1,0,0:0:0:0:
329,192,175564,1,0,0:0:0:0:
36,192,175649,1,0,0:0:0:0:
475,192,175649,1,0,0:0:0:0:
256,192,175649,128,0,177013:0:0:0:0:
109,192,175819,1,0,0:0:0:0:
402,192,175819,1,0,0:0:0:0:
475,192,175990,1,0,0:0:0:0:
329,192,175990,1,0,0:0:0:0:
182,192,176160,1,0,0:0:0:0:
36,192,176160,1,0,0:0:0:0:
109,192,176331,1,0,0:0:0:0:
329,192,176331,1,0,0:0:0:0:
36,192,176501,1,0,0:0:0:0:
402,192,176501,1,0,0:0:0:0:
109,192,176586,1,0,0:0:0:0:
182,192,176672,1,0,0:0:0:0:
475,192,176672,1,0,0:0:0:0:
36,192,176757,1,0,0:0:0:0:
109,192,176842,1,0,0:0:0:0:
402,192,176842,1,0,0:0:0:0:
329,192,177013,128,0,177694:0:0:0:0:
475,192,177013,1,0,0:0:0:0:
36,192,177013,1,0,0:0:0:0:
109,192,177098,1,0,0:0:0:0:
182,192,177183,1,0,0:0:0:0:
402,192,177183,1,0,0:0:0:0:
182,192,177354,1,0,0:0:0:0:
475,192,177354,1,0,0:0:0:0:
109,192,177439,1,0,0:0:0:0:
402,192,177524,1,0,0:0:0:0:
36,192,177524,1,0,0:0:0:0:
182,192,177609,1,0,0:0:0:0:
402,192,177694,128,0,178376:0:0:0:0:
109,192,177694,1,0,0:0:0:0:
475,192,177694,1,0,0:0:0:0:
109,192,177865,1,0,0:0:0:0:
329,192,177865,1,0,0:0:0:0:
182,192,177950,1,0,0:0:0:0:
256,192,178035,1,0,0:0:0:0:
475,192,178035,1,0,0:0:0:0:
36,192,178121,1,0,0:0:0:0:
109,192,178206,1,0,0:0:0:0:
329,192,178206,1,0,0:0:0:0:
475,192,178376,128,0,181104:0:0:0:0:
36,192,178376,1,0,0:0:0:0:
256,192,178376,1,0,0:0:0:0:
109,192,178547,1,0,0:0:0:0:
329,192,178547,1,0,0:0:0:0:
182,192,178717,1,0,0:0:0:0:
36,192,178717,1,0,0:0:0:0:
256,192,178888,1,0,0:0:0:0:
402,192,178888,1,0,0:0:0:0:
36,192,179058,1,0,0:0:0:0:
402,192,179058,1,0,0:0:0:0:
182,192,179229,1,0,0:0:0:0:
402,192,179229,1,0,0:0:0:0:
256,192,179314,1,0,0:0:0:0:
329,192,179399,1,0,0:0:0:0:
36,192,179399,1,0,0:0:0:0:
109,192,179484,1,0,0:0:0:0:
182,192,179569,1,0,0:0:0:0:
402,192,179569,1,0,0:0:0:0:
36,192,179740,1,0,0:0:0:0:
256,192,179740,1,0,0:0:0:0:
109,192,179825,1,0,0:0:0:0:
182,192,179910,1,0,0:0:0:0:
402,192,179910,1,0,0:0:0:0:
36,192,180081,1,0,0:0:0:0:
329,192,180081,1,0,0:0:0:0:
109,192,180166,1,0,0:0:0:0:
182,192,180251,1,0,0:0:0:0:
402,192,180251,1,0,0:0:0:0:
36,192,180336,1,0,0:0:0:0:
109,192,180422,1,0,0:0:0:0:
329,192,180422,1,0,0:0:0:0:
182,192,180592,1,0,0:0:0:0:
402,192,180592,1,0,0:0:0:0:
109,192,180677,1,0,0:0:0:0:
36,192,180763,1,0,0:0:0:0:
329,192,180763,1,0,0:0:0:0:
182,192,180848,1,0,0:0:0:0:
109,192,180933,1,0,0:0:0:0:
402,192,180933,1,0,0:0:0:0:
329,192,181104,128,0,182467:0:0:0:0:
36,192,181104,1,0,0:0:0:0:
182,192,181104,1,0,0:0:0:0:
109,192,181274,1,0,0:0:0:0:
256,192,181274,1,0,0:0:0:0:
475,192,181444,1,0,0:0:0:0:
36,192,181444,1,0,0:0:0:0:
182,192,181615,1,0,0:0:0:0:
256,192,181615,1,0,0:0:0:0:
36,192,181785,1,0,0:0:0:0:
475,192,181785,1,0,0:0:0:0:
182,192,181956,1,0,0:0:0:0:
402,192,181956,1,0,0:0:0:0:
109,192,182041,1,0,0:0:0:0:
36,192,182126,1,0,0:0:0:0:
475,192,182126,1,0,0:0:0:0:
182,192,182211,1,0,0:0:0:0:
109,192,182297,1,0,0:0:0:0:
402,192,182297,1,0,0:0:0:0:
182,192,182467,128,0,183149:0:0:0:0:
36,192,182467,1,0,0:0:0:0:
475,192,182467,1,0,0:0:0:0:
402,192,182552,1,0,0:0:0:0:
329,192,182638,1,0,0:0:0:0:
109,192,182638,1,0,0:0:0:0:
475,192,182808,1,0,0:0:0:0:
36,192,182808,1,0,0:0:0:0:
402,192,182893,1,0,0:0:0:0:
36,192,182979,1,0,0:0:0:0:
256,192,182979,1,0,0:0:0:0:
329,192,183064,1,0,0:0:0:0:
109,192,183149,128,0,183831:0:0:0:0:
256,192,183149,1,0,0:0:0:0:
475,192,183149,1,0,0:0:0:0:
402,192,183319,1,0,0:0:0:0:
36,192,183319,1,0,0:0:0:0:
329,192,183405,1,0,0:0:0:0:
182,192,183490,1,0,0:0:0:0:
475,192,183490,1,0,0:0:0:0:
256,192,183575,1,0,0:0:0:0:
329,192,183660,1,0,0:0:0:0:
36,192,183660,1,0,0:0:0:0:
36,192,183831,128,0,185194:0:0:0:0:
182,192,183831,1,0,0:0:0:0:
475,192,183831,1,0,0:0:0:0:
256,192,184001,1,0,0:0:0:0:
109,192,184172,1,0,0:0:0:0:
402,192,184172,1,0,0:0:0:0:
329,192,184342,1,0,0:0:0:0:
182,192,184513,1,0,0:0:0:0:
475,192,184513,1,0,0:0:0:0:
402,192,184683,1,0,0:0:0:0:
109,192,184683,1,0,0:0:0:0:
329,192,184768,1,0,0:0:0:0:
182,192,184854,1,0,0:0:0:0:
475,192,184854,1,0,0:0:0:0:
256,192,184939,1,0,0:0:0:0:
329,192,185024,1,0,0:0:0:0:
475,192,185024,1,0,0:0:0:0:
402,192,185194,128,0,186558:0:0:0:0:
109,192,185194,1,0,0:0:0:0:
329,192,185194,1,0,0:0:0:0:
182,192,185280,1,0,0:0:0:0:
256,192,185365,1,0,0:0:0:0:
36,192,185535,1,0,0:0:0:0:
475,192,185535,1,0,0:0:0:0:
109,192,185621,1,0,0:0:0:0:
256,192,185706,1,0,0:0:0:0:
329,192,185706,1,0,0:0:0:0:
182,192,185791,1,0,0:0:0:0:
109,192,185876,1,0,0:0:0:0:
475,192,185876,1,0,0:0:0:0:
256,192,186047,1,0,0:0:0:0:
36,192,186047,1,0,0:0:0:0:
109,192,186132,1,0,0:0:0:0:
256,192,186217,1,0,0:0:0:0:
475,192,186217,1,0,0:0:0:0:
109,192,186302,1,0,0:0:0:0:
256,192,186388,1,0,0:0:0:0:
36,192,186388,1,0,0:0:0:0:
36,192,186558,1,0,0:0:0:0:
256,192,186558,1,0,0:0:0:0:
475,192,186558,1,0,0:0:0:0:
109,192,186558,128,0,187922:0:0:0:0:
329,192,186729,1,0,0:0:0:0:
182,192,186729,1,0,0:0:0:0:
475,192,186899,1,0,0:0:0:0:
402,192,186899,1,0,0:0:0:0:
36,192,186899,1,0,0:0:0:0:
182,192,187069,1,0,0:0:0:0:
329,192,187069,1,0,0:0:0:0:
36,192,187240,1,0,0:0:0:0:
256,192,187240,1,0,0:0:0:0:
402,192,187240,1,0,0:0:0:0:
329,192,187410,1,0,0:0:0:0:
182,192,187410,1,0,0:0:0:0:
402,192,187496,1,0,0:0:0:0:
256,192,187581,1,0,0:0:0:0:
475,192,187581,1,0,0:0:0:0:
36,192,187581,1,0,0:0:0:0:
329,192,187666,1,0,0:0:0:0:
402,192,187751,1,0,0:0:0:0:
182,192,187751,1,0,0:0:0:0:
256,192,187922,128,0,188604:0:0:0:0:
475,192,187922,1,0,0:0:0:0:
36,192,187922,1,0,0:0:0:0:
402,192,188007,1,0,0:0:0:0:
329,192,188092,1,0,0:0:0:0:
182,192,188092,1,0,0:0:0:0:
36,192,188263,1,0,0:0:0:0:
475,192,188263,1,0,0:0:0:0:
402,192,188263,1,0,0:0:0:0:
109,192,188348,1,0,0:0:0:0:
182,192,188433,1,0,0:0:0:0:
329,192,188433,1,0,0:0:0:0:
36,192,188518,1,0,0:0:0:0:
329,192,188604,128,0,189285:0:0:0:0:
109,192,188604,1,0,0:0:0:0:
402,192,188604,1,0,0:0:0:0:
182,192,188774,1,0,0:0:0:0:
475,192,188774,1,0,0:0:0:0:
109,192,188859,1,0,0:0:0:0:
475,192,188944,1,0,0:0:0:0:
36,192,188944,1,0,0:0:0:0:
256,192,188944,1,0,0:0:0:0:
182,192,189030,1,0,0:0:0:0:
109,192,189115,1,0,0:0:0:0:
402,192,189115,1,0,0:0:0:0:
475,192,189285,128,0,191331:0:0:0:0:
36,192,189285,1,0,0:0:0:0:
182,192,189285,1,0,0:0:0:0:
256,192,189456,1,0,0:0:0:0:
402,192,189456,1,0,0:0:0:0:
109,192,189626,1,0,0:0:0:0:
182,192,189626,1,0,0:0:0:0:
329,192,189626,1,0,0:0:0:0:
256,192,189797,1,0,0:0:0:0:
36,192,189797,1,0,0:0:0:0:
109,192,189967,1,0,0:0:0:0:
402,192,189967,1,0,0:0:0:0:
329,192,189967,1,0,0:0:0:0:
36,192,190138,1,0,0:0:0:0:
256,192,190138,1,0,0:0:0:0:
109,192,190223,1,0,0:0:0:0:
329,192,190308,1,0,0:0:0:0:
402,192,190308,1,0,0:0:0:0:
36,192,190308,1,0,0:0:0:0:
109,192,190393,1,0,0:0:0:0:
256,192,190479,1,0,0:0:0:0:
182,192,190479,1,0,0:0:0:0:
36,192,190649,1,0,0:0:0:0:
329,192,190649,1,0,0:0:0:0:
402,192,190649,1,0,0:0:0:0:
109,192,190734,1,0,0:0:0:0:
182,192,190819,1,0,0:0:0:0:
256,192,190819,1,0,0:0:0:0:
402,192,190990,1,0,0:0:0:0:
36,192,190990,1,0,0:0:0:0:
256,192,190990,1,0,0:0:0:0:
109,192,191075,1,0,0:0:0:0:
256,192,191160,1,0,0:0:0:0:
329,192,191160,1,0,0:0:0:0:
182,192,191246,1,0,0:0:0:0:
329,192,191331,128,0,192013:0:0:0:0:
109,192,191331,1,0,0:0:0:0:
402,192,191331,1,0,0:0:0:0:
36,192,191501,1,0,0:0:0:0:
475,192,191501,1,0,0:0:0:0:
402,192,191501,1,0,0:0:0:0:
182,192,191586,1,0,0:0:0:0:
36,192,191672,1,0,0:0:0:0:
256,192,191672,1,0,0:0:0:0:
475,192,191672,1,0,0:0:0:0:
182,192,191757,1,0,0:0:0:0:
36,192,191842,1,0,0:0:0:0:
402,192,191842,1,0,0:0:0:0:
475,192,191842,1,0,0:0:0:0:
109,192,191927,1,0,0:0:0:0:
182,192,192013,1,0,0:0:0:0:
475,192,192013,1,0,0:0:0:0:
36,192,192013,1,0,0:0:0:0:
36,192,192183,1,0,0:0:0:0:
182,192,192183,1,0,0:0:0:0:
475,192,192183,1,0,0:0:0:0:
109,192,192354,1,0,0:0:0:0:
256,192,192354,1,0,0:0:0:0:
402,192,192354,1,0,0:0:0:0:
109,192,192524,1,0,0:0:0:0:
256,192,192524,1,0,0:0:0:0:
402,192,192524,1,0,0:0:0:0:
36,192,192694,1,0,0:0:0:0:
475,192,192694,1,0,0:0:0:0:
329,192,192694,1,0,0:0:0:0:
109,192,192865,1,0,0:0:0:0:
256,192,192865,1,0,0:0:0:0:
329,192,192950,1,0,0:0:0:0:
475,192,192950,1,0,0:0:0:0:
109,192,193121,1,0,0:0:0:0:
256,192,193121,1,0,0:0:0:0:
329,192,193206,1,0,0:0:0:0:
475,192,193206,1,0,0:0:0:0:
36,192,193376,1,0,0:0:0:0:
182,192,193376,1,0,0:0:0:0:
256,192,193376,1,0,0:0:0:0:
36,192,193547,1,0,0:0:0:0:
182,192,193547,1,0,0:0:0:0:
256,192,193547,1,0,0:0:0:0:
109,192,193717,1,0,0:0:0:0:
329,192,193717,1,0,0:0:0:0:
475,192,193717,1,0,0:0:0:0:
109,192,193888,1,0,0:0:0:0:
329,192,193888,1,0,0:0:0:0:
475,192,193888,1,0,0:0:0:0:
36,192,194058,1,0,0:0:0:0:
402,192,194058,1,0,0:0:0:0:
182,192,194058,1,0,0:0:0:0:
329,192,194229,1,0,0:0:0:0:
475,192,194229,1,0,0:0:0:0:
256,192,194314,1,0,0:0:0:0:
109,192,194314,1,0,0:0:0:0:
329,192,194484,1,0,0:0:0:0:
475,192,194484,1,0,0:0:0:0:
256,192,194569,1,0,0:0:0:0:
109,192,194569,1,0,0:0:0:0:
36,192,194740,1,0,0:0:0:0:
475,192,194740,1,0,0:0:0:0:
256,192,194825,1,0,0:0:0:0:
36,192,194910,1,0,0:0:0:0:
475,192,194910,1,0,0:0:0:0:
256,192,194996,1,0,0:0:0:0:
109,192,195081,1,0,0:0:0:0:
402,192,195081,1,0,0:0:0:0:
256,192,195166,1,0,0:0:0:0:
109,192,195251,1,0,0:0:0:0:
402,192,195251,1,0,0:0:0:0:
256,192,195336,1,0,0:0:0:0:
36,192,195422,1,0,0:0:0:0:
182,192,195422,1,0,0:0:0:0:
329,192,195507,1,0,0:0:0:0:
475,192,195507,1,0,0:0:0:0:
182,192,195592,1,0,0:0:0:0:
36,192,195592,1,0,0:0:0:0:
329,192,195677,1,0,0:0:0:0:
475,192,195677,1,0,0:0:0:0:
182,192,195763,1,0,0:0:0:0:
36,192,195763,1,0,0:0:0:0:
329,192,195848,1,0,0:0:0:0:
475,192,195848,1,0,0:0:0:0:
182,192,195933,1,0,0:0:0:0:
36,192,195933,1,0,0:0:0:0:
329,192,196018,1,0,0:0:0:0:
475,192,196018,1,0,0:0:0:0:
182,192,196104,1,0,0:0:0:0:
36,192,196104,1,0,0:0:0:0:
256,192,196189,1,0,0:0:0:0:
329,192,196274,1,0,0:0:0:0:
402,192,196359,1,0,0:0:0:0:
109,192,196444,1,0,0:0:0:0:
182,192,196530,1,0,0:0:0:0:
256,192,196615,1,0,0:0:0:0:
329,192,196700,1,0,0:0:0:0:
36,192,196785,1,0,0:0:0:0:
109,192,196842,1,0,0:0:0:0:
182,192,196899,1,0,0:0:0:0:
256,192,196956,1,0,0:0:0:0:
329,192,197013,1,0,0:0:0:0:
402,192,197069,1,0,0:0:0:0:
475,192,197126,1,0,0:0:0:0:
402,192,197183,1,0,0:0:0:0:
329,192,197240,1,0,0:0:0:0:
256,192,197297,1,0,0:0:0:0:
182,192,197354,1,0,0:0:0:0:
109,192,197410,1,0,0:0:0:0:
36,192,197467,128,0,197638:0:0:0:0:
182,192,197638,128,0,197808:0:0:0:0:
36,192,197808,1,0,0:0:0:0:
329,192,197808,1,0,0:0:0:0:
475,192,197808,1,0,0:0:0:0:
109,192,197979,128,0,198149:0:0:0:0:
256,192,198149,1,0,0:0:0:0:
402,192,198149,1,0,0:0:0:0:
109,192,198319,128,0,198490:0:0:0:0:
329,192,198490,1,0,0:0:0:0:
475,192,198490,1,0,0:0:0:0:
109,192,198660,128,0,198831:0:0:0:0:
182,192,198831,1,0,0:0:0:0:
402,192,198831,1,0,0:0:0:0:
109,192,199001,128,0,199172:0:0:0:0:
256,192,199172,1,0,0:0:0:0:
329,192,199172,1,0,0:0:0:0:
109,192,199342,128,0,199513:0:0:0:0:
182,192,199513,1,0,0:0:0:0:
475,192,199513,1,0,0:0:0:0:
109,192,199683,128,0,199854:0:0:0:0:
402,192,199683,128,0,199854:0:0:0:0:
36,192,199854,1,0,0:0:0:0:
475,192,199854,1,0,0:0:0:0:
182,192,200024,1,0,0:0:0:0:
256,192,200109,1,0,0:0:0:0:
329,192,200194,1,0,0:0:0:0:
36,192,200194,1,0,0:0:0:0:
475,192,200194,1,0,0:0:0:0:
109,192,200365,128,0,200535:0:0:0:0:
36,192,200535,1,0,0:0:0:0:
329,192,200535,1,0,0:0:0:0:
109,192,200706,128,0,200876:0:0:0:0:
182,192,200876,1,0,0:0:0:0:
402,192,200876,1,0,0:0:0:0:
109,192,201047,128,0,201217:0:0:0:0:
36,192,201217,1,0,0:0:0:0:
256,192,201217,1,0,0:0:0:0:
109,192,201388,128,0,201558:0:0:0:0:
182,192,201558,1,0,0:0:0:0:
475,192,201558,1,0,0:0:0:0:
36,192,201558,1,0,0:0:0:0:
256,192,201729,1,0,0:0:0:0:
109,192,201899,1,0,0:0:0:0:
402,192,201899,1,0,0:0:0:0:
329,192,202069,1,0,0:0:0:0:
182,192,202155,1,0,0:0:0:0:
475,192,202240,1,0,0:0:0:0:
36,192,202240,1,0,0:0:0:0:
402,192,202240,1,0,0:0:0:0:
256,192,202410,128,0,202581:0:0:0:0:
36,192,202581,1,0,0:0:0:0:
475,192,202581,1,0,0:0:0:0:
256,192,202751,128,0,202922:0:0:0:0:
36,192,202922,1,0,0:0:0:0:
475,192,202922,1,0,0:0:0:0:
109,192,203092,128,0,203263:0:0:0:0:
256,192,203263,1,0,0:0:0:0:
402,192,203263,1,0,0:0:0:0:
109,192,203433,128,0,203604:0:0:0:0:
329,192,203604,1,0,0:0:0:0:
475,192,203604,1,0,0:0:0:0:
109,192,203774,128,0,203944:0:0:0:0:
256,192,203944,1,0,0:0:0:0:
36,192,203944,1,0,0:0:0:0:
109,192,204115,128,0,204285:0:0:0:0:
402,192,204285,1,0,0:0:0:0:
256,192,204285,1,0,0:0:0:0:
402,192,204456,128,0,204626:0:0:0:0:
329,192,204626,1,0,0:0:0:0:
182,192,204626,1,0,0:0:0:0:
329,192,204797,128,0,204967:0:0:0:0:
256,192,204967,1,0,0:0:0:0:
109,192,204967,1,0,0:0:0:0:
256,192,205138,128,0,205308:0:0:0:0:
182,192,205308,1,0,0:0:0:0:
36,192,205308,1,0,0:0:0:0:
475,192,205308,1,0,0:0:0:0:
402,192,205479,1,0,0:0:0:0:
256,192,205564,1,0,0:0:0:0:
109,192,205649,1,0,0:0:0:0:
475,192,205649,1,0,0:0:0:0:
109,192,205819,128,0,205990:0:0:0:0:
475,192,205819,1,0,0:0:0:0:
329,192,205819,1,0,0:0:0:0:
182,192,205990,1,0,0:0:0:0:
256,192,205990,1,0,0:0:0:0:
109,192,206160,128,0,206331:0:0:0:0:
329,192,206160,1,0,0:0:0:0:
475,192,206160,1,0,0:0:0:0:
402,192,206331,1,0,0:0:0:0:
329,192,206331,1,0,0:0:0:0:
182,192,206416,1,0,0:0:0:0:
109,192,206416,1,0,0:0:0:0:
329,192,206501,1,0,0:0:0:0:
402,192,206501,1,0,0:0:0:0:
182,192,206586,1,0,0:0:0:0:
109,192,206586,1,0,0:0:0:0:
329,192,206672,1,0,0:0:0:0:
402,192,206672,1,0,0:0:0:0:
182,192,206757,1,0,0:0:0:0:
109,192,206757,1,0,0:0:0:0:
329,192,206842,1,0,0:0:0:0:
402,192,206842,1,0,0:0:0:0:
182,192,206927,1,0,0:0:0:0:
109,192,206927,1,0,0:0:0:0:
36,192,207013,1,0,0:0:0:0:
475,192,207013,1,0,0:0:0:0:
329,192,207183,1,0,0:0:0:0:
475,192,207183,1,0,0:0:0:0:
329,192,207439,1,0,0:0:0:0:
475,192,207439,1,0,0:0:0:0:
329,192,207609,1,0,0:0:0:0:
475,192,207609,1,0,0:0:0:0:
36,192,207865,1,0,0:0:0:0:
182,192,207865,1,0,0:0:0:0:
36,192,208206,1,0,0:0:0:0:
182,192,208206,1,0,0:0:0:0:
475,192,208376,1,0,0:0:0:0:
256,192,208376,1,0,0:0:0:0:
36,192,208376,1,0,0:0:0:0:
256,192,208547,128,0,208717:0:0:0:0:
36,192,208717,1,0,0:0:0:0:
182,192,208717,1,0,0:0:0:0:
475,192,208717,1,0,0:0:0:0:
256,192,208888,128,0,209058:0:0:0:0:
109,192,209058,1,0,0:0:0:0:
329,192,209058,1,0,0:0:0:0:
402,192,209058,1,0,0:0:0:0:
256,192,209229,128,0,209399:0:0:0:0:
475,192,209399,1,0,0:0:0:0:
329,192,209399,1,0,0:0:0:0:
36,192,209399,1,0,0:0:0:0:
256,192,209569,128,0,209740:0:0:0:0:
109,192,209740,1,0,0:0:0:0:
402,192,209740,1,0,0:0:0:0:
475,192,209740,1,0,0:0:0:0:
256,192,209910,128,0,210081:0:0:0:0:
36,192,210081,1,0,0:0:0:0:
182,192,210081,1,0,0:0:0:0:
402,192,210081,1,0,0:0:0:0:
256,192,210251,128,0,210422:0:0:0:0:
109,192,210422,1,0,0:0:0:0:
402,192,210422,1,0,0:0:0:0:
475,192,210422,1,0,0:0:0:0:
256,192,210592,128,0,210763:0:0:0:0:
36,192,210763,1,0,0:0:0:0:
182,192,210763,1,0,0:0:0:0:
475,192,210763,1,0,0:0:0:0:
256,192,210933,128,0,211104:0:0:0:0:
36,192,210933,1,0,0:0:0:0:
475,192,210933,1,0,0:0:0:0:
329,192,210933,1,0,0:0:0:0:
475,192,211104,1,0,0:0:0:0:
182,192,211104,1,0,0:0:0:0:
36,192,211104,1,0,0:0:0:0:
256,192,211274,128,0,211444:0:0:0:0:
109,192,211444,1,0,0:0:0:0:
329,192,211444,1,0,0:0:0:0:
402,192,211444,1,0,0:0:0:0:
256,192,211615,128,0,211785:0:0:0:0:
36,192,211785,1,0,0:0:0:0:
182,192,211785,1,0,0:0:0:0:
475,192,211785,1,0,0:0:0:0:
256,192,211956,128,0,212126:0:0:0:0:
402,192,212126,1,0,0:0:0:0:
182,192,212126,1,0,0:0:0:0:
109,192,212126,1,0,0:0:0:0:
256,192,212297,128,0,212467:0:0:0:0:
36,192,212467,1,0,0:0:0:0:
329,192,212467,1,0,0:0:0:0:
475,192,212467,1,0,0:0:0:0:
256,192,212638,128,0,212808:0:0:0:0:
109,192,212808,1,0,0:0:0:0:
329,192,212808,1,0,0:0:0:0:
402,192,212808,1,0,0:0:0:0:
256,192,212979,128,0,213149:0:0:0:0:
36,192,213149,1,0,0:0:0:0:
182,192,213149,1,0,0:0:0:0:
475,192,213149,1,0,0:0:0:0:
256,192,213319,128,0,213490:0:0:0:0:
109,192,213319,1,0,0:0:0:0:
402,192,213319,1,0,0:0:0:0:
475,192,213319,1,0,0:0:0:0:
402,192,213490,1,0,0:0:0:0:
329,192,213490,1,0,0:0:0:0:
109,192,213490,1,0,0:0:0:0:
256,192,213660,128,0,213831:0:0:0:0:
36,192,213660,1,0,0:0:0:0:
402,192,213660,1,0,0:0:0:0:
109,192,213746,1,0,0:0:0:0:
182,192,213831,1,0,0:0:0:0:
329,192,213831,1,0,0:0:0:0:
475,192,213831,1,0,0:0:0:0:
182,192,214001,1,0,0:0:0:0:
329,192,214001,1,0,0:0:0:0:
475,192,214001,1,0,0:0:0:0:
109,192,214172,1,0,0:0:0:0:
256,192,214172,1,0,0:0:0:0:
402,192,214172,1,0,0:0:0:0:
109,192,214342,1,0,0:0:0:0:
256,192,214342,1,0,0:0:0:0:
402,192,214342,1,0,0:0:0:0:
182,192,214513,1,0,0:0:0:0:
329,192,214513,1,0,0:0:0:0:
475,192,214513,1,0,0:0:0:0:
329,192,214683,1,0,0:0:0:0:
402,192,214683,1,0,0:0:0:0:
182,192,214768,1,0,0:0:0:0:
109,192,214768,1,0,0:0:0:0:
329,192,214939,1,0,0:0:0:0:
402,192,214939,1,0,0:0:0:0:
182,192,215024,1,0,0:0:0:0:
109,192,215024,1,0,0:0:0:0:
36,192,215194,1,0,0:0:0:0:
329,192,215194,1,0,0:0:0:0:
182,192,215194,1,0,0:0:0:0:
36,192,215365,1,0,0:0:0:0:
182,192,215365,1,0,0:0:0:0:
329,192,215365,1,0,0:0:0:0:
109,192,215535,1,0,0:0:0:0:
256,192,215535,1,0,0:0:0:0:
402,192,215535,1,0,0:0:0:0:
109,192,215706,1,0,0:0:0:0:
256,192,215706,1,0,0:0:0:0:
402,192,215706,1,0,0:0:0:0:
36,192,215876,1,0,0:0:0:0:
182,192,215876,1,0,0:0:0:0:
329,192,215876,1,0,0:0:0:0:
475,192,216047,1,0,0:0:0:0:
329,192,216047,1,0,0:0:0:0:
182,192,216132,1,0,0:0:0:0:
36,192,216132,1,0,0:0:0:0:
329,192,216302,1,0,0:0:0:0:
475,192,216302,1,0,0:0:0:0:
182,192,216388,1,0,0:0:0:0:
36,192,216388,1,0,0:0:0:0:
329,192,216558,1,0,0:0:0:0:
475,192,216558,1,0,0:0:0:0:
402,192,216643,1,0,0:0:0:0:
182,192,216729,1,0,0:0:0:0:
36,192,216729,1,0,0:0:0:0:
109,192,216814,1,0,0:0:0:0:
329,192,216899,1,0,0:0:0:0:
475,192,216899,1,0,0:0:0:0:
402,192,216984,1,0,0:0:0:0:
182,192,217069,1,0,0:0:0:0:
36,192,217069,1,0,0:0:0:0:
109,192,217155,1,0,0:0:0:0:
329,192,217240,1,0,0:0:0:0:
402,192,217240,1,0,0:0:0:0:
182,192,217325,1,0,0:0:0:0:
109,192,217325,1,0,0:0:0:0:
329,192,217410,1,0,0:0:0:0:
402,192,217410,1,0,0:0:0:0:
182,192,217496,1,0,0:0:0:0:
109,192,217496,1,0,0:0:0:0:
329,192,217581,1,0,0:0:0:0:
36,192,217581,1,0,0:0:0:0:
256,192,217666,1,0,0:0:0:0:
475,192,217666,1,0,0:0:0:0:
182,192,217751,1,0,0:0:0:0:
402,192,217751,1,0,0:0:0:0:
109,192,217836,1,0,0:0:0:0:
329,192,217836,1,0,0:0:0:0:
36,192,217922,1,0,0:0:0:0:
256,192,217922,1,0,0:0:0:0:
475,192,217922,1,0,0:0:0:0:
109,192,218092,128,0,218263:0:0:0:0:
182,192,218263,128,0,218433:0:0:0:0:
329,192,218433,128,0,218604:0:0:0:0:
402,192,218604,128,0,218944:0:0:0:0:
109,192,218859,128,0,218944:0:0:0:0:
