osu file format v14

[General]
AudioFilename: OukaRanman.mp3
AudioLeadIn: 0
PreviewTime: 94686
Countdown: 0
SampleSet: Soft
StackLeniency: 0.7
Mode: 3
LetterboxInBreaks: 0
SpecialStyle: 0
WidescreenStoryboard: 0

[Editor]
DistanceSpacing: 0.8
BeatDivisor: 4
GridSize: 32
TimelineZoom: 1.8

[Metadata]
Title:Nihonshiki Koukaku-OukaRanman-
TitleUnicode:日本式硬核-OukaRanman-
Artist:ETIA.
ArtistUnicode:ETIA.
Creator:Rido
Version:MX
Source:
Tags:ExUsagi
BeatmapID:443215
BeatmapSetID:185362

[Difficulty]
HPDrainRate:8
CircleSize:4
OverallDifficulty:8
ApproachRate:5
SliderMultiplier:1.4
SliderTickRate:1

[Events]
//Background and Video events
0,0,"bg.jpg",0,0
//Break Periods
//Storyboard Layer 0 (Background)
//Storyboard Layer 1 (Fail)
//Storyboard Layer 2 (Pass)
//Storyboard Layer 3 (Foreground)
//Storyboard Sound Samples

[TimingPoints]
1429,342.857142857143,4,2,1,35,1,0
27143,-66.6666666666667,4,2,1,35,0,0
27314,-200,4,2,1,35,0,0
27486,-100,4,2,1,35,0,1
40686,-66.6666666666667,4,2,1,35,0,1
40771,-200,4,2,1,35,0,1
40857,-66.6666666666667,4,2,1,35,0,1
40943,-200,4,2,1,35,0,1
41200,-100,4,2,1,35,0,1
49086,-66.6666666666667,4,2,1,35,0,0
49257,-100,4,2,1,35,0,0
60057,-66.6666666666667,4,2,1,35,0,0
60229,-200,4,2,1,35,0,0
60400,-100,4,2,1,35,0,0
93314,-133.333333333333,4,2,1,35,0,0
94343,-66.6666666666667,4,2,1,35,0,0
94514,-200,4,2,1,35,0,0
94686,-100,4,2,1,35,0,1
104286,-100,4,2,1,35,0,0
105657,-100,4,2,1,35,0,1
116629,-100,4,2,1,35,0,0

[HitObjects]
448,192,1429,128,2,3829:0:0:0:0:
64,192,1429,128,0,3829:0:0:0:0:
192,192,1429,1,4,0:0:0:0:
192,192,3829,1,0,0:0:0:0:
320,192,3829,1,8,1:0:0:0:
64,192,4171,128,4,4343:0:0:0:0:
448,192,4171,1,2,1:0:0:0:
192,192,4171,1,0,0:0:0:0:
320,192,4343,1,0,0:0:0:0:
320,192,4514,1,0,0:0:0:0:
192,192,4686,1,4,1:0:0:0:
448,192,4857,128,0,5029:0:0:0:0:
64,192,4857,1,2,1:0:0:0:
192,192,5029,1,0,0:0:0:0:
320,192,5200,1,4,1:0:0:0:
64,192,5200,1,2,1:0:0:0:
448,192,5371,1,0,0:0:0:0:
64,192,5543,128,0,5714:0:0:0:0:
320,192,5714,1,4,1:0:0:0:
192,192,5886,1,2,1:0:0:0:
448,192,5886,1,0,0:0:0:0:
64,192,6229,128,0,6400:0:0:0:0:
320,192,6229,1,4,1:0:0:0:
192,192,6400,1,2,1:0:0:0:
448,192,6400,1,0,0:0:0:0:
320,192,6571,1,0,0:0:0:0:
448,192,6571,128,4,6914:1:0:0:0:
64,192,6914,128,0,7086:0:0:0:0:
192,192,6914,1,2,1:0:0:0:
448,192,7086,1,0,0:0:0:0:
448,192,7257,1,0,0:0:0:0:
192,192,7429,1,4,1:0:0:0:
64,192,7600,128,0,7771:0:0:0:0:
448,192,7600,1,2,1:0:0:0:
320,192,7771,1,0,0:0:0:0:
192,192,7943,1,4,1:0:0:0:
448,192,7943,1,2,1:0:0:0:
64,192,8114,1,0,0:0:0:0:
320,192,8286,128,0,8457:0:0:0:0:
192,192,8457,1,4,1:0:0:0:
64,192,8629,1,2,1:0:0:0:
448,192,8629,1,0,0:0:0:0:
192,192,8971,1,4,1:0:0:0:
448,192,8971,128,0,9143:0:0:0:0:
320,192,9143,1,0,0:0:0:0:
64,192,9143,1,2,1:0:0:0:
64,192,9314,128,0,9657:0:0:0:0:
192,192,9314,1,4,1:0:0:0:
320,192,9486,1,4,1:0:0:0:
448,192,9571,1,4,1:0:0:0:
192,192,9657,128,2,9829:1:0:0:0:
320,192,9657,1,4,1:0:0:0:
448,192,9829,1,0,0:0:0:0:
448,192,10000,1,0,0:0:0:0:
320,192,10171,1,4,1:0:0:0:
448,192,10343,128,0,10514:0:0:0:0:
64,192,10343,1,2,1:0:0:0:
192,192,10514,1,0,0:0:0:0:
320,192,10686,1,4,1:0:0:0:
64,192,10686,1,2,1:0:0:0:
448,192,10857,1,0,0:0:0:0:
192,192,11029,128,0,11200:0:0:0:0:
64,192,11200,1,4,1:0:0:0:
320,192,11371,1,0,0:0:0:0:
448,192,11371,1,2,1:0:0:0:
64,192,11714,128,0,11886:0:0:0:0:
448,192,11714,1,4,1:0:0:0:
192,192,11886,1,2,1:0:0:0:
320,192,11886,1,0,0:0:0:0:
448,192,12057,128,0,12400:0:0:0:0:
64,192,12057,1,4,1:0:0:0:
320,192,12229,1,4,1:0:0:0:
64,192,12400,128,0,12571:0:0:0:0:
192,192,12400,1,2,1:0:0:0:
448,192,12571,1,0,0:0:0:0:
448,192,12743,1,0,0:0:0:0:
320,192,12914,1,4,1:0:0:0:
64,192,13086,128,0,13257:0:0:0:0:
192,192,13086,1,2,1:0:0:0:
320,192,13257,1,0,0:0:0:0:
192,192,13429,1,2,1:0:0:0:
448,192,13429,1,4,1:0:0:0:
64,192,13600,1,0,0:0:0:0:
320,192,13771,128,0,13943:0:0:0:0:
64,192,13943,1,4,1:0:0:0:
320,192,14114,1,4,1:0:0:0:
448,192,14114,1,2,1:0:0:0:
192,192,14286,1,4,1:0:0:0:
64,192,14371,1,4,1:0:0:0:
192,192,14457,1,4,1:0:0:0:
448,192,14457,128,0,14629:0:0:0:0:
64,192,14629,1,2,1:0:0:0:
320,192,14629,1,4,1:0:0:0:
192,192,14800,128,0,15143:0:0:0:0:
448,192,14800,1,4,1:0:0:0:
448,192,14971,1,4,1:0:0:0:
448,192,15143,128,0,15314:0:0:0:0:
320,192,15143,1,4,0:0:0:0:
64,192,15143,1,2,0:0:0:0:
192,192,15314,1,0,0:0:0:0:
64,192,15486,1,2,0:0:0:0:
320,192,15486,1,0,0:0:0:0:
192,192,15657,1,4,1:0:0:0:
448,192,15829,1,8,0:0:0:0:
64,192,15829,128,0,16000:0:0:0:0:
320,192,16000,1,0,0:0:0:0:
448,192,16171,1,8,0:0:0:0:
64,192,16171,1,0,0:0:0:0:
192,192,16343,1,0,0:0:0:0:
320,192,16343,1,8,0:0:0:0:
448,192,16514,128,0,16686:0:0:0:0:
64,192,16514,1,2,0:0:0:0:
192,192,16686,1,4,1:0:0:0:
448,192,16857,1,2,0:0:0:0:
320,192,16857,1,0,0:0:0:0:
192,192,17029,1,0,0:0:0:0:
448,192,17200,128,0,17371:0:0:0:0:
64,192,17200,1,8,0:0:0:0:
192,192,17371,1,2,0:0:0:0:
320,192,17371,1,0,0:0:0:0:
448,192,17543,128,0,17714:0:0:0:0:
64,192,17543,1,4,1:0:0:0:
192,192,17771,1,0,0:0:0:0:
320,185,17829,1,0,0:0:0:0:
448,192,17886,1,2,0:0:0:0:
64,192,17886,128,0,18057:0:0:0:0:
320,192,18114,1,0,0:0:0:0:
192,192,18343,1,0,0:0:0:0:
448,192,18571,1,8,0:0:0:0:
64,192,18571,128,0,18743:0:0:0:0:
320,192,18800,1,0,0:0:0:0:
192,192,19029,1,0,0:0:0:0:
64,192,19257,1,2,0:0:0:0:
448,192,19257,128,0,19429:0:0:0:0:
320,192,19429,1,8,0:0:0:0:
192,192,19600,1,0,0:0:0:0:
64,192,19600,1,2,0:0:0:0:
192,192,19771,1,0,0:0:0:0:
64,192,19771,1,2,0:0:0:0:
320,192,19943,1,8,0:0:0:0:
448,192,19943,128,0,20114:0:0:0:0:
64,192,20114,1,2,0:0:0:0:
192,192,20114,1,0,0:0:0:0:
448,192,20286,128,0,20457:0:0:0:0:
320,192,20286,1,2,0:0:0:0:
64,192,20457,1,2,0:0:0:0:
192,192,20457,1,4,1:0:0:0:
320,192,20543,1,4,1:0:0:0:
64,192,20629,128,2,20800:0:0:0:0:
448,192,20629,1,4,1:0:0:0:
320,192,20800,1,0,0:0:0:0:
320,192,20971,1,0,0:0:0:0:
64,192,20971,1,2,0:0:0:0:
192,192,21143,1,4,1:0:0:0:
320,192,21314,128,0,21486:0:0:0:0:
448,192,21314,1,8,0:0:0:0:
192,192,21486,1,0,0:0:0:0:
448,192,21657,1,8,0:0:0:0:
64,192,21657,1,0,0:0:0:0:
448,192,21829,1,8,0:0:0:0:
64,192,21829,1,0,0:0:0:0:
192,192,22000,1,2,0:0:0:0:
320,192,22000,128,0,22171:0:0:0:0:
448,192,22171,1,4,1:0:0:0:
192,192,22343,1,2,0:0:0:0:
64,192,22343,1,0,0:0:0:0:
320,192,22514,1,0,0:0:0:0:
192,192,22686,1,8,0:0:0:0:
448,192,22686,128,0,22857:0:0:0:0:
64,192,22857,1,0,0:0:0:0:
192,192,22886,1,0,0:0:0:0:
320,192,22914,1,0,0:0:0:0:
448,192,22943,1,0,0:0:0:0:
64,192,22971,1,0,0:0:0:0:
192,192,23000,1,0,0:0:0:0:
320,192,23029,1,0,0:0:0:0:
320,192,23257,1,0,0:0:0:0:
448,185,23314,1,0,0:0:0:0:
192,192,23371,1,4,0:0:0:0:
64,192,23371,1,2,0:0:0:0:
64,192,24057,1,0,0:0:0:0:
448,192,24657,1,0,0:0:0:0:
448,192,24743,1,0,0:0:0:0:
64,192,25300,1,0,0:0:0:0:
192,192,25343,1,0,0:0:0:0:
320,192,25386,1,0,0:0:0:0:
448,192,25429,1,0,0:0:0:0:
320,192,25771,128,0,26114:0:0:0:0:
64,192,26114,128,4,27143:0:0:0:0:
192,192,26114,1,0,0:0:0:0:
448,192,26114,1,2,0:0:0:0:
320,192,26286,1,0,0:0:0:0:
320,192,26457,1,0,0:0:0:0:
192,192,26543,1,0,0:0:0:0:
448,192,26629,1,0,0:0:0:0:
192,192,26800,1,0,0:0:0:0:
448,192,26886,1,0,0:0:0:0:
320,192,26971,1,0,0:0:0:0:
448,192,27143,1,8,0:0:0:0:
192,192,27143,1,2,0:0:0:0:
320,192,27143,1,0,0:0:0:0:
320,192,27486,1,0,0:0:0:0:
64,192,27486,1,2,0:0:0:0:
448,192,27486,1,4,0:0:0:0:
448,192,27657,1,0,0:0:0:0:
64,192,27657,1,0,0:0:0:0:
448,192,27829,1,0,0:0:0:0:
64,192,27829,1,8,0:0:0:0:
192,192,28000,1,0,0:0:0:0:
320,192,28000,1,0,0:0:0:0:
64,192,28171,1,0,0:0:0:0:
448,192,28171,1,2,0:0:0:0:
320,192,28343,1,0,0:0:0:0:
192,192,28400,1,0,0:0:0:0:
320,192,28457,1,0,0:0:0:0:
64,192,28514,1,8,0:0:0:0:
448,192,28514,1,0,0:0:0:0:
448,192,28686,1,0,0:0:0:0:
192,192,28686,1,0,0:0:0:0:
64,192,28857,1,2,0:0:0:0:
320,192,28857,1,0,0:0:0:0:
448,192,29029,1,4,1:0:0:0:
320,192,29200,1,0,0:0:0:0:
192,192,29200,1,8,0:0:0:0:
64,192,29371,1,0,0:0:0:0:
448,192,29543,1,4,1:0:0:0:
192,192,29543,1,2,0:0:0:0:
64,192,29714,1,0,0:0:0:0:
192,192,29886,1,8,0:0:0:0:
320,192,29886,1,4,1:0:0:0:
192,192,30057,1,0,0:0:0:0:
320,192,30057,1,0,0:0:0:0:
64,192,30229,1,2,0:0:0:0:
448,192,30229,1,4,1:0:0:0:
192,192,30314,1,0,0:0:0:0:
320,192,30400,1,0,0:0:0:0:
448,192,30571,1,0,0:0:0:0:
64,192,30571,1,8,0:0:0:0:
192,192,30743,1,4,1:0:0:0:
320,192,30829,1,0,0:0:0:0:
448,192,30914,1,0,0:0:0:0:
64,192,30914,1,2,0:0:0:0:
192,192,31000,1,0,0:0:0:0:
320,192,31086,1,0,0:0:0:0:
192,192,31171,1,0,0:0:0:0:
64,192,31257,1,8,0:0:0:0:
320,192,31257,1,4,1:0:0:0:
448,192,31343,1,0,0:0:0:0:
192,192,31429,1,0,0:0:0:0:
320,192,31514,1,0,0:0:0:0:
192,192,31600,1,0,0:0:0:0:
64,192,31600,1,2,0:0:0:0:
448,192,31686,1,0,0:0:0:0:
320,192,31771,1,4,1:0:0:0:
448,192,31943,1,0,0:0:0:0:
192,192,31943,1,8,0:0:0:0:
320,192,32114,1,0,0:0:0:0:
192,192,32200,1,0,0:0:0:0:
448,192,32286,1,2,0:0:0:0:
64,192,32286,1,4,1:0:0:0:
320,192,32371,1,0,0:0:0:0:
192,192,32457,1,0,0:0:0:0:
448,192,32543,1,0,0:0:0:0:
64,192,32629,1,8,0:0:0:0:
192,192,32629,1,4,1:0:0:0:
320,192,32714,1,0,0:0:0:0:
448,192,32800,1,4,1:0:0:0:
320,192,32886,1,4,1:0:0:0:
192,192,32971,1,2,0:0:0:0:
64,192,32971,1,4,1:0:0:0:
192,192,33143,1,0,0:0:0:0:
448,192,33143,1,0,0:0:0:0:
448,192,33314,1,8,0:0:0:0:
192,192,33314,1,0,0:0:0:0:
320,192,33486,1,0,0:0:0:0:
64,192,33486,1,0,0:0:0:0:
448,192,33657,1,2,0:0:0:0:
192,192,33657,1,0,0:0:0:0:
64,192,33829,1,0,0:0:0:0:
192,192,33886,1,0,0:0:0:0:
320,192,33943,1,0,0:0:0:0:
64,192,34000,1,8,0:0:0:0:
448,192,34000,1,0,0:0:0:0:
320,192,34171,1,0,0:0:0:0:
192,192,34171,1,0,0:0:0:0:
64,192,34343,1,2,0:0:0:0:
448,192,34343,1,0,0:0:0:0:
320,192,34514,1,4,1:0:0:0:
448,192,34686,1,8,0:0:0:0:
192,192,34686,1,0,0:0:0:0:
64,192,34857,1,0,0:0:0:0:
192,192,35029,1,4,1:0:0:0:
320,192,35029,1,2,0:0:0:0:
64,192,35200,1,0,0:0:0:0:
448,192,35200,1,4,1:0:0:0:
448,192,35371,1,4,1:0:0:0:
64,192,35371,1,8,0:0:0:0:
64,192,35543,1,0,0:0:0:0:
448,192,35543,1,4,1:0:0:0:
192,192,35714,1,2,0:0:0:0:
320,192,35714,1,4,1:0:0:0:
448,192,35800,1,0,0:0:0:0:
192,192,35886,1,0,0:0:0:0:
320,192,36057,1,0,0:0:0:0:
64,192,36057,1,8,0:0:0:0:
192,192,36229,1,4,1:0:0:0:
320,192,36314,1,0,0:0:0:0:
448,192,36400,1,0,0:0:0:0:
64,192,36400,1,2,0:0:0:0:
192,192,36486,1,0,0:0:0:0:
320,192,36571,1,0,0:0:0:0:
64,192,36743,1,8,0:0:0:0:
192,192,36743,1,4,1:0:0:0:
448,192,36829,1,0,0:0:0:0:
320,192,36914,1,0,0:0:0:0:
192,192,37000,1,0,0:0:0:0:
64,192,37086,1,0,0:0:0:0:
448,192,37086,1,2,0:0:0:0:
192,192,37171,1,0,0:0:0:0:
320,192,37257,1,4,1:0:0:0:
192,192,37343,1,0,0:0:0:0:
64,192,37429,1,4,1:0:0:0:
448,192,37429,1,8,0:0:0:0:
320,192,37514,1,0,0:0:0:0:
192,192,37600,1,4,1:0:0:0:
320,192,37686,1,4,1:0:0:0:
448,192,37771,1,2,0:0:0:0:
64,192,37771,1,4,1:0:0:0:
320,192,37857,1,0,0:0:0:0:
192,192,37943,1,4,1:0:0:0:
64,192,38029,1,0,0:0:0:0:
448,192,38114,1,8,0:0:0:0:
320,192,38114,1,4,1:0:0:0:
320,192,38286,1,4,1:0:0:0:
192,192,38286,1,2,0:0:0:0:
64,192,38457,1,4,1:0:0:0:
192,192,38457,1,2,0:0:0:0:
448,192,38457,1,4,0:0:0:0:
320,192,38629,1,0,0:0:0:0:
64,192,38629,1,0,0:0:0:0:
320,192,38800,1,0,0:0:0:0:
64,192,38800,1,8,0:0:0:0:
192,192,38971,1,0,0:0:0:0:
448,192,38971,1,0,0:0:0:0:
320,192,39143,1,0,0:0:0:0:
64,192,39143,1,2,0:0:0:0:
192,192,39314,1,0,0:0:0:0:
320,192,39371,1,0,0:0:0:0:
192,192,39429,1,0,0:0:0:0:
64,192,39486,1,8,0:0:0:0:
448,192,39486,1,0,0:0:0:0:
448,192,39657,1,0,0:0:0:0:
320,192,39657,1,0,0:0:0:0:
64,192,39829,1,2,0:0:0:0:
192,192,39829,1,0,0:0:0:0:
320,192,40000,1,4,1:0:0:0:
192,192,40171,1,0,0:0:0:0:
448,192,40171,1,8,0:0:0:0:
320,192,40343,1,0,0:0:0:0:
64,192,40514,1,4,1:0:0:0:
448,192,40514,1,2,0:0:0:0:
320,192,40686,1,8,0:0:0:0:
192,192,40686,1,0,0:0:0:0:
192,192,40857,1,4,1:0:0:0:
320,192,40857,1,2,0:0:0:0:
64,192,41200,1,2,0:0:0:0:
320,192,41200,1,4,1:0:0:0:
448,192,41200,1,4,0:0:0:0:
192,192,41286,1,0,0:0:0:0:
320,192,41371,1,0,0:0:0:0:
448,192,41543,1,0,0:0:0:0:
64,192,41543,1,8,0:0:0:0:
192,192,41714,1,4,1:0:0:0:
64,192,41886,1,2,0:0:0:0:
448,192,41886,1,0,0:0:0:0:
320,192,41971,1,0,0:0:0:0:
192,192,42057,1,0,0:0:0:0:
64,192,42229,1,8,0:0:0:0:
448,192,42229,1,4,1:0:0:0:
192,192,42314,1,0,0:0:0:0:
320,192,42400,1,0,0:0:0:0:
448,192,42400,1,2,0:0:0:0:
64,192,42571,128,2,43771:0:0:0:0:
448,192,42571,1,4,0:0:0:0:
320,192,42657,1,0,0:0:0:0:
192,192,42743,1,0,0:0:0:0:
448,192,42914,1,0,0:0:0:0:
320,192,43000,1,0,0:0:0:0:
192,192,43086,1,0,0:0:0:0:
320,192,43171,1,0,0:0:0:0:
448,192,43257,1,0,0:0:0:0:
320,192,43343,1,0,0:0:0:0:
192,192,43429,1,0,0:0:0:0:
448,192,43514,1,0,0:0:0:0:
320,192,43600,1,0,0:0:0:0:
192,192,43686,1,0,0:0:0:0:
320,192,43771,1,0,0:0:0:0:
448,192,43771,1,2,0:0:0:0:
320,192,43943,1,4,0:0:0:0:
448,192,43943,1,2,0:0:0:0:
64,192,43943,1,0,0:0:0:0:
192,192,44114,1,0,0:0:0:0:
320,192,44114,1,0,0:0:0:0:
192,192,44286,1,0,0:0:0:0:
320,192,44286,1,8,0:0:0:0:
448,192,44457,1,0,0:0:0:0:
64,192,44457,1,0,0:0:0:0:
320,192,44629,1,2,0:0:0:0:
192,192,44629,1,0,0:0:0:0:
64,192,44800,1,0,0:0:0:0:
192,192,44857,1,0,0:0:0:0:
320,192,44914,1,0,0:0:0:0:
448,192,44971,1,8,0:0:0:0:
64,192,44971,1,0,0:0:0:0:
192,192,45143,1,2,0:0:0:0:
320,192,45143,1,0,0:0:0:0:
64,192,45314,1,2,0:0:0:0:
448,192,45314,1,4,0:0:0:0:
320,192,45314,1,0,0:0:0:0:
192,192,45486,1,4,1:0:0:0:
64,192,45657,1,8,0:0:0:0:
320,192,45657,1,0,0:0:0:0:
192,192,45829,1,0,0:0:0:0:
64,192,46000,1,4,1:0:0:0:
448,192,46000,1,2,0:0:0:0:
192,192,46086,1,4,1:0:0:0:
320,192,46171,1,4,1:0:0:0:
448,192,46343,1,0,0:0:0:0:
192,192,46343,1,8,0:0:0:0:
320,192,46514,1,0,0:0:0:0:
64,192,46514,1,2,0:0:0:0:
192,192,46686,1,2,0:0:0:0:
320,192,46686,1,0,0:0:0:0:
448,192,46686,1,4,0:0:0:0:
64,192,46857,1,0,0:0:0:0:
192,192,46857,1,2,0:0:0:0:
320,192,47029,1,2,0:0:0:0:
448,192,47029,1,0,0:0:0:0:
320,192,47200,1,0,0:0:0:0:
192,192,47200,1,2,0:0:0:0:
64,192,47371,1,2,0:0:0:0:
320,192,47371,1,0,0:0:0:0:
448,192,47371,1,4,0:0:0:0:
192,192,47457,1,2,0:0:0:0:
320,192,47543,1,2,0:0:0:0:
448,192,47543,1,0,0:0:0:0:
64,192,47629,1,2,0:0:0:0:
192,192,47714,1,2,0:0:0:0:
448,192,47714,1,0,0:0:0:0:
320,192,47800,1,2,0:0:0:0:
192,192,47886,1,2,0:0:0:0:
64,192,47886,1,0,0:0:0:0:
320,192,47971,1,2,0:0:0:0:
64,192,48057,1,2,0:0:0:0:
448,192,48057,1,0,0:0:0:0:
64,192,48229,1,2,0:0:0:0:
192,192,48229,1,0,0:0:0:0:
320,192,48229,1,0,0:0:0:0:
448,192,48400,1,2,0:0:0:0:
320,192,48400,1,0,0:0:0:0:
192,192,48400,1,0,0:0:0:0:
192,192,48571,1,2,0:0:0:0:
64,192,48571,1,0,0:0:0:0:
320,192,48571,1,0,0:0:0:0:
448,192,48743,1,2,0:0:0:0:
320,192,48743,1,0,0:0:0:0:
64,192,48743,1,0,0:0:0:0:
448,192,48914,1,2,0:0:0:0:
320,192,48914,1,0,0:0:0:0:
64,192,48914,1,0,0:0:0:0:
448,192,49086,1,2,0:0:0:0:
64,192,49086,1,4,0:0:0:0:
448,192,49429,1,4,0:0:0:0:
64,192,49429,1,2,0:0:0:0:
320,192,49429,1,0,0:0:0:0:
192,192,49600,1,0,0:0:0:0:
320,192,49686,1,0,0:0:0:0:
192,192,49771,1,0,0:0:0:0:
448,192,49771,1,8,0:0:0:0:
192,192,49943,1,0,0:0:0:0:
448,192,49943,1,0,0:0:0:0:
448,192,50114,1,2,0:0:0:0:
192,192,50114,1,0,0:0:0:0:
320,192,50286,1,0,0:0:0:0:
64,192,50286,1,0,0:0:0:0:
192,192,50457,1,0,0:0:0:0:
64,192,50457,1,8,0:0:0:0:
320,192,50629,1,0,0:0:0:0:
448,192,50629,1,0,0:0:0:0:
64,192,50800,1,2,0:0:0:0:
192,192,50971,1,0,0:0:0:0:
320,192,51057,1,0,0:0:0:0:
448,192,51143,1,0,0:0:0:0:
192,192,51143,1,8,0:0:0:0:
448,192,51314,1,0,0:0:0:0:
192,192,51314,1,0,0:0:0:0:
320,192,51486,128,0,51829:0:0:0:0:
64,192,51486,128,4,51657:1:0:0:0:
192,192,51657,128,0,51829:0:0:0:0:
448,194,51829,128,4,52000:1:0:0:0:
64,192,51829,128,0,52171:0:0:0:0:
320,194,52000,128,0,52171:0:0:0:0:
192,192,52171,1,4,0:0:0:0:
448,192,52171,1,2,0:0:0:0:
320,192,52343,1,0,0:0:0:0:
192,192,52429,1,0,0:0:0:0:
64,192,52514,1,0,0:0:0:0:
320,192,52514,1,8,0:0:0:0:
320,192,52686,1,0,0:0:0:0:
64,192,52686,1,0,0:0:0:0:
64,192,52857,1,2,0:0:0:0:
320,192,52857,1,0,0:0:0:0:
448,192,53029,1,0,0:0:0:0:
320,192,53086,1,0,0:0:0:0:
192,192,53143,1,0,0:0:0:0:
64,192,53200,1,8,0:0:0:0:
448,192,53200,1,0,0:0:0:0:
192,192,53371,1,0,0:0:0:0:
320,192,53371,1,0,0:0:0:0:
448,192,53543,1,2,0:0:0:0:
320,192,53714,1,0,0:0:0:0:
192,192,53800,1,0,0:0:0:0:
320,192,53886,1,0,0:0:0:0:
64,192,53886,1,8,0:0:0:0:
320,192,54057,1,0,0:0:0:0:
64,192,54057,1,0,0:0:0:0:
192,192,54229,1,2,0:0:0:0:
448,192,54229,1,0,0:0:0:0:
64,192,54400,1,0,0:0:0:0:
64,192,54486,1,0,0:0:0:0:
320,192,54571,1,0,0:0:0:0:
448,192,54571,1,2,0:0:0:0:
192,192,54743,1,0,0:0:0:0:
448,192,54914,1,2,0:0:0:0:
64,192,54914,1,0,0:0:0:0:
320,192,54914,1,4,0:0:0:0:
320,192,55086,1,0,0:0:0:0:
192,192,55171,1,0,0:0:0:0:
448,192,55257,1,8,0:0:0:0:
64,192,55257,1,0,0:0:0:0:
64,192,55429,1,0,0:0:0:0:
448,192,55429,1,0,0:0:0:0:
448,192,55600,1,2,0:0:0:0:
64,192,55600,1,0,0:0:0:0:
448,192,55771,1,0,0:0:0:0:
192,192,55771,1,0,0:0:0:0:
320,192,55943,1,8,0:0:0:0:
64,192,55943,1,0,0:0:0:0:
192,192,56114,1,0,0:0:0:0:
448,192,56114,1,0,0:0:0:0:
64,192,56286,1,2,0:0:0:0:
320,192,56457,1,0,0:0:0:0:
192,192,56543,1,0,0:0:0:0:
448,192,56629,1,0,0:0:0:0:
64,192,56629,1,8,0:0:0:0:
64,192,56800,1,0,0:0:0:0:
448,192,56800,1,0,0:0:0:0:
192,192,56971,128,4,57314:1:0:0:0:
320,192,56971,128,2,57143:0:0:0:0:
448,192,57143,128,0,57314:0:0:0:0:
64,192,57314,128,4,57486:1:0:0:0:
320,192,57314,128,8,57657:0:0:0:0:
192,192,57486,128,0,57657:0:0:0:0:
64,192,57657,1,2,0:0:0:0:
448,192,57657,1,4,0:0:0:0:
320,192,57829,1,0,0:0:0:0:
192,192,57914,1,0,0:0:0:0:
64,192,58000,1,8,0:0:0:0:
448,192,58000,1,0,0:0:0:0:
64,192,58171,1,0,0:0:0:0:
448,192,58171,1,0,0:0:0:0:
64,192,58343,1,2,0:0:0:0:
448,192,58343,1,0,0:0:0:0:
192,192,58514,1,0,0:0:0:0:
320,192,58571,1,0,0:0:0:0:
192,192,58629,1,0,0:0:0:0:
64,192,58686,1,8,0:0:0:0:
448,192,58686,1,0,0:0:0:0:
192,192,58857,1,0,0:0:0:0:
320,192,58857,1,0,0:0:0:0:
192,192,59029,1,4,1:0:0:0:
64,192,59029,1,2,0:0:0:0:
192,192,59200,1,4,1:0:0:0:
64,192,59200,1,2,0:0:0:0:
320,192,59371,1,2,0:0:0:0:
448,192,59400,1,2,0:0:0:0:
64,192,59429,1,2,0:0:0:0:
192,192,59457,1,2,0:0:0:0:
320,192,59486,1,2,0:0:0:0:
448,192,59514,1,2,0:0:0:0:
64,192,59543,1,2,0:0:0:0:
192,192,59543,1,4,1:0:0:0:
448,192,59629,1,4,1:0:0:0:
320,192,59629,1,2,0:0:0:0:
64,192,59714,1,2,0:0:0:0:
192,192,59714,1,4,1:0:0:0:
64,192,59886,1,2,0:0:0:0:
192,192,59886,1,4,1:0:0:0:
64,192,60057,1,4,1:0:0:0:
448,192,60057,1,2,0:0:0:0:
64,192,60400,1,0,0:0:0:0:
448,192,60400,1,2,0:0:0:0:
320,192,60400,1,4,1:0:0:0:
192,192,60571,1,0,0:0:0:0:
448,192,60571,1,0,0:0:0:0:
320,192,60657,1,0,0:0:0:0:
192,192,60743,1,0,0:0:0:0:
64,192,60914,1,0,0:0:0:0:
448,192,60914,1,2,0:0:0:0:
320,192,61086,1,0,0:0:0:0:
192,192,61257,1,0,0:0:0:0:
448,192,61257,1,2,0:0:0:0:
64,192,61429,1,0,0:0:0:0:
320,192,61600,1,0,0:0:0:0:
192,192,61600,1,0,0:0:0:0:
64,192,61771,1,0,0:0:0:0:
448,192,61771,1,2,0:0:0:0:
320,192,61943,1,0,0:0:0:0:
64,192,61943,1,0,0:0:0:0:
192,192,62029,1,0,0:0:0:0:
320,192,62114,1,0,0:0:0:0:
192,192,62286,1,0,0:0:0:0:
64,192,62286,1,2,0:0:0:0:
320,192,62457,128,0,62629:0:0:0:0:
192,192,62629,128,0,62800:0:0:0:0:
448,192,62629,1,2,0:0:0:0:
320,192,62800,1,0,0:0:0:0:
64,192,62800,128,0,62971:0:0:0:0:
448,192,62886,1,0,0:0:0:0:
192,192,62971,128,0,63143:0:0:0:0:
320,192,62971,1,0,0:0:0:0:
448,192,63143,1,0,0:0:0:0:
64,192,63143,1,2,0:0:0:0:
64,192,63314,1,0,0:0:0:0:
320,192,63314,1,0,0:0:0:0:
192,192,63400,1,0,0:0:0:0:
320,192,63486,1,0,0:0:0:0:
64,192,63657,1,2,0:0:0:0:
448,192,63657,1,0,0:0:0:0:
320,192,63829,1,0,0:0:0:0:
448,192,64000,1,0,0:0:0:0:
64,192,64000,1,2,0:0:0:0:
320,192,64057,1,0,0:0:0:0:
192,192,64114,1,0,0:0:0:0:
64,192,64171,1,0,0:0:0:0:
448,192,64171,1,0,0:0:0:0:
192,192,64343,1,0,0:0:0:0:
320,192,64343,1,0,0:0:0:0:
64,192,64514,1,2,0:0:0:0:
448,192,64514,1,0,0:0:0:0:
192,192,64686,1,0,0:0:0:0:
448,192,64686,1,0,0:0:0:0:
320,192,64771,1,0,0:0:0:0:
192,192,64857,1,0,0:0:0:0:
64,192,65029,1,2,0:0:0:0:
448,192,65029,1,0,0:0:0:0:
64,192,65200,1,2,0:0:0:0:
320,192,65200,1,0,0:0:0:0:
192,192,65371,1,0,0:0:0:0:
192,192,65457,1,0,0:0:0:0:
64,192,65543,1,2,0:0:0:0:
448,192,65543,1,0,0:0:0:0:
320,192,65714,1,0,0:0:0:0:
192,192,65886,1,4,0:0:0:0:
448,192,65886,1,0,0:0:0:0:
64,192,65886,1,2,0:0:0:0:
320,192,66057,1,0,0:0:0:0:
192,192,66143,1,0,0:0:0:0:
448,192,66229,1,0,0:0:0:0:
64,192,66229,1,8,0:0:0:0:
64,192,66400,1,0,0:0:0:0:
448,192,66400,1,0,0:0:0:0:
64,192,66571,1,2,0:0:0:0:
448,192,66571,1,0,0:0:0:0:
448,192,66743,1,0,0:0:0:0:
320,192,66743,1,0,0:0:0:0:
320,192,66914,1,8,0:0:0:0:
192,192,66914,1,0,0:0:0:0:
64,192,67086,1,0,0:0:0:0:
448,192,67086,1,0,0:0:0:0:
320,192,67257,1,2,0:0:0:0:
192,192,67429,1,0,0:0:0:0:
320,192,67514,1,0,0:0:0:0:
64,192,67600,1,8,0:0:0:0:
448,192,67600,1,0,0:0:0:0:
64,192,67771,1,0,0:0:0:0:
448,192,67771,1,0,0:0:0:0:
64,192,67943,128,2,68286:0:0:0:0:
192,192,67943,128,0,68114:0:0:0:0:
320,192,68114,128,0,68286:0:0:0:0:
192,192,68286,128,8,68457:0:0:0:0:
448,192,68286,128,0,68629:0:0:0:0:
320,192,68457,128,0,68629:0:0:0:0:
64,192,68629,1,0,0:0:0:0:
192,192,68629,1,2,0:0:0:0:
192,192,68800,1,0,0:0:0:0:
320,192,68886,1,0,0:0:0:0:
448,192,68971,1,8,0:0:0:0:
192,192,68971,1,0,0:0:0:0:
192,192,69143,1,0,0:0:0:0:
448,192,69143,1,0,0:0:0:0:
192,192,69314,1,0,0:0:0:0:
448,192,69314,1,2,0:0:0:0:
320,192,69486,1,0,0:0:0:0:
448,192,69543,1,0,0:0:0:0:
320,192,69600,1,0,0:0:0:0:
192,192,69657,1,0,0:0:0:0:
64,192,69657,1,8,0:0:0:0:
320,192,69829,1,0,0:0:0:0:
448,192,70000,1,4,0:0:0:0:
192,192,70000,128,2,71029:0:0:0:0:
320,192,70171,1,0,0:0:0:0:
64,192,70343,1,0,0:0:0:0:
320,192,70514,1,0,0:0:0:0:
448,192,70686,1,0,0:0:0:0:
320,192,70857,1,0,0:0:0:0:
64,192,71029,1,4,0:0:0:0:
320,192,71029,1,0,0:0:0:0:
448,192,71029,1,8,0:0:0:0:
192,192,71200,1,0,0:0:0:0:
448,192,71371,1,2,1:0:0:0:
64,192,71371,1,4,0:0:0:0:
320,192,71371,1,0,0:0:0:0:
192,192,71543,1,0,0:0:0:0:
192,192,71714,1,0,0:0:0:0:
64,192,71886,1,0,0:0:0:0:
448,192,72057,1,2,1:0:0:0:
320,192,72057,1,0,0:0:0:0:
64,192,72229,1,0,0:0:0:0:
192,192,72314,1,0,0:0:0:0:
64,192,72400,1,2,1:0:0:0:
320,192,72400,1,0,0:0:0:0:
448,192,72571,1,0,0:0:0:0:
64,192,72743,1,0,0:0:0:0:
192,192,72914,1,0,0:0:0:0:
320,192,73086,1,0,0:0:0:0:
192,192,73086,1,2,1:0:0:0:
64,192,73257,1,0,0:0:0:0:
448,192,73429,1,0,0:0:0:0:
320,192,73600,1,0,0:0:0:0:
64,192,73600,1,2,1:0:0:0:
192,192,73686,1,0,0:0:0:0:
320,192,73771,1,0,0:0:0:0:
64,192,73943,1,0,0:0:0:0:
192,192,74114,1,2,1:0:0:0:
320,192,74114,1,0,0:0:0:0:
448,192,74286,1,0,0:0:0:0:
448,192,74371,1,0,0:0:0:0:
320,192,74457,1,0,0:0:0:0:
192,192,74629,1,0,0:0:0:0:
192,192,74714,1,0,0:0:0:0:
64,192,74800,1,2,1:0:0:0:
448,192,74800,1,0,0:0:0:0:
192,192,74971,1,0,0:0:0:0:
64,192,75143,1,2,1:0:0:0:
448,192,75143,1,0,0:0:0:0:
320,192,75314,1,0,0:0:0:0:
192,192,75657,1,0,0:0:0:0:
320,192,75714,1,0,0:0:0:0:
192,192,75771,1,0,0:0:0:0:
448,192,75829,1,0,0:0:0:0:
64,192,75829,1,2,1:0:0:0:
320,192,76000,1,0,0:0:0:0:
64,192,76171,1,0,0:0:0:0:
64,192,76257,1,0,0:0:0:0:
448,192,76343,1,0,0:0:0:0:
192,192,76343,1,2,1:0:0:0:
320,192,76514,1,0,0:0:0:0:
448,192,76686,1,0,0:0:0:0:
64,192,76857,1,2,1:0:0:0:
320,192,76857,1,0,0:0:0:0:
192,192,77029,1,0,0:0:0:0:
192,192,77200,1,0,0:0:0:0:
448,192,77371,1,0,0:0:0:0:
320,192,77543,1,2,1:0:0:0:
192,192,77543,1,0,0:0:0:0:
64,192,77714,1,0,0:0:0:0:
192,192,77800,1,0,0:0:0:0:
320,192,77886,1,2,1:0:0:0:
64,192,77886,1,0,0:0:0:0:
448,192,78057,1,0,0:0:0:0:
64,192,78229,1,0,0:0:0:0:
192,192,78400,1,0,0:0:0:0:
192,192,78571,1,0,0:0:0:0:
320,192,78571,1,2,1:0:0:0:
64,192,78743,1,0,0:0:0:0:
320,192,78914,1,0,0:0:0:0:
448,192,79086,1,2,1:1:0:0:
64,192,79086,1,0,0:0:0:0:
192,192,79171,1,0,0:0:0:0:
320,192,79257,1,0,0:0:0:0:
192,192,79429,1,0,0:0:0:0:
64,192,79600,1,0,0:0:0:0:
448,192,79600,1,2,1:0:0:0:
320,192,79771,1,0,0:0:0:0:
320,192,79857,1,0,0:0:0:0:
448,192,79943,1,0,0:0:0:0:
192,192,80114,1,0,0:0:0:0:
192,192,80200,1,0,0:0:0:0:
320,192,80286,1,2,1:0:0:0:
64,192,80286,1,0,0:0:0:0:
448,192,80457,1,0,0:0:0:0:
320,192,80629,1,2,1:0:0:0:
64,192,80629,1,0,0:0:0:0:
192,192,80800,1,0,0:0:0:0:
192,192,80971,1,0,0:0:0:0:
320,192,81143,1,0,0:0:0:0:
192,192,81200,1,0,0:0:0:0:
320,192,81257,1,0,0:0:0:0:
64,192,81314,1,2,1:0:0:0:
448,192,81314,1,4,1:0:0:0:
320,192,81486,1,4,1:0:0:0:
192,192,81571,1,4,1:0:0:0:
64,192,81657,1,4,1:0:0:0:
448,192,81657,128,0,82343:0:0:0:0:
320,192,81829,1,4,1:0:0:0:
64,192,81829,1,2,1:0:0:0:
320,192,82000,1,4,1:0:0:0:
192,192,82171,1,4,1:0:0:0:
192,192,82343,1,0,0:0:0:0:
64,192,82343,1,4,0:0:0:0:
320,192,82343,1,2,0:0:0:0:
192,192,82514,1,0,0:0:0:0:
448,192,82514,128,0,82686:0:0:0:0:
64,192,82686,1,0,0:0:0:0:
64,192,82857,1,0,0:0:0:0:
192,192,82857,128,0,83029:0:0:0:0:
448,192,83029,1,0,0:0:0:0:
192,192,83200,1,0,0:0:0:0:
448,192,83200,128,0,83371:0:0:0:0:
64,192,83286,1,0,0:0:0:0:
192,192,83371,1,0,0:0:0:0:
320,192,83543,1,0,0:0:0:0:
192,192,83543,128,0,83714:0:0:0:0:
64,192,83714,1,0,0:0:0:0:
448,192,83886,128,0,84057:0:0:0:0:
320,192,83886,1,0,0:0:0:0:
192,192,84057,1,0,0:0:0:0:
192,192,84229,1,0,0:0:0:0:
64,192,84229,128,0,84400:0:0:0:0:
448,192,84400,1,0,0:0:0:0:
64,192,84571,1,0,0:0:0:0:
448,192,84571,128,0,84743:0:0:0:0:
192,192,84657,1,0,0:0:0:0:
64,192,84743,1,0,0:0:0:0:
320,192,84914,1,0,0:0:0:0:
192,192,84914,128,0,85086:0:0:0:0:
448,192,85086,1,0,0:0:0:0:
448,192,85257,1,0,0:0:0:0:
64,192,85257,128,0,85429:0:0:0:0:
448,192,85343,1,0,0:0:0:0:
192,192,85429,1,0,0:0:0:0:
320,192,85600,1,0,0:0:0:0:
64,192,85600,128,0,85771:0:0:0:0:
320,192,85686,1,0,0:0:0:0:
448,192,85771,1,0,0:0:0:0:
192,192,85943,1,0,0:0:0:0:
448,192,85943,128,0,86114:0:0:0:0:
192,192,86029,1,0,0:0:0:0:
320,192,86114,1,0,0:0:0:0:
192,192,86286,1,0,0:0:0:0:
64,192,86286,128,0,86457:0:0:0:0:
192,192,86629,1,0,0:0:0:0:
64,192,86629,128,0,86800:0:0:0:0:
320,192,86686,1,0,0:0:0:0:
448,192,86743,1,0,0:0:0:0:
192,192,86800,1,0,0:0:0:0:
448,192,86971,128,0,87143:0:0:0:0:
320,192,86971,1,0,0:0:0:0:
192,192,87143,1,0,0:0:0:0:
192,192,87229,1,0,0:0:0:0:
320,192,87314,1,0,0:0:0:0:
64,192,87314,128,0,87486:0:0:0:0:
448,192,87486,1,0,0:0:0:0:
192,192,87657,128,0,87829:0:0:0:0:
320,192,87657,1,0,0:0:0:0:
64,192,87829,1,0,0:0:0:0:
320,192,87829,1,2,0:0:0:0:
448,192,87829,1,4,0:0:0:0:
192,192,88000,1,0,0:0:0:0:
448,192,88000,1,8,0:0:0:0:
192,192,88086,1,0,0:0:0:0:
64,192,88171,1,8,0:0:0:0:
320,192,88171,1,0,0:0:0:0:
448,192,88343,1,8,0:0:0:0:
64,192,88343,1,0,0:0:0:0:
320,192,88514,1,8,0:0:0:0:
192,192,88514,1,0,0:0:0:0:
64,192,88686,1,8,0:0:0:0:
448,192,88686,1,0,0:0:0:0:
192,192,88743,1,0,0:0:0:0:
320,192,88800,1,0,0:0:0:0:
448,192,88857,1,0,0:0:0:0:
64,192,88857,1,8,0:0:0:0:
192,192,89029,1,2,0:0:0:0:
320,192,89029,1,8,0:0:0:0:
64,192,89200,1,8,0:0:0:0:
320,192,89200,1,2,0:0:0:0:
448,192,89200,1,4,0:0:0:0:
192,192,89371,1,0,0:0:0:0:
448,192,89371,1,8,0:0:0:0:
192,192,89457,1,0,0:0:0:0:
320,192,89543,1,8,0:0:0:0:
64,192,89543,1,0,0:0:0:0:
64,192,89714,1,0,0:0:0:0:
448,192,89714,1,8,0:0:0:0:
192,192,89886,1,0,0:0:0:0:
320,192,89886,1,8,0:0:0:0:
64,192,90057,1,8,0:0:0:0:
448,192,90057,1,0,0:0:0:0:
192,192,90114,1,0,0:0:0:0:
320,192,90171,1,0,0:0:0:0:
448,192,90229,1,0,0:0:0:0:
64,192,90229,1,8,0:0:0:0:
192,192,90314,1,8,0:0:0:0:
320,192,90400,1,8,0:0:0:0:
448,192,90400,1,2,0:0:0:0:
192,192,90486,1,8,0:0:0:0:
320,192,90571,1,8,0:0:0:0:
64,192,90571,1,2,0:0:0:0:
448,192,90571,1,4,0:0:0:0:
192,192,90657,1,8,0:0:0:0:
320,192,90743,1,8,0:0:0:0:
192,192,90829,1,8,0:0:0:0:
320,192,90914,1,8,0:0:0:0:
192,192,91000,1,8,0:0:0:0:
320,192,91086,1,8,0:0:0:0:
192,192,91171,1,8,0:0:0:0:
64,192,91257,1,2,0:0:0:0:
320,192,91257,1,8,0:0:0:0:
448,192,91257,1,4,0:0:0:0:
192,192,91343,1,8,0:0:0:0:
320,192,91429,1,8,0:0:0:0:
192,192,91514,1,8,0:0:0:0:
448,192,91600,1,8,0:0:0:0:
320,192,91657,1,8,0:0:0:0:
192,192,91714,1,8,0:0:0:0:
64,192,91771,1,8,0:0:0:0:
192,192,91857,1,8,0:0:0:0:
64,192,91943,1,0,0:0:0:0:
320,192,91943,1,2,0:0:0:0:
448,192,91943,1,4,0:0:0:0:
448,192,92114,1,2,0:0:0:0:
320,192,92114,1,0,0:0:0:0:
64,192,92114,1,4,0:0:0:0:
192,192,92171,1,0,0:0:0:0:
320,192,92229,1,0,0:0:0:0:
64,192,92286,1,0,0:0:0:0:
448,192,92286,1,4,0:0:0:0:
192,192,92286,1,2,0:0:0:0:
320,192,92457,1,2,0:0:0:0:
64,192,92457,1,4,0:0:0:0:
448,192,92457,1,0,0:0:0:0:
192,192,92629,1,2,0:0:0:0:
448,192,92629,1,0,0:0:0:0:
64,192,92629,1,4,0:0:0:0:
192,192,92800,1,2,0:0:0:0:
320,192,92800,1,0,0:0:0:0:
448,192,92800,1,4,0:0:0:0:
64,192,92971,1,4,0:0:0:0:
448,192,92971,1,0,0:0:0:0:
192,192,92971,1,2,0:0:0:0:
64,192,93143,1,4,0:0:0:0:
192,192,93143,1,2,0:0:0:0:
320,192,93143,1,0,0:0:0:0:
64,192,93314,1,4,0:0:0:0:
448,192,93314,128,2,94343:1:0:0:0:
320,192,94343,1,8,0:0:0:0:
192,192,94343,1,2,0:0:0:0:
64,192,94343,1,0,0:0:0:0:
64,192,94686,1,2,0:0:0:0:
448,192,94686,1,4,0:0:0:0:
320,192,94686,1,0,0:0:0:0:
192,192,94857,1,0,0:0:0:0:
192,192,94943,1,0,0:0:0:0:
64,192,95029,1,8,0:0:0:0:
448,192,95029,1,0,0:0:0:0:
192,192,95200,1,0,0:0:0:0:
320,192,95200,1,0,0:0:0:0:
448,192,95371,1,2,0:0:0:0:
320,192,95371,1,0,0:0:0:0:
192,192,95543,1,0,0:0:0:0:
64,192,95600,1,0,0:0:0:0:
192,192,95657,1,0,0:0:0:0:
448,192,95714,1,8,0:0:0:0:
320,192,95714,1,0,0:0:0:0:
64,192,95886,1,0,0:0:0:0:
448,192,95886,1,0,0:0:0:0:
192,192,96057,1,2,0:0:0:0:
320,192,96229,1,0,0:0:0:0:
320,192,96314,1,0,0:0:0:0:
192,192,96400,1,0,0:0:0:0:
448,192,96400,1,8,0:0:0:0:
64,192,96571,1,0,0:0:0:0:
192,192,96571,1,0,0:0:0:0:
448,192,96743,1,2,0:0:0:0:
64,192,96743,1,0,0:0:0:0:
320,192,96914,1,0,0:0:0:0:
448,192,96971,1,0,0:0:0:0:
320,192,97029,1,0,0:0:0:0:
64,192,97086,1,8,0:0:0:0:
192,192,97086,1,0,1:0:0:0:
192,192,97257,1,0,0:0:0:0:
320,192,97257,1,0,0:0:0:0:
64,192,97429,1,2,0:0:0:0:
448,192,97429,1,0,0:0:0:0:
320,192,97600,1,0,0:0:0:0:
320,192,97686,1,0,0:0:0:0:
192,192,97771,1,0,0:0:0:0:
64,192,97771,1,8,0:0:0:0:
192,192,97943,1,0,0:0:0:0:
192,192,98029,1,0,0:0:0:0:
448,192,98114,1,0,0:0:0:0:
64,192,98114,1,2,0:0:0:0:
320,192,98286,1,0,0:0:0:0:
320,192,98371,1,0,0:0:0:0:
448,192,98457,1,8,0:0:0:0:
192,192,98457,1,0,0:0:0:0:
64,192,98629,1,0,0:0:0:0:
320,192,98629,1,0,0:0:0:0:
192,192,98800,1,2,0:0:0:0:
320,192,98971,1,0,0:0:0:0:
192,192,99029,1,0,0:0:0:0:
320,192,99086,1,0,0:0:0:0:
64,192,99143,1,8,0:0:0:0:
448,192,99143,1,0,0:0:0:0:
192,192,99314,1,0,0:0:0:0:
448,192,99314,1,0,0:0:0:0:
64,192,99486,1,2,0:0:0:0:
320,192,99486,1,0,0:0:0:0:
64,192,99571,1,0,0:0:0:0:
192,192,99657,1,0,0:0:0:0:
320,192,99657,1,0,0:0:0:0:
64,192,99829,1,0,0:0:0:0:
448,192,99829,1,8,0:0:0:0:
320,192,100000,1,4,1:0:0:0:
192,192,100086,1,4,1:0:0:0:
64,192,100171,1,4,1:0:0:0:
448,192,100171,1,2,0:0:0:0:
192,192,100343,1,0,0:0:0:0:
192,192,100429,1,0,0:0:0:0:
320,192,100514,1,0,0:0:0:0:
448,192,100514,1,8,0:0:0:0:
64,192,100686,1,0,0:0:0:0:
320,192,100686,1,0,0:0:0:0:
64,192,100857,1,0,0:0:0:0:
448,192,100857,1,2,0:0:0:0:
192,192,101029,1,0,0:0:0:0:
320,192,101086,1,0,0:0:0:0:
192,192,101143,1,0,0:0:0:0:
64,192,101200,1,8,0:0:0:0:
448,192,101200,1,0,0:0:0:0:
192,192,101371,1,0,0:0:0:0:
448,192,101371,1,0,0:0:0:0:
64,192,101543,1,2,0:0:0:0:
320,192,101714,1,0,0:0:0:0:
320,192,101800,1,0,0:0:0:0:
448,192,101886,1,0,0:0:0:0:
192,192,101886,1,8,0:0:0:0:
64,192,102057,1,0,0:0:0:0:
320,192,102057,1,0,0:0:0:0:
192,192,102229,1,2,0:0:0:0:
448,192,102229,1,0,0:0:0:0:
320,192,102400,1,0,0:0:0:0:
192,192,102457,1,0,0:0:0:0:
320,192,102514,1,0,0:0:0:0:
64,192,102571,1,8,0:0:0:0:
448,192,102571,1,0,0:0:0:0:
192,192,102743,1,0,0:0:0:0:
448,192,102743,1,0,0:0:0:0:
64,192,102914,1,2,0:0:0:0:
448,192,102914,1,0,0:0:0:0:
320,192,103086,1,0,0:0:0:0:
448,192,103143,1,0,0:0:0:0:
320,192,103200,1,0,0:0:0:0:
192,192,103257,1,0,0:0:0:0:
64,192,103257,1,8,0:0:0:0:
320,192,103429,1,4,1:0:0:0:
320,192,103514,1,0,0:0:0:0:
64,192,103600,1,2,0:0:0:0:
448,192,103600,1,0,0:0:0:0:
192,192,103771,1,0,0:0:0:0:
192,192,103857,1,0,0:0:0:0:
64,192,103943,1,8,0:0:0:0:
320,192,103943,1,4,1:0:0:0:
448,192,104114,1,4,0:0:0:0:
192,192,104114,1,2,0:0:0:0:
64,192,104286,1,2,0:0:0:0:
448,192,104286,1,4,0:0:0:0:
320,192,104286,1,0,0:0:0:0:
320,192,104457,1,0,0:0:0:0:
448,192,104514,1,0,0:0:0:0:
192,192,104571,1,0,0:0:0:0:
64,192,104629,1,0,0:0:0:0:
192,192,104800,1,0,0:0:0:0:
320,192,104971,1,2,0:0:0:0:
448,192,104971,1,0,0:0:0:0:
192,192,105029,1,0,0:0:0:0:
320,192,105086,1,0,0:0:0:0:
64,192,105143,1,0,0:0:0:0:
64,192,105314,1,2,0:0:0:0:
192,192,105314,1,0,0:0:0:0:
192,192,105486,1,2,0:0:0:0:
320,192,105486,1,4,0:0:0:0:
64,192,105657,1,4,1:0:0:0:
320,192,105657,1,2,0:0:0:0:
448,192,105657,1,4,0:0:0:0:
448,192,105829,1,0,0:0:0:0:
448,192,105914,1,0,0:0:0:0:
320,192,106000,1,8,0:0:0:0:
64,192,106000,1,0,0:0:0:0:
64,192,106171,1,0,0:0:0:0:
192,192,106171,1,0,0:0:0:0:
320,192,106343,1,2,0:0:0:0:
448,192,106343,128,0,107029:0:0:0:0:
64,192,106514,1,0,0:0:0:0:
192,192,106571,1,0,0:0:0:0:
320,192,106629,1,0,0:0:0:0:
64,192,106686,1,8,0:0:0:0:
192,192,106686,1,0,0:0:0:0:
320,192,106857,1,0,0:0:0:0:
192,192,107029,1,2,0:0:0:0:
64,192,107029,128,0,107714:0:0:0:0:
448,192,107200,1,0,0:0:0:0:
320,192,107286,1,0,0:0:0:0:
448,192,107371,1,8,0:0:0:0:
192,192,107371,1,0,0:0:0:0:
320,192,107543,1,0,0:0:0:0:
192,192,107714,1,2,0:0:0:0:
448,192,107714,128,0,108400:0:0:0:0:
64,192,107886,1,0,0:0:0:0:
192,192,107943,1,0,0:0:0:0:
320,192,108000,1,0,0:0:0:0:
192,192,108057,1,8,0:0:0:0:
64,192,108057,1,0,0:0:0:0:
320,192,108229,1,0,0:0:0:0:
64,192,108400,1,2,0:0:0:0:
192,192,108400,128,0,109771:0:0:0:0:
448,192,108571,1,0,0:0:0:0:
448,192,108657,1,0,0:0:0:0:
64,192,108743,1,8,0:0:0:0:
320,192,108743,1,0,0:0:0:0:
320,192,108914,1,0,0:0:0:0:
320,192,109000,1,0,0:0:0:0:
448,192,109086,1,0,0:0:0:0:
64,192,109086,1,2,0:0:0:0:
64,192,109257,1,0,0:0:0:0:
64,192,109343,1,0,0:0:0:0:
448,192,109429,1,8,0:0:0:0:
320,192,109429,1,0,0:0:0:0:
320,192,109600,1,0,0:0:0:0:
64,192,109771,1,2,0:0:0:0:
448,192,109771,1,0,0:0:0:0:
320,192,109943,1,0,0:0:0:0:
448,192,110000,1,0,0:0:0:0:
320,192,110057,1,0,0:0:0:0:
192,192,110114,1,0,0:0:0:0:
64,192,110114,1,8,0:0:0:0:
448,192,110286,1,0,0:0:0:0:
64,192,110286,1,0,0:0:0:0:
192,192,110457,1,2,0:0:0:0:
320,192,110457,1,0,0:0:0:0:
192,192,110543,1,0,0:0:0:0:
448,192,110629,1,0,0:0:0:0:
64,192,110629,1,0,0:0:0:0:
448,192,110800,1,8,0:0:0:0:
192,192,110800,1,0,0:0:0:0:
320,192,110971,1,2,0:0:0:0:
64,192,110971,1,4,1:0:0:0:
192,192,111057,1,4,1:0:0:0:
448,192,111143,1,2,0:0:0:0:
320,192,111143,1,4,0:0:0:0:
64,192,111143,1,4,1:0:0:0:
192,192,111314,1,0,0:0:0:0:
192,192,111400,1,0,0:0:0:0:
64,192,111486,1,0,0:0:0:0:
448,192,111486,1,8,0:0:0:0:
192,192,111657,1,0,0:0:0:0:
320,192,111657,1,0,0:0:0:0:
448,192,111829,1,2,0:0:0:0:
64,192,111829,128,0,112514:0:0:0:0:
192,192,112000,1,0,0:0:0:0:
448,192,112057,1,0,0:0:0:0:
320,192,112114,1,0,0:0:0:0:
192,192,112171,1,8,0:0:0:0:
448,192,112171,1,0,0:0:0:0:
448,192,112343,1,0,0:0:0:0:
320,192,112514,128,4,113200:0:0:0:0:
192,192,112514,1,2,0:0:0:0:
448,192,112686,1,0,0:0:0:0:
192,192,112771,1,0,0:0:0:0:
448,192,112857,1,0,0:0:0:0:
64,192,112857,1,8,0:0:0:0:
192,192,113029,1,0,0:0:0:0:
64,192,113200,128,0,113886:0:0:0:0:
448,192,113200,1,2,0:0:0:0:
320,192,113371,1,0,0:0:0:0:
192,192,113429,1,0,0:0:0:0:
320,192,113486,1,0,0:0:0:0:
448,192,113543,1,8,0:0:0:0:
192,192,113543,1,0,0:0:0:0:
320,192,113714,1,2,0:0:0:0:
192,192,113714,1,0,0:0:0:0:
320,192,113886,128,0,115257:0:0:0:0:
448,192,113886,1,2,0:0:0:0:
192,192,113886,1,4,0:0:0:0:
448,192,114057,1,0,0:0:0:0:
448,192,114143,1,0,0:0:0:0:
64,192,114229,1,8,0:0:0:0:
192,192,114229,1,0,0:0:0:0:
192,192,114400,1,0,0:0:0:0:
192,192,114486,1,0,0:0:0:0:
64,192,114571,1,2,0:0:0:0:
448,192,114571,1,4,0:0:0:0:
64,192,114743,1,0,0:0:0:0:
64,192,114829,1,0,0:0:0:0:
192,192,114914,1,8,0:0:0:0:
448,192,114914,1,4,1:0:0:0:
192,192,115086,1,0,0:0:0:0:
64,192,115257,1,2,0:0:0:0:
448,192,115257,1,4,0:0:0:0:
192,192,115257,1,0,0:0:0:0:
64,192,115429,1,2,0:0:0:0:
448,192,115429,1,0,0:0:0:0:
192,192,115486,1,2,0:0:0:0:
320,192,115543,1,2,0:0:0:0:
448,192,115600,1,4,1:0:0:0:
64,192,115600,1,2,0:0:0:0:
192,192,115600,1,4,0:0:0:0:
320,192,115771,1,2,0:0:0:0:
192,192,115771,1,0,0:0:0:0:
64,192,115943,1,2,0:0:0:0:
448,192,115943,1,4,0:0:0:0:
320,192,115943,1,0,0:0:0:0:
320,192,116114,1,4,1:0:0:0:
192,192,116114,1,2,0:0:0:0:
64,192,116286,1,2,0:0:0:0:
448,192,116286,1,4,0:0:0:0:
192,192,116286,1,0,0:0:0:0:
320,192,116457,1,0,0:0:0:0:
448,192,116457,1,4,0:0:0:0:
64,192,116457,1,2,0:0:0:0:
64,192,116629,1,2,0:0:0:0:
448,192,116629,1,4,0:0:0:0:
192,192,116629,1,0,0:0:0:0:
320,192,116629,1,0,0:0:0:0:
