osu file format v14

[General]
AudioFilename: Lost Love.mp3
AudioLeadIn: 0
PreviewTime: 43665
Countdown: 0
SampleSet: Normal
StackLeniency: 0.7
Mode: 0
LetterboxInBreaks: 1
WidescreenStoryboard: 0

[Editor]
DistanceSpacing: 1.2
BeatDivisor: 4
GridSize: 4
TimelineZoom: 1.8

[Metadata]
Title:Lost Love
TitleUnicode:Lost Love
Artist:ETIA.
ArtistUnicode:ETIA.
Creator:JJburstOwO
Version:Normal
Source:
Tags:レク Reku Dazzlin’ Drizzle LLMR-002 Lilium Records Meconopsis z1085684963
BeatmapID:766199
BeatmapSetID:341933

[Difficulty]
HPDrainRate:3
CircleSize:3.2
OverallDifficulty:4
ApproachRate:5
SliderMultiplier:0.799999999999999
SliderTickRate:1

[Events]
//Background and Video events
0,0,"bg.jpg",0,0
//Break Periods
2,86189,95168
2,106737,115925
2,169217,178195
//Storyboard Layer 0 (Background)
//Storyboard Layer 1 (Fail)
//Storyboard Layer 2 (Pass)
//Storyboard Layer 3 (Foreground)
//Storyboard Sound Samples

[TimingPoints]
1666,324.324324324324,4,2,1,25,1,0
22422,-100,4,1,1,40,0,0
44476,-100,4,1,1,50,0,1
65152,-100,4,1,1,50,0,0
65557,-100,4,1,1,50,0,1
85665,-100,4,1,1,50,0,0
96368,-100,4,1,1,45,0,0
117125,-100,4,1,1,40,0,0
127503,-100,4,1,1,45,0,0
148260,-100,4,1,1,40,0,0
163828,-100,4,1,1,45,0,0
168693,-100,4,2,1,30,0,0
179395,-100,4,1,1,40,0,0
187179,-100,4,1,1,45,0,0
190098,-100,4,1,1,50,0,1
210206,-100,4,1,1,50,0,0
210611,-100,4,2,1,5,0,0

[Colours]
Combo1 : 141,148,224
Combo2 : 196,201,202
Combo3 : 245,174,249

[HitObjects]
152,156,12044,6,0,B|160:212|160:212|152:260|152:260|160:316,1,160,2|0,0:0|0:0,0:0:0:0:
352,314,13341,2,0,B|360:260|360:260|352:212|352:212|360:156,1,160,2|0,0:0|0:0,0:0:0:0:
188,68,14638,5,2,0:0:0:0:
456,344,15936,2,0,P|428:316|316:328,1,160,2|0,0:0|0:0,0:0:0:0:
240,384,16909,2,0,L|160:376,1,79.9999999999999,0|4,0:0|0:0,0:0:0:0:
432,104,18530,5,4,0:0:0:0:
296,240,19179,2,0,P|256:248|216:240,1,79.9999999999999,0|0,0:0|0:0,0:0:0:0:
136,192,19828,1,2,0:0:0:0:
256,192,19909,12,0,22422,0:0:0:0:
153,164,23071,6,0,P|190:151|229:160,1,79.9999999999999,8|4,0:0|3:0,0:0:0:0:
286,237,23720,2,0,L|282:317,1,79.9999999999999,0|0,0:0|0:0,0:0:0:0:
188,336,24368,2,0,L|192:256,1,79.9999999999999,0|0,0:0|0:0,0:0:0:0:
100,284,25017,5,4,0:0:0:0:
32,104,25665,2,0,B|20:64|20:64|32:28,1,79.9999999999999,8|8,0:0|3:0,0:0:0:0:
128,28,26314,2,0,B|140:64|140:64|128:104,1,79.9999999999999
180,184,26963,2,0,P|220:196|256:188,1,79.9999999999999,0|4,0:0|3:0,0:0:0:0:
336,136,27611,5,4,0:0:0:0:
460,284,28260,2,0,L|456:364,1,79.9999999999999,8|4,0:0|3:0,0:0:0:0:
368,324,28909,2,0,P|328:312|292:320,1,79.9999999999999,0|0,0:0|0:0,0:0:0:0:
208,368,29557,2,0,P|194:326|203:283,1,79.9999999999999,0|4,0:0|3:0,0:0:0:0:
272,228,30206,5,4,3:0:0:0:
84,264,30855,2,0,B|80:236|80:236|88:208|88:208|84:184,1,79.9999999999999,8|4,0:0|3:0,0:0:0:0:
172,148,31503,2,0,B|168:125|168:125|176:97|176:97|172:69,1,79.9999999999999,0|0,0:0|0:0,0:0:0:0:
84,32,32152,1,4,3:0:0:0:
24,108,32476,1,4,3:0:0:0:
84,185,32801,6,0,L|164:180,1,79.9999999999999,4|0,0:0|0:0,0:0:0:0:
240,236,33449,2,0,L|319:230,1,79.9999999999999,0|4,0:0|3:0,0:0:0:0:
388,300,34098,2,0,P|412:264|416:228,1,79.9999999999999,0|0,0:0|0:0,0:0:0:0:
509,206,34747,2,0,P|489:167|460:145,1,79.9999999999999,4|4,3:0|3:0,0:0:0:0:
488,54,35395,6,0,P|444:51|411:65,1,79.9999999999999,4|0,3:0|0:0,0:0:0:0:
344,132,36044,2,0,L|348:216,1,79.9999999999999,0|4,0:0|3:0,0:0:0:0:
252,209,36693,2,0,L|256:130,1,79.9999999999999,0|0,0:0|0:0,0:0:0:0:
188,63,37342,2,0,P|151:48|112:52,1,79.9999999999999,4|4,3:0|3:0,0:0:0:0:
24,96,37990,5,4,3:0:0:0:
104,148,38314,1,0,0:0:0:0:
15,191,38638,1,0,0:0:0:0:
95,243,38963,1,4,3:0:0:0:
175,295,39287,2,0,L|168:376,1,79.9999999999999,0|0,0:0|0:0,0:0:0:0:
260,340,39936,2,0,L|266:260,1,79.9999999999999,4|4,3:0|3:0,0:0:0:0:
352,308,40584,5,4,3:0:0:0:
444,276,40909,2,0,P|448:316|436:356,2,79.9999999999999,0|0|4,0:0|0:0|3:0,0:0:0:0:
368,216,41882,2,0,B|360:160|360:160|376:116|376:116|364:60,1,160,0|4,0:0|3:0,0:0:0:0:
278,104,42855,2,0,P|254:108|234:108,1,40,4|0,3:0|0:0,0:0:0:0:
68,280,43828,6,0,P|144:256|212:292,1,160,0|4,2:0|0:0,0:0:0:0:
135,350,44801,1,8,0:0:0:0:
4,208,45449,1,0,0:0:0:0:
68,136,45774,2,0,P|80:96|76:56,1,79.9999999999999,0|8,0:0|0:0,0:0:0:0:
160,108,46422,2,0,B|200:100|200:100|240:108,1,79.9999999999999,0|8,0:0|0:0,0:0:0:0:
296,184,47071,6,0,P|368:216|440:188,1,160,4|0,3:0|0:0,0:0:0:0:
488,104,48044,2,0,L|492:24,1,79.9999999999999,0|0,0:0|0:0,0:0:0:0:
404,60,48693,1,8,0:0:0:0:
320,16,49017,2,0,B|295:23|295:23|270:18|270:18|240:24,1,79.9999999999999,4|8,3:0|0:0,0:0:0:0:
152,60,49665,6,0,P|116:124|152:196,2,160,4|0|0,3:0|0:0|0:0,0:0:0:0:
242,23,51287,1,8,0:0:0:0:
292,104,51611,2,0,B|317:97|317:97|342:102|342:102|372:96,1,79.9999999999999,4|8,3:0|0:0,0:0:0:0:
432,168,52260,6,0,P|352:160|304:220,1,160,4|0,3:0|0:0,0:0:0:0:
296,312,53233,1,0,0:0:0:0:
392,332,53557,2,0,B|396:304|396:304|388:280|388:280|392:252,1,79.9999999999999,0|8,0:0|0:0,0:0:0:0:
480,288,54206,2,0,B|484:260|484:260|476:236|476:236|480:208,2,79.9999999999999,4|8|4,3:0|0:0|0:0,0:0:0:0:
328,172,55503,6,0,P|296:152|252:148,1,79.9999999999999,0|0,0:0|0:0,0:0:0:0:
164,176,56152,2,0,L|160:256,1,79.9999999999999,0|8,0:0|0:0,0:0:0:0:
72,216,56801,2,0,L|68:296,1,79.9999999999999,0|8,0:0|0:0,0:0:0:0:
136,364,57449,6,0,B|188:336|188:336|288:360,1,160,4|0,3:0|0:0,0:0:0:0:
376,324,58422,1,0,0:0:0:0:
308,256,58747,2,0,L|304:176,1,79.9999999999999,0|8,0:0|0:0,0:0:0:0:
392,136,59395,2,0,L|388:188,2,40,4|4|8,3:0|3:0|0:0,0:0:0:0:
312,80,60044,6,0,P|264:144|188:140,1,160,4|0,3:0|0:0,0:0:0:0:
112,88,61017,1,0,0:0:0:0:
104,184,61341,2,0,B|100:228|100:228|108:256|108:256|104:304,2,120,0|0|8,0:0|0:0|0:0,0:0:0:0:
28,128,62638,6,0,B|-8:104|-8:104|68:92,1,120,8|8,0:0|0:0,0:0:0:0:
208,68,63611,2,0,B|244:92|244:92|168:104,1,120,4|4,3:0|3:0,0:0:0:0:
88,224,64584,2,0,B|108:196|108:196|96:252|124:300,1,140,4|4,3:0|3:0,0:0:0:0:
232,348,65557,6,0,B|288:364|288:364|384:328,1,160,4|0,0:0|0:0,0:0:0:0:
476,296,66530,2,0,L|480:216,1,79.9999999999999,0|8,0:0|0:0,0:0:0:0:
388,188,67179,2,0,L|384:108,1,79.9999999999999,0|8,0:0|0:0,0:0:0:0:
460,52,67828,6,0,P|384:76|320:36,1,160,4|0,3:0|0:0,0:0:0:0:
224,44,68801,2,0,P|236:84|260:112,2,79.9999999999999,0|0|8,0:0|0:0|0:0,0:0:0:0:
128,60,69774,2,0,L|124:140,1,79.9999999999999,4|8,3:0|0:0,0:0:0:0:
48,196,70422,6,0,P|124:172|188:212,1,160,4|0,3:0|0:0,0:0:0:0:
220,304,71395,1,0,0:0:0:0:
152,372,71720,2,0,L|112:256,2,120,0|0|8,0:0|0:0|0:0,0:0:0:0:
220,304,73017,6,0,B|276:296|276:296|320:308|320:308|380:300,1,160,4|0,3:0|0:0,0:0:0:0:
456,356,73990,1,0,0:0:0:0:
468,260,74314,2,0,P|472:220|460:180,1,79.9999999999999,0|8,0:0|0:0,0:0:0:0:
380,132,74963,2,0,L|340:128,2,40,4|4|8,3:0|3:0|0:0,0:0:0:0:
384,228,75611,6,0,B|335:239|335:239|228:220,1,160,4|0,0:0|0:0,0:0:0:0:
132,200,76584,1,0,0:0:0:0:
160,292,76909,2,0,P|160:332|144:368,1,79.9999999999999,0|8,0:0|0:0,0:0:0:0:
47,348,77557,2,0,P|47:308|63:272,1,79.9999999999999,0|8,0:0|0:0,0:0:0:0:
132,200,78206,6,0,B|124:156|124:156|156:120|164:84|148:32,1,160,4|0,3:0|0:0,0:0:0:0:
64,84,79179,1,0,0:0:0:0:
36,176,79503,2,0,L|52:260,1,79.9999999999999,0|8,0:0|0:0,0:0:0:0:
132,200,80152,2,0,L|148:284,1,79.9999999999999,4|8,3:0|0:0,0:0:0:0:
228,224,80801,6,0,B|244:304|244:304|264:328|288:336|316:332,1,160,4|4,3:0|3:0,0:0:0:0:
408,316,81774,1,8,0:0:0:0:
452,232,82098,2,0,L|460:152,1,79.9999999999999,4|8,3:0|0:0,0:0:0:0:
432,60,82747,1,4,3:0:0:0:
345,19,83071,1,8,0:0:0:0:
256,52,83395,5,4,3:0:0:0:
204,132,83720,2,0,L|220:252,2,120,8|8|8,0:0|0:0|0:0,0:0:0:0:
80,60,85179,1,8,0:0:0:0:
28,196,85665,2,0,L|108:180,1,79.9999999999999,2|4,0:0|1:0,0:0:0:0:
320,96,96368,6,0,L|316:176,1,79.9999999999999,4|2,3:0|0:0,0:0:0:0:
272,260,97017,2,0,B|280:320|280:320|260:376,2,120,4|4|8,3:0|3:0|0:0,0:0:0:0:
192,312,98314,2,0,B|184:252|184:252|204:196,1,120,4|2,3:0|0:0,0:0:0:0:
96,100,99287,6,0,L|104:180,2,79.9999999999999,4|0|8,0:0|0:0|0:0,0:0:0:0:
160,28,100260,2,0,P|200:16|240:20,1,79.9999999999999,4|8,3:0|0:0,0:0:0:0:
287,101,100909,2,0,P|249:112|209:109,1,79.9999999999999,0|8,0:0|0:0,0:0:0:0:
164,196,101557,6,0,B|160:224|160:224|168:244|168:244|164:276,2,79.9999999999999,4|8|4,0:0|0:0|3:0,0:0:0:0:
76,156,102530,1,8,0:0:0:0:
12,228,102855,2,0,P|48:248|88:252,1,79.9999999999999,4|8,3:0|0:0,0:0:0:0:
164,196,103503,1,4,3:0:0:0:
252,236,103828,1,4,3:0:0:0:
340,276,104152,6,0,B|336:248|336:248|340:224|340:224|336:196,1,79.9999999999999,4|8,3:0|0:0,0:0:0:0:
432,216,104801,2,0,B|428:188|428:188|432:164|432:164|428:136,1,79.9999999999999,4|8,3:0|0:0,0:0:0:0:
376,56,105449,1,0,0:0:0:0:
96,148,117125,5,4,3:0:0:0:
184,320,117774,2,0,P|257:349|328:320,1,160,8|4,0:0|3:0,0:0:0:0:
416,148,119071,1,8,0:0:0:0:
256,44,119720,6,0,B|248:104|248:104|264:140|264:140|256:200,1,160,4|8,3:0|0:0,0:0:0:0:
168,236,120693,1,4,3:0:0:0:
100,168,121017,2,0,L|12:148,1,79.9999999999999,4|8,3:0|2:0,0:0:0:0:
20,248,121665,2,0,P|92:216|168:236,1,160,8|4,0:0|3:0,0:0:0:0:
304,372,122963,6,0,B|344:380|344:380|384:364,1,79.9999999999999,8|0,0:0|0:0,0:0:0:0:
444,296,123611,2,0,B|432:236|432:236|448:204|448:204|436:136,1,160,4|8,3:0|0:0,0:0:0:0:
424,48,124584,1,4,3:0:0:0:
348,108,124909,6,0,P|280:128|212:80,2,160,4|8|8,3:0|0:0|0:0,0:0:0:0:
68,36,127179,1,2,0:0:0:0:
28,124,127503,5,4,0:0:0:0:
200,208,128152,2,0,P|256:188|312:208,1,120,8|8,0:0|0:0,0:0:0:0:
348,240,128801,1,4,3:0:0:0:
164,296,129449,2,0,L|84:288,1,79.9999999999999,8|0,0:0|0:0,0:0:0:0:
32,208,130098,6,0,B|20:128|20:128|28:100|44:80|72:72,1,160,4|8,3:0|0:0,0:0:0:0:
256,128,131395,2,0,B|296:140|296:140|220:164,1,120,4|4,3:0|3:0,0:0:0:0:
184,196,132044,2,0,L|188:276,2,79.9999999999999,2|0|4,0:0|0:0|3:0,0:0:0:0:
324,64,133341,6,0,B|320:144|320:144|340:180,1,120,8|0,0:0|0:0,0:0:0:0:
372,216,133990,2,0,B|432:208|432:208|456:212|472:220|484:236,1,120,4|0,3:0|0:0,0:0:0:0:
504,280,134638,2,0,L|496:360,1,79.9999999999999,8|0,0:0|0:0,0:0:0:0:
402,383,135287,6,0,L|410:303,2,79.9999999999999,4|0|8,3:0|0:0|0:0,0:0:0:0:
216,332,136584,2,0,B|96:324|96:324|64:300,2,160,4|8|4,3:0|0:0|3:0,0:0:0:0:
300,288,138206,5,4,0:0:0:0:
240,212,138530,2,0,P|220:156|240:100,1,120,4|4,3:0|3:0,0:0:0:0:
274,68,139179,2,0,P|314:56|354:64,1,79.9999999999999,8|8,0:0|0:0,0:0:0:0:
424,124,139828,2,0,L|432:184,2,59.9999999999999,4|4|2,3:0|3:0|0:0,0:0:0:0:
320,216,140801,6,0,L|240:212,1,79.9999999999999,8|4,0:0|3:0,0:0:0:0:
52,260,141774,2,0,P|128:236|140:164,1,160,8|4,0:0|3:0,0:0:0:0:
88,84,142747,2,0,L|8:76,2,79.9999999999999,8|4|8,0:0|3:0|0:0,0:0:0:0:
164,24,143720,6,0,L|244:16,1,79.9999999999999,0|8,0:0|0:0,0:0:0:0:
332,56,144368,2,0,P|352:92|348:132,1,79.9999999999999,4|8,3:0|0:0,0:0:0:0:
252,116,145017,2,0,P|249:155|268:189,1,79.9999999999999,0|8,0:0|0:0,0:0:0:0:
360,224,145665,6,0,L|444:216,1,79.9999999999999,4|8,3:0|0:0,0:0:0:0:
416,308,146314,2,0,B|360:304|360:304|344:336|312:344,1,120,8|8,0:0|0:0,0:0:0:0:
264,344,146963,2,0,B|184:332|184:332|252:296|252:296|240:216,1,240,8|8,3:0|0:0,0:0:0:0:
221,120,148260,5,4,0:0:0:0:
149,183,148584,2,0,L|69:175,2,79.9999999999999,8|0|0,0:0|0:0|0:0,0:0:0:0:
220,120,149557,1,0,0:0:0:0:
292,56,149882,2,0,L|372:48,2,79.9999999999999,8|0|8,0:0|0:0|0:0,0:0:0:0:
220,120,150855,6,0,P|196:192|240:256,1,160,4|0,3:0|0:0,0:0:0:0:
332,288,151828,2,0,L|412:280,1,79.9999999999999,0|0,0:0|0:0,0:0:0:0:
364,196,152476,2,0,L|444:188,1,79.9999999999999,8|4,0:0|3:0,0:0:0:0:
400,104,153125,1,8,0:0:0:0:
304,116,153449,6,0,P|232:96|208:20,2,160,4|0|0,3:0|0:0|0:0,0:0:0:0:
132,204,155395,2,0,L|136:284,1,79.9999999999999,4|8,3:0|0:0,0:0:0:0:
200,356,156044,6,0,B|236:372|236:372|276:364,1,79.9999999999999,4|8,3:0|0:0,0:0:0:0:
360,320,156693,2,0,B|391:296|391:296|404:258,1,79.9999999999999,0|0,0:0|0:0,0:0:0:0:
408,163,157341,2,0,B|403:123|403:123|376:93,1,79.9999999999999,0|8,0:0|0:0,0:0:0:0:
296,42,157990,2,0,B|260:25|260:25|220:33,1,79.9999999999999,4|8,3:0|0:0,0:0:0:0:
135,78,158638,6,0,B|132:136|132:136|144:176|144:176|140:236,2,160,4|0|0,0:0|0:0|0:0,0:0:0:0:
272,212,160584,2,0,B|236:192|236:192|272:172,1,79.9999999999999,0|8,0:0|0:0,0:0:0:0:
364,192,161233,6,0,B|367:134|367:134|355:94|355:94|359:34,2,160,4|0|0,3:0|0:0|0:0,0:0:0:0:
440,248,162855,1,8,0:0:0:0:
356,292,163179,2,0,L|352:372,1,79.9999999999999,4|8,3:0|0:0,0:0:0:0:
260,344,163828,6,0,P|184:312|124:352,1,160,4|4,0:0|3:0,0:0:0:0:
28,360,164801,1,8,0:0:0:0:
68,272,165125,2,0,P|76:232|68:192,1,79.9999999999999,8|4,0:0|3:0,0:0:0:0:
32,104,165774,2,0,P|24:64|32:25,1,79.9999999999999,4|8,3:0|0:0,0:0:0:0:
120,68,166422,6,0,P|188:108|256:72,2,160,4|8|0,3:0|0:0|0:0,0:0:0:0:
254,74,168693,6,0,L|250:154,1,79.9999999999999,0|4,0:0|0:1,0:0:0:0:
300,232,179395,6,0,L|304:312,1,79.9999999999999,4|0,3:0|0:0,0:0:0:0:
208,312,180044,2,0,L|212:232,1,79.9999999999999,8|0,0:2|0:0,0:0:0:0:
256,148,180693,1,4,3:0:0:0:
424,240,181341,2,0,P|464:252|500:244,2,79.9999999999999,8|0|4,0:2|0:0|3:0,0:0:0:0:
256,148,182638,6,0,P|216:136|180:144,1,79.9999999999999,8|0,0:2|0:0,0:0:0:0:
96,192,183287,1,4,3:0:0:0:
280,244,183936,2,0,L|360:240,1,79.9999999999999,8|0,0:2|0:0,0:0:0:0:
400,152,184584,5,4,3:0:0:0:
508,312,185233,2,0,L|428:308,1,79.9999999999999,8|0,0:2|0:0,0:0:0:0:
356,368,185882,2,0,P|316:356|280:364,1,79.9999999999999,4|0,3:0|0:0,0:0:0:0:
208,84,187179,6,0,L|216:204,1,120,8|8,3:0|3:0,0:0:0:0:
304,84,188152,2,0,L|296:204,1,120,8|4,3:0|3:0,0:0:0:0:
192,316,189125,2,0,P|256:292|320:316,1,140,4|4,3:0|3:0,0:0:0:0:
420,380,190098,6,0,B|444:324|444:324|428:264,2,120,4|8|0,0:0|0:0|0:0,0:0:0:0:
332,344,191395,1,8,0:0:0:0:
244,304,191720,2,0,L|164:312,1,79.9999999999999,0|8,0:0|0:0,0:0:0:0:
72,292,192368,6,0,P|152:280|180:212,1,160,4|0,3:0|0:0,0:0:0:0:
156,120,193341,1,0,0:0:0:0:
248,140,193665,2,0,L|328:132,1,79.9999999999999,0|8,0:0|0:0,0:0:0:0:
412,180,194314,2,0,L|408:260,1,79.9999999999999,4|8,3:0|0:0,0:0:0:0:
328,312,194963,6,0,B|272:292|272:292|172:308,1,160,4|0,3:0|0:0,0:0:0:0:
76,324,195936,1,0,0:0:0:0:
108,232,196260,2,0,L|108:152,1,79.9999999999999,0|8,0:0|0:0,0:0:0:0:
192,108,196909,2,0,L|192:188,1,79.9999999999999,4|8,3:0|0:0,0:0:0:0:
276,144,197557,6,0,P|340:104|416:132,1,160,4|0,3:0|0:0,0:0:0:0:
476,204,198530,2,0,L|472:288,2,79.9999999999999,0|0|8,0:0|0:0|0:0,0:0:0:0:
508,112,199503,1,4,3:0:0:0:
332,32,200152,6,0,P|268:72|192:44,1,160,4|4,0:0|3:0,0:0:0:0:
104,12,201125,2,0,P|96:52|108:92,1,79.9999999999999,8|4,0:0|3:0,0:0:0:0:
76,180,201774,2,0,P|116:187|156:176,1,79.9999999999999,8|4,0:0|3:0,0:0:0:0:
244,208,202422,2,0,P|251:167|240:128,1,79.9999999999999,8|4,0:0|3:0,0:0:0:0:
153,177,203071,6,0,P|145:217|157:257,1,79.9999999999999,8|4,0:0|3:0,0:0:0:0:
240,300,203720,1,8,0:0:0:0:
328,252,204044,2,0,P|404:232|468:276,1,160,4|4,3:0|3:0,0:0:0:0:
508,364,205017,2,0,P|464:372|424:360,1,79.9999999999999,8|4,0:0|3:0,0:0:0:0:
348,312,205665,5,8,0:0:0:0:
351,214,205990,1,8,0:0:0:0:
437,167,206314,1,8,0:0:0:0:
434,265,206638,5,4,3:0:0:0:
351,214,206963,1,8,0:0:0:0:
268,163,207287,1,4,3:0:0:0:
212,240,207611,1,8,0:0:0:0:
120,228,207936,6,0,L|124:312,1,79.9999999999999,4|8,3:0|0:0,0:0:0:0:
256,368,208747,1,8,0:0:0:0:
364,272,209233,1,8,0:0:0:0:
268,163,209720,6,0,B|208:188|208:188|256:216,1,120,8|2,0:0|0:0,0:0:0:0:
352,212,210530,1,4,0:0:0:0:
256,192,211179,12,0,215720,0:0:0:0:
