osu file format v14

[General]
AudioFilename: Lost Love.mp3
AudioLeadIn: 0
PreviewTime: 43665
Countdown: 0
SampleSet: Normal
StackLeniency: 0.7
Mode: 0
LetterboxInBreaks: 1
WidescreenStoryboard: 0

[Editor]
DistanceSpacing: 1.2
BeatDivisor: 4
GridSize: 4
TimelineZoom: 2.899999

[Metadata]
Title:Lost Love
TitleUnicode:Lost Love
Artist:ETIA.
ArtistUnicode:ETIA.
Creator:JJburstOwO
Version:Insane
Source:
Tags:レク Reku Dazzlin’ Drizzle LLMR-002 Lilium Records Meconopsis z1085684963
BeatmapID:762792
BeatmapSetID:341933

[Difficulty]
HPDrainRate:5
CircleSize:4
OverallDifficulty:7
ApproachRate:9
SliderMultiplier:1.3
SliderTickRate:1

[Events]
//Background and Video events
0,0,"bg.jpg",0,0
//Break Periods
2,106947,116525
2,169217,178795
//Storyboard Layer 0 (Background)
//Storyboard Layer 1 (Fail)
//Storyboard Layer 2 (Pass)
//Storyboard Layer 3 (Foreground)
//Storyboard Sound Samples

[TimingPoints]
1666,324.324324324324,4,1,0,100,1,0
12044,-200,4,2,1,30,0,0
22422,-133.333333333333,4,1,1,40,0,0
32801,-111.111111111111,4,1,1,40,0,0
37990,-100,4,1,1,45,0,0
43828,-200,4,1,1,30,0,0
44476,-80,4,1,1,50,0,1
65152,-80,4,1,1,50,0,0
65557,-80,4,1,1,50,0,1
85665,-133.333333333333,4,1,1,40,0,0
86638,-200,4,2,1,30,0,0
91179,-166.666666666667,4,1,1,30,0,0
93774,-133.333333333333,4,1,1,35,0,0
95071,-111.111111111111,4,1,1,40,0,0
96044,-83.3333333333333,4,1,1,40,0,0
96368,-100,4,1,1,45,0,0
117125,-133.333333333333,4,1,1,40,0,0
126206,-200,4,1,1,40,0,0
127179,-100,4,1,1,40,0,0
127503,-133.333333333333,4,1,1,45,0,0
128152,-100,4,1,1,45,0,0
128801,-133.333333333333,4,1,1,45,0,0
129774,-100,4,1,1,45,0,0
131395,-133.333333333333,4,1,1,45,0,0
132044,-100,4,1,1,45,0,0
132693,-133.333333333333,4,1,1,45,0,0
133341,-100,4,1,1,45,0,0
133990,-133.333333333333,4,1,1,45,0,0
135936,-100,4,1,1,45,0,0
137882,-133.333333333333,4,1,1,45,0,0
138206,-100,4,1,1,45,0,0
139179,-133.333333333333,4,1,1,45,0,0
140314,-100,4,1,1,45,0,0
143071,-133.333333333333,4,1,1,45,0,0
143395,-100,4,1,1,45,0,0
146963,-133.333333333333,4,1,1,45,0,0
148260,-100,4,1,1,40,0,0
168693,-133.333333333333,4,2,1,40,0,0
179395,-166.666666666667,4,1,1,40,0,0
184584,-117.647058823529,4,1,1,45,0,0
190098,-80,4,1,1,50,0,1
210206,-80,4,1,1,50,0,0
210611,-100,4,2,1,5,0,0

[Colours]
Combo1 : 141,148,224
Combo2 : 196,201,202
Combo3 : 245,174,249

[HitObjects]
136,96,12044,6,0,L|132:160,1,65,2|0,0:0|0:0,0:0:0:0:
128,238,12693,1,0,0:0:0:0:
376,96,13341,2,0,L|380:160,1,65,2|0,0:0|0:0,0:0:0:0:
384,238,13990,1,0,0:0:0:0:
256,324,14638,6,0,P|216:272|236:216,1,130,2|0,0:0|0:0,0:0:0:0:
312,80,15936,2,0,L|304:16,1,65,2|0,0:0|0:0,0:0:0:0:
196,144,16584,2,0,P|232:152|260:144,1,65,0|0,0:0|0:0,0:0:0:0:
132,92,17233,5,4,0:0:0:0:
116,192,18530,5,4,0:0:0:0:
100,292,19828,6,0,P|148:336|208:328,1,130,2|0,0:0|0:0,0:0:0:0:
264,272,20801,2,0,L|272:208,1,65,0|2,0:0|0:0,0:0:0:0:
256,192,21206,12,0,22098,0:0:0:0:
376,120,22422,6,0,B|372:152|372:152|380:184|380:184|376:216,2,97.50000371933,4|0|8,0:0|0:0|0:0,0:0:0:0:
240,24,23395,2,0,L|192:20,1,48.750001859665,4|2,3:0|0:0,0:0:0:0:
104,96,23720,2,0,P|156:92|188:120,1,97.50000371933
191,143,24125,1,0,0:0:0:0:
186,165,24206,1,0,0:0:0:0:
174,183,24287,1,0,0:0:0:0:
156,196,24368,2,0,L|152:248,1,48.750001859665
228,280,24693,2,0,P|224:308|232:332,1,48.750001859665
308,356,25017,5,4,0:0:0:0:
120,300,25341,2,0,L|72:296,2,48.750001859665,0|4|8,0:0|3:0|0:0,0:0:0:0:
256,192,25990,2,0,L|304:188,2,48.750001859665,8|2|0,3:0|0:0|0:0,0:0:0:0:
100,136,26638,1,0,0:0:0:0:
32,88,26801,2,0,L|36:40,1,48.750001859665
76,16,27044,1,0,0:0:0:0:
93,24,27125,1,0,0:0:0:0:
111,27,27206,1,0,0:0:0:0:
129,25,27287,2,0,L|177:21,1,48.750001859665,4|8,3:0|3:0,0:0:0:0:
268,60,27611,6,0,P|292:104|280:148,2,97.50000371933,4|0|8,0:0|0:0|0:0,0:0:0:0:
228,220,28584,2,0,L|232:268,1,48.750001859665,4|2,3:0|0:0,0:0:0:0:
288,328,28909,2,0,B|320:332|320:332|352:324|352:324|384:328,1,97.50000371933,0|0,0:0|0:0,0:0:0:0:
384,328,29314,1,0,0:0:0:0:
440,268,29476,2,0,L|464:256,1,24.3750009298325,0|0,0:0|0:0,0:0:0:0:
416,189,29720,2,0,L|420:164,2,24.3750009298325,0|0|4,0:0|0:0|3:0,0:0:0:0:
335,170,30044,1,8,3:0:0:0:
278,230,30206,6,0,B|246:226|246:226|214:234|214:234|182:230,1,97.50000371933,4|0,3:0|0:0,0:0:0:0:
116,180,30693,2,0,L|112:132,1,48.750001859665,4|8,3:0|0:0,0:0:0:0:
32,276,31179,6,0,P|56:268|80:272,1,48.750001859665,4|2,3:0|0:0,0:0:0:0:
136,332,31503,2,0,L|140:380,1,48.750001859665,0|4,0:0|3:0,0:0:0:0:
224,372,31828,1,0,0:0:0:0:
216,355,31909,1,0,0:0:0:0:
212,337,31990,1,0,0:0:0:0:
212,319,32071,1,0,0:0:0:0:
215,301,32152,2,0,P|220:272|232:252,1,48.750001859665,4|0,3:0|0:0,0:0:0:0:
288,200,32476,2,0,P|312:188|336:184,1,48.750001859665,4|0,3:0|0:0,0:0:0:0:
416,192,32801,5,4,0:0:0:0:
228,128,33125,1,0,0:0:0:0:
196,216,33287,2,0,L|136:212,1,58.4999982147217,4|0,3:0|0:0,0:0:0:0:
68,152,33611,2,0,P|60:124|64:96,1,58.4999982147217,0|4,0:0|3:0,0:0:0:0:
20,276,34098,5,0,0:0:0:0:
108,248,34260,2,0,L|104:324,1,58.4999982147217,4|0,3:0|0:0,0:0:0:0:
200,336,34584,1,0,0:0:0:0:
200,336,34665,1,0,0:0:0:0:
200,336,34747,2,0,B|236:332|236:332|284:340|284:340|316:336,1,116.999996429443,4|4,3:0|3:0,0:0:0:0:
407,306,35233,6,0,L|404:248,1,58.4999982147217,0|4,0:0|3:0,0:0:0:0:
364,64,35720,2,0,L|361:122,1,58.4999982147217,0|4,0:0|3:0,0:0:0:0:
284,176,36044,2,0,P|256:184|228:176,1,58.4999982147217,0|0,0:0|0:0,0:0:0:0:
151,122,36368,2,0,L|148:64,1,58.4999982147217,4|0,3:0|0:0,0:0:0:0:
256,108,36693,5,0,0:0:0:0:
144,216,36855,2,0,P|140:244|144:276,1,58.4999982147217,4|0,3:0|0:0,0:0:0:0:
200,348,37179,1,0,0:0:0:0:
200,348,37260,1,0,0:0:0:0:
200,347,37341,2,0,P|253:327|307:347,1,116.999996429443,4|4,3:0|3:0,0:0:0:0:
307,347,37990,6,0,L|372:344,1,65,4|0,3:0|0:0,0:0:0:0:
432,260,38314,2,0,L|367:263,1,65,0|4,0:0|3:0,0:0:0:0:
296,188,38638,2,0,L|361:185,1,65,0|0,0:0|0:0,0:0:0:0:
421,101,38962,2,0,L|356:104,1,65,4|0,3:0|0:0,0:0:0:0:
285,29,39287,5,0,0:0:0:0:
275,131,39449,2,0,P|275:163|296:188,1,65,4|0,3:0|0:0,0:0:0:0:
240,288,39774,1,0,0:0:0:0:
240,288,39855,1,0,0:0:0:0:
240,288,39936,2,0,P|240:256|220:232,1,65,4|0,3:0|0:0,0:0:0:0:
120,208,40260,2,0,L|56:204,1,65,4|0,3:0|0:0,0:0:0:0:
0,344,40584,6,0,B|32:340|32:340|24:304,2,65,4|0|0,3:0|0:0|0:0,0:0:0:0:
92,276,41071,2,0,L|108:340,1,65,4|0,3:0|0:0,0:0:0:0:
192,368,41395,1,0,0:0:0:0:
172,284,41557,2,0,L|156:220,1,65,4|0,3:0|0:0,0:0:0:0:
220,172,41882,5,0,0:0:0:0:
288,248,42044,2,0,P|320:260|352:256,1,65,4|0,3:0|0:0,0:0:0:0:
350,256,42287,1,0,0:0:0:0:
350,256,42368,1,0,0:0:0:0:
368,136,42530,2,0,P|341:157|329:187,1,65,4|0,3:0|0:0,0:0:0:0:
424,261,42855,2,0,P|418:227|398:201,1,65,4|0,3:0|0:0,0:0:0:0:
256,68,43828,6,0,B|252:100|252:100|260:132|260:132|256:164,1,97.5,0|0,2:0|2:0,0:0:0:0:
256,256,44476,6,0,L|256:340,2,81.25,4|0|8,0:0|0:0|0:0,0:0:0:0:
340,208,44963,2,0,B|392:196|392:196|448:208|448:208|500:200,1,162.5,0|4,0:0|3:0,0:0:0:0:
436,128,45449,2,0,L|356:112,1,81.25,0|8,0:0|0:0,0:0:0:0:
256,160,45774,5,0,0:0:0:0:
340,208,45936,1,4,3:0:0:0:
340,208,46017,1,0,0:0:0:0:
340,208,46098,1,8,0:0:0:0:
272,64,46260,1,0,0:0:0:0:
172,112,46422,2,0,B|149:107|149:107|112:116|112:116|88:112,1,81.25,0|8,0:0|0:0,0:0:0:0:
12,224,46747,2,0,P|60:192|144:236,1,162.5,8|4,0:0|3:0,0:0:0:0:
168,332,47233,5,0,0:0:0:0:
168,332,47314,1,0,0:0:0:0:
168,332,47395,1,8,0:0:0:0:
260,300,47557,2,0,P|300:292|340:300,1,81.25,0|0,0:0|0:0,0:0:0:0:
432,332,47882,1,4,3:0:0:0:
500,212,48044,2,0,B|504:184|504:184|496:160|496:160|500:132,2,81.25,0|8|0,0:0|0:0|0:0,0:0:0:0:
408,112,48530,5,4,3:0:0:0:
380,248,48693,1,8,0:0:0:0:
288,148,48855,1,0,0:0:0:0:
288,148,48936,1,0,0:0:0:0:
288,148,49017,2,0,B|284:176|284:176|292:200|292:200|288:228,1,81.25,4|4,3:0|3:0,0:0:0:0:
200,268,49341,2,0,L|200:104,1,162.5,8|4,0:0|3:0,0:0:0:0:
116,216,49828,5,0,0:0:0:0:
116,216,49909,1,0,0:0:0:0:
116,216,49990,2,0,P|76:232|36:224,1,81.25,8|0,0:0|0:0,0:0:0:0:
148,144,50314,2,0,P|181:170|194:209,1,81.25,0|4,0:0|3:0,0:0:0:0:
69,152,50638,2,0,P|75:109|102:78,1,81.25,0|8,0:0|0:0,0:0:0:0:
119,232,50963,5,0,0:0:0:0:
256,268,51125,2,0,B|252:296|252:296|260:320|260:320|256:348,1,81.25,8|8,0:0|0:0,0:0:0:0:
393,232,51449,1,0,0:0:0:0:
256,192,51611,2,0,P|248:152|256:112,1,81.25,4|4,3:0|3:0,0:0:0:0:
300,28,51936,2,0,B|342:14|342:14|388:32|416:32|460:16,1,162.5,8|4,0:0|3:0,0:0:0:0:
352,104,52422,5,0,0:0:0:0:
352,104,52503,1,0,0:0:0:0:
352,104,52584,2,0,P|316:116|264:112,1,81.25,8|0,0:0|0:0,0:0:0:0:
140,72,52909,1,0,0:0:0:0:
188,156,53071,2,0,L|184:240,1,81.25,4|0,3:0|0:0,0:0:0:0:
80,328,53395,2,0,P|136:280|216:300,1,162.5,8|4,0:0|3:0,0:0:0:0:
280,376,53882,1,8,0:0:0:0:
408,228,54206,6,0,L|412:144,1,81.25,4|4,3:0|3:0,0:0:0:0:
492,260,54530,1,8,0:0:0:0:
360,304,54693,1,4,3:0:0:0:
292,184,54855,6,0,B|264:180|264:180|240:184|240:184|212:180,1,81.25,4|0,0:0|0:0,0:0:0:0:
211,179,55098,1,0,0:0:0:0:
211,179,55179,1,8,0:0:0:0:
152,104,55341,1,0,0:0:0:0:
136,240,55503,1,0,0:0:0:0:
136,240,55584,1,0,0:0:0:0:
136,240,55665,2,0,P|160:272|160:312,1,81.25,4|0,3:0|0:0,0:0:0:0:
92,384,55990,1,8,0:0:0:0:
44,256,56152,5,0,0:0:0:0:
144,328,56314,1,4,3:0:0:0:
144,328,56395,1,0,0:0:0:0:
144,328,56476,2,0,B|171:330|171:330|200:325|200:325|228:329,1,81.25,8|0,0:0|0:0,0:0:0:0:
312,376,56801,2,0,B|339:378|339:378|367:372|367:372|392:375,1,81.25,0|4,0:0|3:0,0:0:0:0:
472,316,57125,2,0,P|504:240|456:184,1,162.5,8|4,0:0|3:0,0:0:0:0:
328,164,57611,5,0,0:0:0:0:
328,164,57693,1,0,0:0:0:0:
328,164,57774,2,0,L|324:248,1,81.25,8|0,0:0|0:0,0:0:0:0:
187,245,58098,2,0,L|184:164,1,81.25,0|4,0:0|3:0,0:0:0:0:
256,44,58422,2,0,B|284:40|284:40|308:44|308:44|336:40,1,81.25,0|8,0:0|0:0,0:0:0:0:
176,4,58747,5,0,0:0:0:0:
100,120,58909,1,4,3:0:0:0:
100,120,59071,1,8,0:0:0:0:
228,172,59233,1,0,0:0:0:0:
228,172,59314,1,0,0:0:0:0:
228,172,59395,2,0,P|260:200|272:240,1,81.25,4|4,3:0|3:0,0:0:0:0:
256,332,59720,1,8,0:0:0:0:
256,332,60044,6,0,L|260:248,1,81.25,4|0,3:0|0:0,0:0:0:0:
259,250,60287,1,0,0:0:0:0:
259,250,60368,1,8,0:0:0:0:
344,200,60530,1,0,0:0:0:0:
344,200,60693,2,0,L|340:116,2,81.25,0|4|0,0:0|3:0|0:0,0:0:0:0:
348,296,61179,1,8,0:0:0:0:
255,154,61341,6,0,L|172:148,1,81.25,0|8,0:0|0:0,0:0:0:0:
100,212,61665,1,0,0:0:0:0:
32,68,61828,2,0,L|26:151,1,81.25,0|4,0:0|3:0,0:0:0:0:
90,223,62152,1,4,3:0:0:0:
148,378,62314,2,0,B|152:296|152:296|164:264|184:248|208:244,1,162.5,8|8,0:0|0:0,0:0:0:0:
300,280,62801,6,0,L|296:322,2,40.625,0|0|8,0:0|0:0|0:0,0:0:0:0:
244,148,63125,1,8,0:0:0:0:
280,56,63287,2,0,L|322:60,2,40.625,0|0|8,0:0|0:0|0:0,0:0:0:0:
148,112,63611,5,4,3:0:0:0:
56,76,63773,2,0,L|60:34,2,40.625,0|0|8,0:0|0:0|0:0,0:0:0:0:
112,208,64098,1,4,3:0:0:0:
76,300,64260,2,0,L|34:296,2,40.625,0|0|8,0:0|0:0|0:0,0:0:0:0:
208,243,64584,5,4,3:0:0:0:
300,280,64747,2,0,P|320:324|312:356,1,81.25,4|4,3:0|3:0,0:0:0:0:
312,354,64990,1,4,3:0:0:0:
396,305,65152,1,4,3:0:0:0:
188,168,65557,6,0,B|184:104|184:104|196:68|196:68|192:8,1,162.5,4|0,0:0|0:0,0:0:0:0:
104,116,66044,2,0,L|112:228,1,81.25,4|0,3:0|0:0,0:0:0:0:
24,304,66368,1,8,0:0:0:0:
116,276,66530,5,0,0:0:0:0:
188,340,66693,1,4,3:0:0:0:
188,340,66774,1,0,0:0:0:0:
188,340,66855,1,8,0:0:0:0:
280,312,67017,2,0,P|368:312|400:372,1,162.5,0|8,0:0|0:0,0:0:0:0:
460,292,67503,2,0,P|400:236|312:216,1,162.5,8|4,0:0|3:0,0:0:0:0:
228,232,67990,5,0,0:0:0:0:
228,232,68071,1,0,0:0:0:0:
228,232,68152,1,8,0:0:0:0:
260,144,68314,2,0,P|272:108|268:60,1,81.25,0|0,0:0|0:0,0:0:0:0:
108,100,68638,1,4,3:0:0:0:
108,100,68801,2,0,B|140:96|140:96|160:100|160:100|188:96,1,81.25,0|8,0:0|0:0,0:0:0:0:
344,196,69125,5,0,0:0:0:0:
360,100,69287,1,4,3:0:0:0:
376,4,69449,1,8,0:0:0:0:
260,144,69611,1,0,0:0:0:0:
260,144,69693,1,0,0:0:0:0:
260,144,69774,2,0,B|264:176|264:176|260:196|260:196|264:224,1,81.25,4|4,3:0|3:0,0:0:0:0:
396,284,70098,2,0,P|316:288|288:360,1,162.5,8|4,0:0|3:0,0:0:0:0:
196,320,70584,5,0,0:0:0:0:
196,320,70665,1,0,0:0:0:0:
196,320,70747,2,0,P|156:312|116:320,1,81.25,8|0,0:0|0:0,0:0:0:0:
28,356,71071,1,0,0:0:0:0:
44,260,71233,2,0,L|40:176,2,81.25,4|0|8,3:0|0:0|0:0,0:0:0:0:
173,310,71720,5,0,0:0:0:0:
256,260,71882,1,4,3:0:0:0:
256,260,71963,1,0,0:0:0:0:
256,260,72044,1,8,0:0:0:0:
188,192,72206,1,0,0:0:0:0:
314,152,72368,1,4,3:0:0:0:
314,152,72530,1,4,3:0:0:0:
152,40,72693,2,0,P|204:84|288:60,1,162.5,8|4,0:0|3:0,0:0:0:0:
227,4,73179,5,0,0:0:0:0:
227,4,73260,1,0,0:0:0:0:
227,4,73341,2,0,B|224:32|224:32|232:56|232:56|228:84,1,81.25,8|0,0:0|0:0,0:0:0:0:
316,232,73665,1,0,0:0:0:0:
316,232,73828,2,0,B|319:204|319:204|311:180|311:180|315:152,1,81.25,4|0,3:0|0:0,0:0:0:0:
228,300,74152,2,0,B|232:328|232:328|224:352|224:352|227:380,1,81.25,8|0,0:0|0:0,0:0:0:0:
312,312,74476,1,4,3:0:0:0:
144,288,74638,2,0,B|148:316|148:316|140:340|140:340|143:368,1,81.25,8|0,0:0|0:0,0:0:0:0:
224,284,74963,5,4,3:0:0:0:
220,268,75125,1,4,3:0:0:0:
216,252,75287,1,8,0:0:0:0:
212,236,75449,1,4,3:0:0:0:
48,128,75611,6,0,P|108:176|180:144,1,162.5,4|8,0:0|0:0,0:0:0:0:
216,56,76098,1,0,0:0:0:0:
216,56,76422,1,4,3:0:0:0:
276,132,76584,2,0,L|360:120,1,81.25,0|8,0:0|0:0,0:0:0:0:
480,180,76909,5,0,0:0:0:0:
388,212,77071,1,4,3:0:0:0:
388,212,77152,1,0,0:0:0:0:
388,212,77233,1,8,0:0:0:0:
448,24,77395,2,0,L|440:108,1,81.25,0|0,0:0|0:0,0:0:0:0:
440,104,77638,1,0,0:0:0:0:
440,104,77720,1,4,3:0:0:0:
468,264,77882,2,0,P|392:240|336:296,1,162.5,8|4,0:0|3:0,0:0:0:0:
324,384,78368,5,0,0:0:0:0:
324,384,78449,1,0,0:0:0:0:
324,384,78530,2,0,L|316:304,1,81.25,8|0,0:0|0:0,0:0:0:0:
196,304,78855,2,0,L|188:384,1,81.25,0|4,0:0|3:0,0:0:0:0:
256,240,79179,1,0,0:0:0:0:
216,108,79341,1,8,0:0:0:0:
104,176,79503,6,0,B|140:168|140:168|164:172|180:188,1,81.25,0|4,0:0|3:0,0:0:0:0:
256,240,79828,1,8,0:0:0:0:
296,108,79990,1,0,0:0:0:0:
332,187,80152,2,0,B|348:172|372:168|372:168|408:176,1,81.25,4|4,3:0|3:0,0:0:0:0:
500,280,80476,2,0,L|416:276,1,81.25,8|4,0:0|3:0,0:0:0:0:
296,348,80801,6,0,P|256:352|216:348,1,81.25,4|0,3:0|0:0,0:0:0:0:
204,340,81044,1,0,0:0:0:0:
196,332,81125,2,0,L|200:248,1,81.25,8|0,0:0|0:0,0:0:0:0:
256,72,81449,2,0,L|259:153,1,81.25,4|0,3:0|0:0,0:0:0:0:
252,162,81692,1,0,0:0:0:0:
241,170,81773,2,0,P|200:174|160:170,1,81.25,8|0,0:0|0:0,0:0:0:0:
68,144,82098,5,4,3:0:0:0:
256,72,82260,1,0,0:0:0:0:
256,72,82422,2,0,L|256:160,1,81.25,8|0,0:0|0:0,0:0:0:0:
444,240,82747,1,4,3:0:0:0:
256,312,82909,1,0,0:0:0:0:
256,312,83071,2,0,L|256:224,1,81.25,8|8,0:0|0:0,0:0:0:0:
256,230,83314,5,0,0:0:0:0:
256,230,83395,2,0,P|292:256|328:256,1,81.25,4|0,3:0|0:0,0:0:0:0:
424,244,83720,2,0,B|428:160,1,81.25,8|0,0:0|0:0,0:0:0:0:
88,244,84206,2,0,B|84:162,1,81.25,8|0,0:0|0:0,0:0:0:0:
427,162,84693,6,0,B|431:78,1,81.25,8|0,0:0|0:0,0:0:0:0:
84,162,85179,2,0,B|80:80,1,81.25,8|0,0:0|0:0,0:0:0:0:
256,64,85665,6,0,P|272:120|256:152,1,97.50000371933,2|4,0:0|1:0,0:0:0:0:
60,276,86638,5,2,0:0:0:0:
128,240,87287,1,4,0:0:0:0:
204,242,87936,1,2,0:0:0:0:
268,281,88584,1,4,0:0:0:0:
268,281,89882,6,0,L|276:216,1,65,4|0,0:0|0:0,0:0:0:0:
288,108,90530,2,0,P|256:100|224:108,1,65,4|0,0:0|3:0,0:0:0:0:
136,172,91179,6,0,L|132:252,1,77.999997619629,0|0,0:0|0:0,0:0:0:0:
208,196,91828,2,0,L|204:273,1,77.999997619629,8|0,0:0|0:0,0:0:0:0:
304,196,92476,2,0,L|307:273,1,77.999997619629,0|0,0:0|0:0,0:0:0:0:
376,172,93125,2,0,L|379:249,1,77.999997619629,8|0,0:0|0:0,0:0:0:0:
256,112,93774,5,0,0:0:0:0:
404,40,94098,2,0,P|416:60|420:88,1,48.750001859665,0|8,0:0|2:0,0:0:0:0:
332,128,94422,2,0,P|344:107|348:80,1,48.750001859665,8|0,2:0|0:0,0:0:0:0:
320,4,94747,1,0,0:0:0:0:
320,4,94828,1,0,0:0:0:0:
320,4,94909,1,0,0:0:0:0:
248,92,95071,6,0,P|192:116|144:92,1,116.999996429443,0|0,0:0|0:0,0:0:0:0:
104,20,95557,1,8,2:0:0:0:
64,112,95720,1,0,0:0:0:0:
196,44,95882,1,8,2:0:0:0:
180,192,96044,2,0,B|176:224|176:224|180:240|180:240|176:268,1,77.999997619629,8|0,3:0|0:0,0:0:0:0:
172,360,96368,5,4,3:0:0:0:
96,192,96693,1,2,0:0:0:0:
192,176,96855,1,0,0:0:0:0:
192,176,96936,1,0,0:0:0:0:
192,176,97017,2,0,P|228:184|256:176,1,65,4|0,3:0|0:0,0:0:0:0:
272,172,97260,2,0,P|303:164|334:172,1,65,4|0,3:0|0:0,0:0:0:0:
352,184,97503,1,4,3:0:0:0:
308,304,97665,6,0,P|300:272|304:240,1,65,8|0,0:0|0:0,0:0:0:0:
408,128,97990,1,8,0:0:0:0:
413,112,98071,1,8,0:0:0:0:
415,96,98152,1,8,0:0:0:0:
414,80,98233,1,8,0:0:0:0:
408,65,98314,6,0,P|372:57|344:65,1,65,4|0,3:0|0:0,0:0:0:0:
328,69,98557,2,0,P|296:76|265:68,1,65,4|0,3:0|0:0,0:0:0:0:
248,57,98801,1,2,0:0:0:0:
72,192,99125,1,4,3:0:0:0:
188,160,99287,6,0,L|184:232,1,65,4|0,0:0|0:0,0:0:0:0:
180,304,99530,1,0,0:0:0:0:
180,304,99611,2,0,P|148:316|116:312,1,65,0|4,0:0|3:0,0:0:0:0:
248,352,99936,2,0,P|280:364|312:360,1,65,8|0,0:0|0:0,0:0:0:0:
388,332,100260,5,4,3:0:0:0:
356,256,100422,1,0,0:0:0:0:
356,256,100503,1,0,0:0:0:0:
356,256,100584,2,0,L|360:188,1,65,8|4,0:0|3:0,0:0:0:0:
432,152,100909,1,0,0:0:0:0:
288,212,101071,2,0,L|292:144,1,65,4|8,3:0|0:0,0:0:0:0:
364,108,101395,1,4,3:0:0:0:
256,40,101557,6,0,B|234:37|234:37|215:42|215:42|192:40,1,65,4|0,0:0|0:0,0:0:0:0:
116,40,101801,1,0,0:0:0:0:
116,40,101882,1,8,0:0:0:0:
156,112,102044,1,0,0:0:0:0:
56,184,102206,2,0,B|78:187|78:187|97:182|97:182|120:184,1,65,4|0,3:0|0:0,0:0:0:0:
196,184,102450,1,0,0:0:0:0:
196,184,102531,1,8,0:0:0:0:
160,256,102693,1,4,3:0:0:0:
256,356,102855,6,0,P|260:320|256:292,1,65,4|0,3:0|0:0,0:0:0:0:
196,184,103179,2,0,P|225:205|251:216,1,65,8|0,0:0|0:0,0:0:0:0:
374,218,103503,2,0,B|340:232|316:249|316:249|344:264,1,97.5,4|8,3:0|0:0,0:0:0:0:
416,292,103828,1,4,3:0:0:0:
448,180,103990,1,8,0:0:0:0:
425,307,104152,6,0,B|429:331|429:331|425:351|425:351|429:371,1,65,4|4,3:0|3:0,0:0:0:0:
365,203,104476,2,0,B|361:179|361:179|365:159|365:159|361:139,1,65,8|4,0:0|3:0,0:0:0:0:
305,307,104801,1,8,3:0:0:0:
280,307,104882,1,8,3:0:0:0:
256,307,104963,1,8,3:0:0:0:
231,307,105044,1,8,3:0:0:0:
207,308,105125,1,8,0:0:0:0:
184,320,105206,1,8,0:0:0:0:
172,340,105287,2,0,L|168:356,6,10.8333333333333,8|0|0|0|4|0|4,0:0|0:0|0:0|0:0|0:0|0:0|0:0,0:0:0:0:
256,192,105530,12,4,106747,3:0:0:0:
164,108,117125,5,4,3:0:0:0:
164,108,117449,2,0,P|172:136|172:156,1,48.750001859665,8|4,2:0|3:0,0:0:0:0:
156,236,117774,1,8,0:0:0:0:
156,236,118098,2,0,P|184:236|208:232,1,48.750001859665,8|4,2:0|3:0,0:0:0:0:
348,276,118422,5,4,3:0:0:0:
348,276,118747,2,0,P|340:248|340:228,1,48.750001859665,8|4,2:0|3:0,0:0:0:0:
356,148,119071,1,8,0:0:0:0:
356,148,119395,2,0,P|328:148|304:152,1,48.750001859665,4|4,3:0|3:0,0:0:0:0:
256,236,119720,6,0,P|240:292|256:324,1,97.50000371933,4|8,3:0|2:0,0:0:0:0:
328,352,120206,1,4,3:0:0:0:
404,332,120368,2,0,P|432:324|452:328,1,48.750001859665,8|4,0:0|3:0,0:0:0:0:
348,276,120693,2,0,P|355:247|368:232,1,48.750001859665,4|0,3:0|0:0,0:0:0:0:
271,296,121017,6,0,B|244:256|244:256|196:264,1,97.50000371933,4|8,3:0|2:0,0:0:0:0:
116,276,121503,1,8,0:0:0:0:
168,340,121665,2,0,P|192:344|224:340,1,48.750001859665,8|0,0:0|0:0,0:0:0:0:
280,288,121990,1,0,0:0:0:0:
280,288,122071,1,0,0:0:0:0:
280,288,122152,1,0,0:0:0:0:
143,200,122314,6,0,B|132:152|132:152|144:104,1,97.50000371933,4|8,3:0|2:0,0:0:0:0:
164,24,122801,1,4,3:0:0:0:
224,80,122963,2,0,P|251:86|272:84,1,48.750001859665,8|0,0:0|0:0,0:0:0:0:
352,68,123287,2,0,P|378:59|395:47,1,48.750001859665,0|4,0:0|3:0,0:0:0:0:
324,148,123611,6,0,P|308:188|332:236,1,97.50000371933,4|8,3:0|2:0,0:0:0:0:
408,260,124098,1,4,3:0:0:0:
348,316,124260,2,0,L|344:364,1,48.750001859665,8|4,0:0|3:0,0:0:0:0:
268,336,124584,2,0,L|264:288,1,48.750001859665,4|0,3:0|0:0,0:0:0:0:
188,320,124909,5,4,3:0:0:0:
188,320,125233,1,8,2:0:0:0:
196,192,125395,1,8,0:0:0:0:
196,192,125476,1,8,0:0:0:0:
196,192,125557,2,0,L|200:240,1,48.750001859665,8|4,0:0|3:0,0:0:0:0:
124,268,125882,2,0,L|76:272,1,48.750001859665,4|4,3:0|3:0,0:0:0:0:
52,344,126206,6,0,P|4:296|40:208,1,162.5,8|0,0:0|0:0,0:0:0:0:
30,214,127179,6,0,B|42:202|60:200|60:200|96:204,1,65,2|0,0:0|0:0,0:0:0:0:
208,272,127503,6,0,L|204:348,1,73.1250027894975,4|0,0:0|0:0,0:0:0:0:
216,360,127828,2,0,L|219:286,1,73.1250027894975
292,344,128152,6,0,P|324:356|356:352,1,65,8|0,0:0|0:0,0:0:0:0:
372,348,128395,2,0,L|376:284,1,65,8|0,0:0|0:0,0:0:0:0:
368,268,128638,1,8,0:0:0:0:
256,196,128801,6,0,B|220:184|220:184|184:188,2,73.1250027894975,4|4|4,3:0|3:0|3:0,0:0:0:0:
384,140,129449,1,8,0:0:0:0:
272,204,129611,1,0,0:0:0:0:
424,212,129774,1,0,0:0:0:0:
442,196,129855,1,0,0:0:0:0:
456,176,129936,1,0,0:0:0:0:
463,152,130017,1,0,0:0:0:0:
463,128,130098,5,4,3:0:0:0:
456,105,130179,1,0,0:0:0:0:
443,84,130260,1,0,0:0:0:0:
424,69,130341,1,0,0:0:0:0:
402,59,130422,2,0,L|338:63,1,65,0|0,0:0|0:0,0:0:0:0:
196,128,130747,6,0,P|228:116|260:120,1,65,8|0,0:0|0:0,0:0:0:0:
276,124,130990,2,0,L|280:188,1,65,8|0,0:0|0:0,0:0:0:0:
272,204,131233,1,8,0:0:0:0:
168,312,131395,6,0,B|164:288|164:288|172:264|172:264|168:240,2,73.1250027894975,4|4|4,3:0|3:0|3:0,0:0:0:0:
268,340,132044,2,0,L|272:388,2,43.3333333333333,8|0|0,0:0|0:0|0:0,0:0:0:0:
160,328,132368,2,0,L|139:371,2,43.3333333333333,0|0|0,0:0|0:0|0:0,0:0:0:0:
72,263,132693,6,0,L|20:300,1,48.750001859665,4|0,3:0|0:0,0:0:0:0:
32,291,132936,1,0,0:0:0:0:
32,291,133017,2,0,P|44:256|36:220,1,73.1250027894975,0|0,0:0|0:0,0:0:0:0:
28,208,133341,6,0,B|32:176|32:176|28:144|28:144|32:112,2,97.5,8|0|0,0:0|0:0|0:0,0:0:0:0:
124,56,133990,2,0,B|120:80|120:80|128:104|128:104|124:128,2,73.1250027894975,4|0|0,3:0|0:0|0:0,0:0:0:0:
188,208,134638,1,2,0:0:0:0:
203,222,134719,1,0,0:0:0:0:
221,233,134800,1,0,0:0:0:0:
241,241,134881,1,0,0:0:0:0:
262,245,134962,1,0,0:0:0:0:
283,245,135043,1,0,0:0:0:0:
304,242,135124,1,0,0:0:0:0:
324,235,135205,1,0,0:0:0:0:
343,224,135287,6,0,L|351:152,1,73.1250027894975,4|0,3:0|0:0,0:0:0:0:
359,72,135611,1,0,0:0:0:0:
361,90,135692,1,0,0:0:0:0:
363,108,135773,1,0,0:0:0:0:
365,126,135854,1,0,0:0:0:0:
367,144,135936,6,0,L|271:132,2,97.5,8|0|0,0:0|0:0|0:0,0:0:0:0:
356,236,136584,2,0,B|388:240|388:240|420:232|420:232|452:236,2,97.5,4|4|4,3:0|3:0|3:0,0:0:0:0:
348,328,137233,1,8,0:0:0:0:
272,276,137395,2,0,P|204:264|164:304,1,130,4|4,3:0|3:0,0:0:0:0:
356,344,137882,6,0,L|352:264,1,73.1250027894975,4|0,3:0|0:0,0:0:0:0:
364,256,138206,2,0,L|368:320,1,65,4|0,0:0|0:0,0:0:0:0:
260,380,138530,6,0,P|224:384|196:372,1,65,4|0,3:0|0:0,0:0:0:0:
124,368,138774,2,0,P|160:372|188:360,1,65,4|0,3:0|0:0,0:0:0:0:
204,260,139017,1,4,3:0:0:0:
104,160,139179,5,8,0:0:0:0:
104,160,139260,1,8,0:0:0:0:
104,160,139341,1,8,0:0:0:0:
56,239,139503,1,8,0:0:0:0:
51,263,139584,1,8,0:0:0:0:
57,287,139665,1,8,0:0:0:0:
71,307,139746,1,8,0:0:0:0:
92,320,139828,5,4,3:0:0:0:
256,192,140071,1,4,3:0:0:0:
96,48,140314,2,0,L|100:116,1,65,2|0,0:0|0:0,0:0:0:0:
115,131,140557,1,0,0:0:0:0:
137,142,140638,1,4,3:0:0:0:
161,143,140719,1,0,0:0:0:0:
184,135,140801,2,0,P|200:107|204:75,1,65,8|0,0:0|0:0,0:0:0:0:
308,74,141125,6,0,P|311:106|328:135,1,65,4|0,3:0|0:0,0:0:0:0:
404,160,141368,2,0,P|374:147|341:147,1,65,4|0,3:0|0:0,0:0:0:0:
282,200,141611,1,4,3:0:0:0:
377,285,141774,6,0,B|412:288|412:288|440:280,1,65,8|8,0:0|0:0,0:0:0:0:
272,212,142098,2,0,B|237:209|237:209|209:217,1,65,8|8,0:0|0:0,0:0:0:0:
112,296,142422,2,0,L|108:340,2,43.3333333333333,4|0|0,3:0|0:0|0:0,0:0:0:0:
72,216,142747,2,0,L|68:172,2,43.3333333333333,8|0|0,0:0|0:0|0:0,0:0:0:0:
128,288,143071,6,0,P|172:276|216:300,1,97.50000371933,4|8,3:0|0:0,0:0:0:0:
360,132,143720,2,0,B|364:100|364:100|356:68|356:68|360:36,2,97.5,0|0|0,0:0|0:0|0:0,0:0:0:0:
276,64,144368,6,0,L|232:56,2,43.3333333333333,4|0|0,3:0|0:0|0:0,0:0:0:0:
132,120,144693,2,0,L|176:112,2,43.3333333333333,8|0|0,0:0|0:0|0:0,0:0:0:0:
72,60,145017,1,0,0:0:0:0:
59,77,145098,1,0,0:0:0:0:
50,97,145179,1,4,3:0:0:0:
47,118,145260,1,0,0:0:0:0:
50,140,145341,1,8,0:0:0:0:
57,160,145422,1,0,0:0:0:0:
70,178,145503,1,4,3:0:0:0:
86,193,145584,1,0,0:0:0:0:
107,203,145665,5,4,3:0:0:0:
192,188,145828,1,4,3:0:0:0:
256,128,145990,1,8,0:0:0:0:
269,145,146071,1,0,0:0:0:0:
278,165,146152,1,4,3:0:0:0:
281,186,146233,1,0,0:0:0:0:
278,208,146314,2,0,P|270:240|278:272,1,65,8|0,0:0|0:0,0:0:0:0:
288,284,146557,2,0,P|320:294|352:288,1,65,8|0,0:0|0:0,0:0:0:0:
368,280,146801,1,8,0:0:0:0:
240,352,146963,5,8,3:0:0:0:
225,340,147044,1,8,3:0:0:0:
214,325,147125,1,8,3:0:0:0:
208,308,147206,1,8,3:0:0:0:
206,290,147287,1,8,3:0:0:0:
187,305,147368,1,8,3:0:0:0:
164,314,147449,1,8,3:0:0:0:
140,314,147530,1,8,3:0:0:0:
117,305,147611,5,4,3:0:0:0:
105,326,147692,1,4,3:0:0:0:
85,340,147773,1,4,3:0:0:0:
62,346,147854,1,4,3:0:0:0:
38,341,147935,1,8,0:0:0:0:
288,284,148260,6,0,P|320:276|352:280,1,65,4|0,0:0|0:0,0:0:0:0:
351,279,148503,1,0,0:0:0:0:
351,279,148584,2,0,P|388:292|408:312,1,65,8|0,0:0|0:0,0:0:0:0:
440,380,148909,1,0,0:0:0:0:
484,316,149071,2,0,B|480:272|480:272|488:232|488:232|484:188,1,130,4|8,3:0|0:0,0:0:0:0:
412,160,149557,6,0,L|416:228,1,65,0|4,0:0|3:0,0:0:0:0:
351,279,149882,1,8,0:0:0:0:
344,296,150206,5,0,0:0:0:0:
344,296,150287,1,0,0:0:0:0:
344,296,150368,2,0,L|280:292,1,65,4|8,3:0|0:0,0:0:0:0:
260,292,150611,2,0,P|240:320|236:352,1,65,0|0,0:0|0:0,0:0:0:0:
240,368,150855,5,4,3:0:0:0:
344,296,151017,2,0,P|340:264|320:232,1,65,0|8,0:0|0:0,0:0:0:0:
264,184,151341,1,0,0:0:0:0:
140,248,151503,2,0,L|208:236,1,65,0|4,0:0|3:0,0:0:0:0:
270,121,151828,2,0,P|259:152|264:184,1,65,0|8,0:0|0:0,0:0:0:0:
340,160,152152,6,0,B|372:156|372:156|404:160|404:160|436:156,2,97.5,0|0|0,0:0|0:0|0:0,0:0:0:0:
204,80,152801,2,0,B|172:84|172:84|140:80|140:80|108:84,2,97.5,4|0|0,3:0|0:0|0:0,0:0:0:0:
316,0,153449,6,0,L|328:68,1,65,4|0,3:0|0:0,0:0:0:0:
270,121,153774,2,0,L|264:152,3,32.5,8|0|0|0,0:0|0:0|0:0|0:0,0:0:0:0:
260,172,154098,2,0,P|264:208|284:236,1,65,0|4,0:0|3:0,0:0:0:0:
212,272,154422,2,0,L|218:303,3,32.5,0|0|8|0,0:0|0:0|0:0|0:0,0:0:0:0:
222,323,154746,2,0,P|218:359|198:387,1,65,0|4,0:0|3:0,0:0:0:0:
144,328,155071,1,8,0:0:0:0:
144,328,155395,6,0,L|208:316,1,65,4|4,3:0|3:0,0:0:0:0:
340,292,155720,1,8,0:0:0:0:
340,292,156044,1,4,3:0:0:0:
384,228,156206,1,0,0:0:0:0:
384,228,156287,1,0,0:0:0:0:
384,228,156368,2,0,L|380:164,1,65,8|0,0:0|0:0,0:0:0:0:
332,100,156693,1,0,0:0:0:0:
240,176,156855,2,0,L|304:172,1,65,4|0,3:0|0:0,0:0:0:0:
408,92,157179,5,8,0:0:0:0:
408,92,157503,1,4,3:0:0:0:
408,92,157828,1,0,0:0:0:0:
332,80,157990,2,0,P|304:68|268:68,1,65,4|4,3:0|3:0,0:0:0:0:
177,149,158314,2,0,P|207:139|240:140,1,65,8|4,0:0|3:0,0:0:0:0:
288,208,158638,5,4,0:0:0:0:
284,288,158801,1,0,0:0:0:0:
284,288,158882,1,0,0:0:0:0:
284,288,158963,2,0,L|280:352,2,65,8|0|0,0:0|0:0|0:0,0:0:0:0:
352,324,159449,1,4,3:0:0:0:
208,384,159611,2,0,L|144:376,1,65,8|8,0:0|0:0,0:0:0:0:
143,375,159855,1,0,0:0:0:0:
143,375,159936,6,0,P|128:344|128:316,1,65,0|4,0:0|3:0,0:0:0:0:
140,236,160260,2,0,L|204:228,1,65,8|0,0:0|0:0,0:0:0:0:
284,288,160584,1,0,0:0:0:0:
220,240,160747,2,0,L|224:176,1,65,4|8,3:0|0:0,0:0:0:0:
226,157,160990,2,0,L|230:93,1,65,0|0,0:0|0:0,0:0:0:0:
232,74,161233,5,4,3:0:0:0:
308,168,161395,1,0,0:0:0:0:
308,168,161476,1,0,0:0:0:0:
308,168,161557,1,8,0:0:0:0:
144,148,161720,2,0,P|108:192|40:192,1,130,0|4,0:0|3:0,0:0:0:0:
72,120,162206,2,0,P|80:152|80:184,1,65,0|8,0:0|0:0,0:0:0:0:
52,292,162530,1,0,0:0:0:0:
164,244,162693,2,0,P|196:232|228:232,1,65,4|8,3:0|0:0,0:0:0:0:
241,234,163179,5,4,3:0:0:0:
244,248,163341,1,4,3:0:0:0:
248,260,163503,1,8,0:0:0:0:
252,272,163665,1,4,3:0:0:0:
256,288,163828,6,0,P|288:300|320:300,1,65,4|0,0:0|0:0,0:0:0:0:
318,300,164071,1,0,0:0:0:0:
318,300,164152,2,0,P|352:296|380:284,1,65,8|0,0:0|0:0,0:0:0:0:
440,188,164476,2,0,P|408:176|376:176,1,65,4|0,3:0|0:0,0:0:0:0:
377,175,164719,1,0,0:0:0:0:
377,175,164800,2,0,P|343:179|315:191,1,65,8|0,0:0|0:0,0:0:0:0:
256,140,165125,6,0,B|254:116|254:116|259:98|259:98|256:76,1,65,8|0,0:0|0:0,0:0:0:0:
180,152,165449,2,0,B|171:129|171:129|172:110|172:110|163:90,1,65,4|0,3:0|0:0,0:0:0:0:
109,183,165774,2,0,B|95:163|95:163|90:145|90:145|77:127,1,65,4|0,3:0|0:0,0:0:0:0:
48,231,166098,1,8,0:0:0:0:
144,284,166260,1,8,0:0:0:0:
228,212,166422,5,4,3:0:0:0:
256,140,166584,1,4,3:0:0:0:
352,260,166747,1,8,0:0:0:0:
304,200,166909,1,4,3:0:0:0:
276,271,167071,5,8,0:0:0:0:
267,293,167152,1,8,0:0:0:0:
258,316,167233,1,8,0:0:0:0:
249,339,167314,1,8,0:0:0:0:
240,361,167395,2,0,L|244:381,8,16.25,8|0|8|0|8|0|8|0|0,0:0|0:0|0:0|0:0|0:0|0:0|0:0|0:0|0:0,0:0:0:0:
240,361,168693,6,0,P|292:368|328:344,1,97.50000371933,0|4,0:0|0:1,0:0:0:0:
168,244,179395,5,4,3:0:0:0:
168,244,179720,2,0,L|208:240,1,38.9999988098145,0|0,0:0|0:0,0:0:0:0:
308,280,180044,1,8,0:2:0:0:
308,280,180369,2,0,L|304:240,1,38.9999988098145,0|0,0:0|0:0,0:0:0:0:
344,140,180693,1,4,3:0:0:0:
344,140,181018,6,0,L|304:144,1,38.9999988098145,0|0,0:0|0:0,0:0:0:0:
204,104,181341,2,0,L|208:144,1,38.9999988098145,8|0,0:2|0:0,0:0:0:0:
156,200,181665,2,0,P|136:208|116:208,1,38.9999988098145,0|0,0:0|0:0,0:0:0:0:
48,172,181990,5,4,3:0:0:0:
48,172,182314,2,0,L|52:128,1,38.9999988098145,0|0,0:0|0:0,0:0:0:0:
120,100,182638,2,0,L|116:56,1,38.9999988098145,8|0,0:2|0:0,0:0:0:0:
52,16,182963,1,0,0:0:0:0:
124,48,183125,1,0,0:0:0:0:
192,12,183287,5,4,3:0:0:0:
192,12,183611,2,0,P|200:32|212:48,1,38.9999988098145,0|0,0:0|0:0,0:0:0:0:
280,84,183936,2,0,P|301:87|321:84,1,38.9999988098145,8|0,0:2|0:0,0:0:0:0:
386,43,184260,1,0,0:0:0:0:
386,43,184341,1,0,0:0:0:0:
386,43,184422,1,0,0:0:0:0:
476,152,184584,6,0,P|428:128|376:144,1,110.50000210762,4|0,3:0|0:0,0:0:0:0:
332,216,185071,2,0,L|324:272,1,55.2500010538101,0|8,0:0|0:2,0:0:0:0:
320,288,185557,2,0,P|288:296|264:292,1,55.2500010538101,0|0,0:0|0:0,0:0:0:0:
187,270,185882,5,4,3:0:0:0:
187,270,186206,2,0,L|180:216,1,55.2500010538101,0|0,0:0|0:0,0:0:0:0:
136,336,186855,1,0,0:0:0:0:
280,376,187179,5,8,3:0:0:0:
308,376,187665,5,8,3:0:0:0:
332,362,188152,5,8,3:0:0:0:
252,368,188476,5,8,0:0:0:0:
351,343,188638,1,4,3:0:0:0:
228,356,188963,5,8,0:0:0:0:
362,317,189125,1,4,3:0:0:0:
280,284,189287,2,0,P|276:252|280:228,1,55.2500010538101,4|8,3:0|0:0,0:0:0:0:
280,212,189530,2,0,P|284:180|280:156,1,55.2500010538101,4|4,3:0|3:0,0:0:0:0:
220,48,190098,6,0,P|176:96|88:80,1,162.5,4|0,0:0|0:0,0:0:0:0:
24,4,190584,1,8,0:0:0:0:
0,184,190747,2,0,L|84:176,1,81.25,0|8,0:0|0:0,0:0:0:0:
164,228,191071,5,0,0:0:0:0:
132,320,191233,1,4,3:0:0:0:
132,320,191314,1,0,0:0:0:0:
132,320,191395,1,8,0:0:0:0:
256,224,191557,2,0,B|260:196|260:196|252:168|252:168|256:144,1,81.25,0|0,0:0|0:0,0:0:0:0:
380,320,191882,1,4,3:0:0:0:
504,224,192044,2,0,P|424:232|380:172,1,162.5,8|4,0:0|3:0,0:0:0:0:
384,76,192530,5,0,0:0:0:0:
384,76,192611,1,0,0:0:0:0:
384,76,192693,1,8,0:0:0:0:
295,116,192855,2,0,P|256:120|216:116,1,81.25,0|0,0:0|0:0,0:0:0:0:
128,76,193179,1,4,3:0:0:0:
80,204,193341,2,0,L|160:196,1,81.25,0|8,0:0|0:0,0:0:0:0:
284,256,193665,5,0,0:0:0:0:
256,348,193828,1,4,3:0:0:0:
256,348,193990,1,8,0:0:0:0:
128,296,194152,1,0,0:0:0:0:
128,296,194233,1,0,0:0:0:0:
128,296,194314,2,0,L|208:284,1,81.25,4|4,3:0|3:0,0:0:0:0:
336,324,194638,2,0,P|404:364|468:324,1,162.5,8|4,0:0|3:0,0:0:0:0:
411,207,195125,5,0,0:0:0:0:
411,207,195206,1,0,0:0:0:0:
411,207,195287,2,0,P|402:247|402:288,1,81.25,8|0,0:0|0:0,0:0:0:0:
328,244,195611,2,0,P|297:216|263:195,1,81.25,0|4,0:0|3:0,0:0:0:0:
338,153,195936,2,0,P|376:140|412:120,1,81.25,0|4,0:0|3:0,0:0:0:0:
256,104,196260,5,0,0:0:0:0:
256,280,196422,1,4,3:0:0:0:
256,280,196584,1,8,0:0:0:0:
174,153,196747,1,0,0:0:0:0:
174,153,196828,1,0,0:0:0:0:
174,153,196909,2,0,B|144:148|144:148|120:156|120:156|92:152,1,81.25,4|4,3:0|3:0,0:0:0:0:
12,264,197233,2,0,P|96:256|140:312,1,162.5,8|4,0:0|3:0,0:0:0:0:
60,332,197720,1,0,0:0:0:0:
60,332,197801,1,0,0:0:0:0:
60,332,197882,1,8,0:0:0:0:
76,152,198044,5,0,0:0:0:0:
92,144,198368,1,4,3:0:0:0:
108,136,198693,2,0,L|188:144,1,81.25,8|0,0:0|0:0,0:0:0:0:
340,84,199017,1,4,3:0:0:0:
284,164,199179,2,0,P|272:204|276:244,1,81.25,8|0,0:0|0:0,0:0:0:0:
324,328,199503,5,4,3:0:0:0:
376,244,199665,1,4,3:0:0:0:
340,336,199828,1,8,0:0:0:0:
232,320,199990,1,4,3:0:0:0:
68,372,200152,5,4,0:0:0:0:
140,312,200314,1,0,0:0:0:0:
140,312,200395,1,0,0:0:0:0:
140,312,200476,2,0,L|144:228,1,81.25,8|0,0:0|0:0,0:0:0:0:
32,84,200801,1,4,3:0:0:0:
92,156,200963,1,0,0:0:0:0:
92,156,201044,1,0,0:0:0:0:
92,156,201125,2,0,L|176:160,1,81.25,8|0,0:0|0:0,0:0:0:0:
320,48,201449,5,4,3:0:0:0:
248,108,201612,1,0,0:0:0:0:
248,108,201693,1,0,0:0:0:0:
248,108,201774,2,0,L|244:192,1,81.25,8|0,0:0|0:0,0:0:0:0:
356,336,202098,1,4,3:0:0:0:
296,264,202260,1,0,0:0:0:0:
296,264,202341,1,0,0:0:0:0:
296,264,202422,2,0,L|212:260,1,81.25,8|0,0:0|0:0,0:0:0:0:
152,368,202747,6,0,P|228:336|288:380,1,162.5,4|8,3:0|0:0,0:0:0:0:
424,292,203233,1,0,0:0:0:0:
424,292,203314,1,0,0:0:0:0:
424,292,203395,2,0,B|444:252|444:252|440:216,1,81.25,4|0,3:0|0:0,0:0:0:0:
356,52,203720,2,0,B|384:100|372:168|372:168|392:128,1,162.5,8|4,0:0|3:0,0:0:0:0:
276,116,204206,6,0,L|196:108,1,81.25,0|8,0:0|0:0,0:0:0:0:
88,196,204530,1,0,0:0:0:0:
88,196,204611,1,0,0:0:0:0:
88,196,204693,2,0,L|168:188,1,81.25,4|0,3:0|0:0,0:0:0:0:
180,196,204936,1,0,0:0:0:0:
191,204,205017,1,8,0:0:0:0:
269,261,205179,1,8,0:0:0:0:
132,348,205341,5,4,3:0:0:0:
132,348,205503,1,4,3:0:0:0:
168,188,205665,1,8,0:0:0:0:
168,188,205828,1,4,3:0:0:0:
224,344,205990,1,8,0:0:0:0:
224,344,206152,1,4,3:0:0:0:
96,244,206314,1,8,0:0:0:0:
240,132,206476,1,4,3:0:0:0:
240,132,206557,1,4,3:0:0:0:
240,132,206638,6,0,P|248:92|240:52,1,81.25,8|4,0:0|3:0,0:0:0:0:
152,96,206963,1,8,0:0:0:0:
256,220,207125,1,4,3:0:0:0:
256,220,207206,1,4,3:0:0:0:
256,220,207287,5,8,0:0:0:0:
276,219,207368,1,8,0:0:0:0:
296,218,207449,1,8,0:0:0:0:
316,217,207530,1,8,0:0:0:0:
337,216,207611,1,8,0:0:0:0:
357,215,207693,1,8,0:0:0:0:
376,213,207774,2,0,L|384:232,6,13.5416666666667,8|0|0|0|4|0|4,0:0|0:0|0:0|0:0|3:0|0:0|3:0,0:0:0:0:
336,124,208098,5,4,3:0:0:0:
336,124,208260,2,0,L|344:44,1,81.25,8|0,0:0|0:0,0:0:0:0:
188,112,208584,1,0,0:0:0:0:
188,112,208747,2,0,L|108:104,1,81.25,8|0,0:0|0:0,0:0:0:0:
176,260,209071,1,0,0:0:0:0:
176,260,209233,2,0,L|168:340,1,81.25,8|0,0:0|0:0,0:0:0:0:
324,272,209557,1,0,0:0:0:0:
324,272,209719,2,0,L|404:280,2,81.25,8|0|0,0:0|0:0|0:0,0:0:0:0:
256,192,210206,5,2,0:0:0:0:
404,64,210530,1,4,0:0:0:0:
256,192,210611,12,0,215720,0:0:0:0:
